#VERSION:0.83;
#TITLE:Level One;
#SUBTITLE:;
#ARTIST:Yamato;
#TITLETRANSLIT:;
#SUBTITLETRANSLIT:;
#ARTISTTRANSLIT:;
#GENRE:Drumstep / DnB;
#CREDIT:;
#MUSIC:Level One.ogg;
#BANNER:Level One.png;
#BACKGROUND:Level One-bg.png;
#CDTITLE:./CDTitles/bm IIDX 26 Rootage.png;
#SAMPLESTART:57.342;
#SAMPLELENGTH:15.000;
#SELECTABLE:YES;
#OFFSET:0.909;
#BPMS:0.000=173.000;
#STOPS:;
#TIMESIGNATURES:0.000=4=4;
#BGCHANGES:0.000=Level One.mp4=1.000=0=0=0=StretchNoLoop====,
99999.000=-nosongbg-=1.000=0=0=0=StretchNoLoop====
;
#FGCHANGES:;

//--------------- dance-single - forcednature ----------------
#NOTEDATA:;
#STEPSTYPE:dance-single;
#DESCRIPTION:forcednature;
#DIFFICULTY:Beginner;
#METER:4;
#RADARVALUES:0,0,0,0,0;
#CREDIT:forcednature;
#NOTES:
0000
0000
0000
0000
,
0000
0000
0000
0000
,
0000
0000
0000
0000
,
0000
0000
0000
0000
,
0000
0000
0000
0000
,
0000
0000
0000
0000
,
0001
0000
0000
0000
,
0000
0000
0000
0000
,
0100
0000
0000
0000
,
0010
0000
0000
0000
,
1000
0000
0000
0000
,
0100
0000
0000
0000
,
1000
0000
0000
0000
,
1000
0000
0000
0000
,
0001
0000
0000
0000
,
0010
0000
0000
0000
,
0001
0000
0000
0000
,
0100
0000
0000
0000
,
1001
0000
0000
0000
,
0000
0000
0000
0000
,
0001
0000
0000
0000
,
1000
0000
0000
0000
,
0010
0000
0000
0000
,
1000
0000
0000
0000
,
0100
0000
0100
0000
,
0010
0000
0000
0000
,
1001
0000
0000
0000
,
0001
0000
0000
0000
,
0100
0000
0000
0000
,
0010
0000
0010
0000
,
1000
0000
0000
0000
,
0100
0000
0000
0000
,
1000
0000
1000
0000
,
0001
0000
0000
0000
,
1001
0000
0000
0000
,
0001
0000
0000
0000
,
0010
0000
0000
0000
,
0100
0000
0100
0000
,
0010
0000
0000
0000
,
0010
0000
0010
0000
,
0001
0000
0100
0000
,
0001
0000
0000
0000
,
1001
0000
0000
0000
,
1000
0000
0000
0000
,
0010
0000
0000
0000
,
0100
0000
0100
0000
,
0001
0000
0000
0000
,
0100
0000
0000
0000
,
0010
0000
0000
0000
,
1000
0000
1000
0000
,
0001
0000
0000
0000
,
0010
0000
0000
0000
,
0001
0000
0000
0000
,
0100
0000
0000
0000
,
0001
0000
0000
0000
,
1000
0000
0000
0000
,
1000
0000
0000
0000
,
0010
0000
0000
0000
,
1001
0000
0000
0000
,
1000
0000
0000
0000
,
0100
0000
0000
0000
,
0010
0000
0010
0000
,
0001
0000
0000
0000
,
0100
0000
0000
0000
,
0010
0000
0010
0000
,
1000
0000
0000
0000
,
1001
0000
0000
0000
,
0001
0000
0000
0000
,
0010
0000
0010
0000
,
0001
0000
0000
0000
,
0100
0000
0100
0000
,
0010
0000
0100
0000
,
0010
0000
0010
0000
,
0110
0000
0000
0000
,
1001
0000
0000
0000
,
1000
0000
0000
0000
,
0100
0000
0000
0000
,
1000
0000
1000
0000
,
0010
0000
0000
0000
,
0100
0000
0000
0000
,
0001
0000
0000
0000
,
0010
0000
0010
0000
,
1001
0000
0000
0000
,
1000
0000
0100
0000
,
0010
0000
0000
0000
,
0001
0000
0001
0000
,
1000
0000
0000
0000
,
0001
0000
0100
0000
,
0010
0000
0000
0000
,
1000
0000
0001
0000
;

//--------------- dance-single - forcednature ----------------
#NOTEDATA:;
#STEPSTYPE:dance-single;
#DESCRIPTION:forcednature;
#DIFFICULTY:Easy;
#METER:9;
#RADARVALUES:0,0,0,0,0;
#CREDIT:forcednature;
#NOTES:
0000
0000
0000
0000
,
0000
0000
0000
0000
,
0000
0000
0000
0000
,
0000
0000
0000
0000
,
0000
0000
0000
0000
,
0000
0000
0000
0000
,
1000
0000
0100
0000
,
1000
1000
0010
0100
,
0001
0001
1000
0100
,
1000
0010
0100
0001
,
1001
0000
1000
0100
,
0010
0100
1000
0001
,
0010
0000
0001
0100
,
0010
0010
1000
0001
,
0100
0000
0010
1000
,
0100
1000
0001
1000
,
0100
0000
0010
0001
,
0100
0100
0010
0110
,
0001
0001
1000
0000
,
0001
1000
0001
0000
,
1000
1000
0001
0000
,
1000
0001
1000
0000
,
0010
0010
1000
0010
,
1000
1000
0100
1000
,
0001
0010
0100
1000
,
0020
0000
0130
0110
,
0000
0001
1001
1000
,
0100
1000
0010
0100
,
0000
0001
0011
1000
,
0000
1000
1010
0001
,
0100
0000
0110
0001
,
0001
1000
0100
0010
,
0110
0000
1000
0010
,
0110
0000
0002
0003
,
1001
1000
0100
1000
,
0010
1000
0100
1000
,
0001
0010
0001
0100
,
0001
0010
0001
0100
,
0110
0000
1001
0000
,
0110
0000
1001
0000
,
1000
0100
1000
0001
,
0010
0000
0100
0010
0100
0000
0110
0000
,
1000
0000
0001
0000
0100
0000
0010
0100
,
0010
0000
1000
0000
0001
0000
0010
0001
,
0010
0000
0100
0000
1000
0000
0001
1000
,
0001
0100
0010
1000
,
0100
0000
0010
0000
0100
0000
1000
0100
,
1000
0000
0001
0000
0100
0000
0010
0100
,
0010
0000
1000
0000
0001
1000
0001
0000
,
0010
0001
0010
0000
0100
0000
0110
0000
,
1000
0000
0001
0000
,
0001
0000
1000
0000
,
0010
0000
0100
0000
,
0100
0000
0010
0000
,
1000
0001
0000
0001
,
0000
0010
0000
0001
,
0000
0100
0100
0010
,
2000
0000
0002
3003
,
0000
1000
1001
0001
,
0100
0001
0010
0100
,
0000
1000
1010
0001
,
0000
0001
0011
1000
,
0100
0000
0110
1000
,
1000
0001
0100
0010
,
0110
0000
0001
0010
,
0110
0000
2000
3000
,
1001
0001
0100
0001
,
0010
0001
0100
0001
,
1000
0010
1000
0100
,
1000
0010
1000
0100
,
0110
0000
1001
0000
,
0110
0000
1001
0000
,
0001
0100
0001
1000
,
0010
0000
0100
0010
0100
0000
0110
0000
,
0001
0010
0001
0001
,
0100
0001
0100
0100
,
0010
0100
0010
0000
1000
0010
1000
0000
,
0100
0100
1000
0000
,
0010
1000
0010
0010
,
0100
0010
0100
0100
,
0001
0100
0001
0000
0010
0001
0010
0000
,
0100
0100
1000
0010
,
1001
0000
0001
0100
0001
0000
0010
0001
,
0010
0000
0100
0000
1000
0000
0010
1000
,
0010
0000
0100
0000
0001
0000
1000
0001
,
1000
0000
0100
0000
1000
0000
0010
1000
,
0010
0000
0100
0010
0100
0000
0001
0100
,
0001
0000
0010
0000
0100
0000
0010
0001
,
0010
0000
0100
0000
1000
0001
1000
0000
,
0010
1000
0010
0000
0100
0001
0100
0000
,
0020
0000
0000
0000
,
0030
0000
0000
0000
;

//--------------- dance-single - forcednature ----------------
#NOTEDATA:;
#STEPSTYPE:dance-single;
#DESCRIPTION:forcednature;
#DIFFICULTY:Medium;
#METER:12;
#RADARVALUES:0,0,0,0,0;
#CREDIT:forcednature;
#NOTES:
0000
0000
0000
0000
,
0000
0000
0000
0000
,
0000
0000
0000
0000
,
0000
0000
0000
0000
,
0000
0000
0000
0000
,
0000
0000
0000
0000
,
1000
0000
0100
1000
0100
0000
0010
0100
,
0010
0000
0001
0000
1000
0000
0010
1000
,
0010
0000
0100
0000
0001
1000
0010
0000
,
0100
0010
0100
0001
0100
0000
0010
0000
,
1001
0000
0001
0010
0000
0010
0001
0000
,
1000
0000
0100
0000
0010
0100
1000
0000
,
0001
0000
0001
0100
0000
0100
0010
0000
,
1000
0000
0001
0000
1000
0100
0010
0000
,
0100
0000
1000
0100
1000
0000
0010
0000
,
1000
0000
0001
0100
0001
0000
0010
0000
,
0100
0000
1000
0001
0100
0001
1000
0000
,
0010
0100
0010
0100
0001
0000
0101
0000
,
2000
0010
0001
3010
,
0002
0010
1000
0013
,
2000
0100
0001
3100
,
0002
0100
1000
0103
,
0001
0010
0100
0000
0100
0010
0001
0000
,
1000
0010
0100
0000
0100
0010
1000
0000
,
0001
1000
0100
1000
0010
1000
0100
0000
,
0020
0001
0100
1030
,
0110
0000
0010
0001
1000
0000
0010
0100
,
0000
0100
0001
0000
0100
0010
0000
1000
,
0000
0100
1000
0001
1000
0010
0000
0010
,
0000
0100
0001
1000
0001
0010
0001
1000
,
0100
0000
0011
0000
1001
0000
0001
0100
,
0001
0100
0010
1000
0001
0100
0000
0010
,
1000
0000
0100
1000
1000
0100
0000
1000
,
0010
0000
0100
0001
0001
0010
0000
0000
,
0011
0000
1000
0100
0001
0000
0100
0000
,
1010
0000
0001
0100
1000
0000
0100
0000
,
0011
0000
1000
0010
0001
0000
0010
0000
,
1010
0000
0001
0010
1000
0000
0010
0000
,
0001
0001
0100
0000
0001
0001
0010
0000
,
1000
1000
0100
0000
1000
1000
0010
0000
,
0001
0100
0001
1000
0100
1000
0001
0000
,
0010
0100
0010
0100
1000
0001
0010
0000
,
1001
0000
1000
0010
0100
0000
0001
0010
,
0100
0000
0110
0000
0011
0000
1000
0010
,
0100
0000
0110
0000
1010
0000
0001
0010
,
0001
0001
1000
0100
1000
0001
0010
0000
,
0110
0000
0100
1000
0010
0000
0100
0001
,
0010
0000
0011
0000
0101
0000
0100
0010
,
1000
0000
1010
0000
1000
0100
1000
0001
,
0010
0100
0010
0100
1000
0001
0100
0000
,
0110
1000
1010
0000
,
0110
0001
0011
0000
,
0110
1000
1100
0000
,
0110
0001
0101
0000
,
1000
0000
1000
0010
1000
0000
0010
0000
,
0100
0000
0100
0001
0100
0000
0001
0000
,
0010
0000
0010
0001
0010
0000
0100
0000
,
2000
0000
0002
3003
,
0110
0000
0010
1000
0001
0000
0010
0100
,
0010
0100
1000
0000
0100
0010
0000
0001
,
0000
0100
0001
1000
0001
0010
0000
0010
,
0000
0100
1000
0001
1000
0010
1000
0001
,
0100
0000
1010
0000
1001
0000
1000
0100
,
1000
0100
0010
0001
1000
0100
0000
0010
,
0001
0000
0100
0001
0001
0100
0000
0001
,
0010
0000
0100
1000
1000
0020
0000
0030
,
1001
0000
0001
0100
1000
0100
0001
0000
,
0011
0000
1000
0100
0001
0100
1000
0000
,
1010
0000
0001
0100
1000
0100
0001
0000
,
0011
0000
1000
0100
0001
0200
0000
0300
,
1000
1000
0010
0000
0001
0001
0010
0000
,
1000
1000
0100
0000
0001
0001
0100
0000
,
1000
0010
1000
0001
0010
0001
1000
0000
,
0010
0100
0010
0100
0001
1000
0010
0000
,
0110
0000
0001
0100
0001
0100
0010
0000
,
1000
0000
0100
1000
0100
1000
0001
0000
,
0010
0000
0100
0010
0100
0010
0001
0000
,
1000
0010
0100
0010
1000
0001
0100
0000
,
0001
0000
0010
0100
0010
0100
1000
0000
,
0001
0000
0100
0010
0100
0010
1000
0000
,
0001
0000
0010
0001
0010
0001
1000
0000
,
0100
0010
0100
1000
0100
0010
0001
0000
,
1001
0000
1000
0010
0100
0000
0001
0010
,
0100
0000
0110
0000
0011
0000
1000
0001
,
0100
0000
0110
0000
1010
0000
0001
0010
,
0100
0001
0100
1000
0010
1000
0001
0000
,
0101
0000
0100
0010
1000
0000
0001
0010
,
0100
0000
0110
0000
0011
0000
1000
0010
,
0100
0000
0110
0000
1000
0001
0100
1000
,
0100
0001
0100
0001
0010
0001
1000
0000
,
0200
0000
0000
0000
,
0300
0000
0000
0000
;

//--------------- dance-single - forcednature ----------------
#NOTEDATA:;
#STEPSTYPE:dance-single;
#DESCRIPTION:forcednature;
#DIFFICULTY:Hard;
#METER:15;
#RADARVALUES:0,0,0,0,0;
#CREDIT:forcednature;
#NOTES:
0000
0000
0000
0000
,
0000
0000
0000
0000
,
0000
0000
0000
0000
,
0000
0000
0000
0000
,
0000
0000
0000
0000
,
0000
0000
0000
0000
,
1000
0000
1000
0100
0010
0000
0010
0001
,
1000
0000
0010
0000
0100
0000
0001
1000
,
0001
0000
0010
0000
0100
0100
1000
0001
,
0020
0000
0031
0100
0010
1000
0001
0000
,
1001
0000
1000
0100
0001
0100
1000
0000
,
0001
0010
0100
0000
1000
0010
0100
0001
,
1000
0000
0001
0100
1000
0100
0001
0000
,
1000
0010
0010
0100
0001
1000
0100
0001
,
0100
0000
0100
1000
0001
0010
0001
1000
,
0010
0000
0100
0001
1000
0100
1000
0001
,
0010
0000
0100
1000
0010
0010
0100
0001
,
0010
0000
0001
0010
0001
0000
0100
0001
0100
0000
0010
0000
1000
0000
0000
0000
,
1001
0000
1100
0000
0001
0010
0100
0000
,
1001
0000
0101
0000
1000
0010
0100
0000
,
1001
0000
1010
0000
0001
0100
0010
0000
,
1001
0000
0011
0000
1000
0100
0010
0000
,
0001
0001
0100
0001
1000
1000
0100
1000
,
0001
0001
0010
0001
1000
1000
0010
0000
,
0100
0001
0010
0001
1000
0001
0010
0001
,
0200
0000
0300
0000
0020
0000
0030
0000
1000
0000
0001
1000
0001
0000
0000
0000
,
0021
0000
0031
1000
0020
0000
0130
1000
,
0100
1000
0001
0010
0001
0010
1000
0001
,
0000
0010
1000
0001
0100
2000
0000
3001
,
0000
1000
0010
0100
0001
0010
0010
0001
,
0200
0000
0301
1000
0200
0000
0310
1000
,
0010
1000
0001
0100
0001
0100
1000
0001
,
0010
0000
0000
0000
0001
0000
0100
0001
0100
0001
0100
0000
0000
0000
0010
0000
,
1000
0000
0000
0000
0100
0000
1000
0001
1000
0001
0020
0000
0000
0000
0030
0000
,
0100
0010
0000
0100
1000
0000
0000
0000
0001
0000
0010
0000
0100
0000
0010
0000
,
0001
1000
0000
0001
0100
0000
0000
0000
0010
0000
0100
0000
0100
0000
0001
0000
,
1000
0000
0000
0000
0001
0000
0010
0001
0010
0001
0010
0000
0000
0000
0100
0000
,
1000
0000
0001
0100
0001
0000
0100
0010
0100
0000
0020
0000
0000
0000
0030
0000
,
1000
0100
1000
0100
1000
0000
0000
0000
0001
0100
0001
0100
0001
0000
0000
0000
,
1000
0010
1000
0010
1000
0000
0000
0000
0001
0010
0001
0010
0001
0000
0000
0000
,
1000
0100
1000
0010
0100
0001
0010
0001
,
0100
0010
0100
0000
0010
1000
0010
0000
0100
0001
0100
0001
2000
0000
0000
0000
,
3001
0010
0100
0010
0001
0100
1000
0100
,
0001
0000
0000
0001
0010
0000
0000
0010
0100
0000
0000
0100
1000
0000
0010
0000
,
0100
0000
0000
0100
0001
0000
0000
0001
1000
0000
0000
1000
0100
0000
0010
0000
,
0001
1000
0001
1000
0001
0000
1000
0010
2000
0000
3200
0000
0320
0000
0032
0000
,
1003
0010
0100
1000
0100
0010
1000
0001
,
0010
0000
0000
0010
0100
0000
0000
0100
1000
0000
0000
1000
0001
0000
0100
0000
,
0010
0000
0000
0010
1000
0000
0000
1000
0001
0000
0010
0001
0010
0000
0100
0000
,
1000
0001
1000
0001
1000
0000
0001
0100
0001
0000
1000
0000
0010
0000
0000
0000
,
0110
0000
0000
0001
0010
0000
0000
0000
0110
0000
0000
1000
0010
0000
0000
0000
,
0100
0000
0100
0000
0001
0000
1000
0000
0100
0000
0000
1000
0010
0000
0000
0000
,
0110
0000
0000
0001
0010
0000
0000
0000
0110
0000
0000
1000
0010
0000
0000
0000
,
0100
0000
0100
0000
0001
0000
1000
0000
0001
0000
0000
0010
0100
0000
0000
0000
,
1000
0000
0000
1000
0000
0000
0100
0000
1000
0000
0000
1000
0000
0000
0010
0000
,
0100
0000
0000
0100
0000
0000
0001
0000
0010
0000
0000
0010
0000
0000
0100
0000
,
1000
0000
0010
0000
0100
0000
0010
0000
1000
0001
1000
0001
1000
0000
0001
0000
,
0200
0010
0020
0330
,
1002
0000
1003
0100
0020
0000
0130
0001
,
0100
0001
1000
0010
1000
0010
0001
1000
,
0000
0010
0001
1000
0100
0002
0000
1003
,
0000
0001
0010
0100
1000
0010
0010
1000
,
0002
0000
0103
0010
2000
0000
3010
0001
,
0010
0001
1000
0100
1000
0100
0001
1000
,
0010
0000
0000
0000
1000
0000
0100
1000
0100
1000
0100
0000
0000
0000
0010
0000
,
0001
0000
0000
0000
0100
0000
0001
1000
0001
1000
0020
0000
0000
0000
0030
0000
,
0100
0010
0000
0100
0001
0000
0010
0000
0100
0000
0010
0000
0001
0000
1000
0000
,
0100
0010
0000
0100
1000
0000
0010
0000
0100
0000
0001
0000
0001
0000
0010
0000
,
0001
1000
0000
0100
1000
0000
0010
1000
0010
1000
0010
0000
0100
0000
0001
0000
,
1000
0000
0100
1000
0100
0000
0010
0100
0010
0000
0002
0000
0000
0000
0003
0000
,
1000
0010
1000
0010
0100
0000
0000
0000
0001
0010
0001
0010
0100
0000
0000
0000
,
1000
0001
1000
0001
0100
0000
0000
0000
0001
1000
0001
1000
0100
0000
0000
0000
,
0010
0001
0100
0010
1000
0100
0010
0001
,
0100
0001
0100
0000
0010
1000
0010
0000
1000
0001
1000
0001
0020
0000
0000
0000
,
0130
0000
1000
0000
0010
0000
0100
0010
0100
0000
0001
0000
0010
0000
0000
0000
,
0001
0000
1000
0000
0100
0000
1000
0001
1000
0000
0001
0000
0010
0000
0000
0000
,
0100
0000
1000
0000
0010
0000
0100
0001
0100
0000
0010
0000
1000
0000
0000
0000
,
0001
0010
0001
0010
0001
0000
0010
0100
0010
0000
0100
0000
1000
0000
0001
0000
,
0100
0000
0010
1000
0010
0000
1000
0100
1000
0000
0001
0000
0010
0000
0000
0000
,
0100
0000
0010
0100
0010
0000
0100
1000
0100
0000
1000
0000
0001
0000
0000
0000
,
0100
0000
0001
0100
0001
0000
1000
0100
1000
0000
0010
0000
0100
0000
0000
0000
,
0001
0010
0001
0000
1000
0010
1000
0000
0100
0010
0100
0010
0002
0000
0000
0000
,
1003
0010
0100
0010
1000
0100
0001
0100
,
1000
0000
0000
1000
0010
0000
0000
0010
0100
0000
0000
0100
0001
0000
0010
0000
,
0100
0000
0000
0100
1000
0000
0000
1000
0001
0000
0000
0001
0100
0000
0010
0000
,
1000
0001
1000
0001
1000
0000
0001
0010
0002
0000
0203
0000
0320
0000
2030
0000
,
3001
0010
0100
0001
0100
0010
0001
1000
,
0010
0000
0000
0010
0100
0000
0000
0100
0001
0000
0000
0001
1000
0000
0100
0000
,
0010
0000
0000
0010
0001
0000
0000
0001
1000
0000
0010
1000
0010
0000
0100
0000
,
0001
1000
0001
1000
0001
0000
1000
0100
1000
0000
0001
0010
0002
0000
0003
0000
,
0200
0000
0000
0000
,
0300
0000
0000
0000
;

//--------------- dance-double - forcednature ----------------
#NOTEDATA:;
#STEPSTYPE:dance-double;
#DESCRIPTION:forcednature;
#DIFFICULTY:Easy;
#METER:9;
#RADARVALUES:0,0,0,0,0;
#CREDIT:forcednature;
#NOTES:
00000000
00000000
00000000
00000000
,
00000000
00000000
00000000
00000000
,
00000000
00000000
00000000
00000000
,
00000000
00000000
00000000
00000000
,
00000000
00000000
00000000
00000000
,
00000000
00000000
00000000
00000000
,
00001000
00000000
00010000
00000000
,
00000100
00000100
00001000
00000010
,
00000100
00000100
00000001
00001000
,
00000100
00010000
00000100
00010000
,
00011000
00000000
00100000
00010000
,
01000000
00010000
10000000
00100000
,
10000000
00000000
01000000
00100000
,
00001000
00001000
00010000
00000100
,
00001000
00000000
00000010
00000100
,
00000001
00000100
00000010
00001000
,
00000001
00000000
00000010
00000100
,
00010000
00010000
00001000
00011000
,
00100000
00100000
00010000
00000000
,
01000000
00010000
01000000
00000000
,
00100000
00100000
10000000
00000000
,
01000000
10000000
01000000
00000000
,
00010000
00010000
00001000
00010000
,
00000100
00000100
00001000
00000100
,
00000010
00000001
00000100
00001000
,
00020000
00000000
00031000
00011000
,
00000000
00100000
10010000
00000000
,
10000000
01000000
00100000
00001000
,
00000000
00010000
00011000
00000100
,
00000000
00001000
00001001
00000010
,
00000100
00000000
00000110
00000001
,
00000001
00001000
00000100
00010000
,
00011000
00000000
01000000
00001000
,
00011000
00000000
00200000
00300000
,
10010000
10000000
01000000
10000000
,
00100000
10000000
01000000
10000000
,
00010000
00100000
00010000
01000000
,
00001000
00010000
00000010
00010000
,
00011000
00000000
00000100
00000000
,
00011000
00000000
01000000
00000000
,
00010000
00100000
00001000
00010000
,
00000010
00000000
00001000
00000010
00001000
00000000
00000100
00000000
,
00000110
00000000
00000010
00000000
00000001
00000000
00000100
00000001
,
00000100
00000000
00000010
00000000
00010000
00000000
00001000
00010000
,
00001000
00000000
01000000
00000000
00010000
00000000
10000000
00100000
,
10000000
01000000
00100000
00001000
,
00010000
00000000
00000100
00000000
00010000
00000000
00001000
00010000
,
00001000
00000000
00100000
00000000
00010000
00000000
01000000
00010000
,
01000000
00000000
00100000
00000000
10000000
00010000
10000000
00000000
,
01000000
10000000
01000000
00000000
00100000
00000000
01100000
00000000
,
00010000
00000000
01000000
00000000
,
00001000
00000000
00010000
00000000
,
00000010
00000000
00001000
00000000
,
00000001
00000000
00000100
00000000
,
00000010
00001000
00000000
00001000
,
00000000
00000100
00000000
00010000
,
00000000
00001000
00001000
00100000
,
00020000
00000000
20000000
30030000
,
00000000
10000000
10010000
00010000
,
00100000
00001000
00010000
00000100
,
00000000
00010000
00011000
00100000
,
00000000
00001000
00011000
00000010
,
00001000
00000000
00001100
00000001
,
00000001
00000100
00000010
00001000
,
00001001
00000000
00000001
00000010
,
00000110
00000000
00020000
00030000
,
00011000
00001000
01000000
00010000
,
00100000
00010000
01000000
00001000
,
00010000
00000100
00001000
00000010
,
00001000
00000100
00010000
00001000
,
00011000
00000000
00100000
00000000
,
00011000
00000000
00000010
00000000
,
00001000
00000100
00010000
00001000
,
01000000
00000000
00010000
01000000
00010000
00000000
00100000
00000000
,
01000000
10000000
10000000
00100000
,
01000000
00010000
00010000
00100000
,
00001000
00010000
00001000
00000000
00010000
00001000
00010000
00000000
,
00000100
00000100
00001000
00000000
,
00000010
00001000
00001000
00000100
,
00010000
00001000
00001000
01000000
,
00010000
01000000
00010000
00000000
01000000
00100000
01000000
00000000
,
00100000
00100000
10000000
00010000
,
10010000
00000000
10000000
00100000
10000000
00000000
00010000
00100000
,
00010000
00000000
01000000
00000000
00001000
00000000
00010000
00001000
,
00010000
00000000
00000100
00000000
00001000
00000000
00000010
00001000
,
00000010
00000000
00000100
00000000
00000001
00000000
00000010
00000001
,
00000010
00000000
00000100
00000010
00000100
00000000
00001000
00000100
,
00001000
00000000
00000100
00000000
00010000
00000000
00001000
00010000
,
00001000
00000000
00100000
00000000
00010000
10000000
00010000
00000000
,
01000000
00010000
01000000
00000000
00100000
10000000
00100000
00000000
,
02000000
00000000
00000000
00000000
,
03000000
00000000
00000000
00000000
;

//--------------- dance-double - forcednature ----------------
#NOTEDATA:;
#STEPSTYPE:dance-double;
#DESCRIPTION:forcednature;
#DIFFICULTY:Medium;
#METER:12;
#RADARVALUES:0,0,0,0,0;
#CREDIT:forcednature;
#NOTES:
00000000
00000000
00000000
00000000
,
00000000
00000000
00000000
00000000
,
00000000
00000000
00000000
00000000
,
00000000
00000000
00000000
00000000
,
00000000
00000000
00000000
00000000
,
00000000
00000000
00000000
00000000
,
00001000
00000000
00010000
00001000
00100000
00000000
00010000
00100000
,
00010000
00000000
00010000
00000000
01000000
00000000
00100000
10000000
,
00100000
00000000
01000000
00000000
00010000
10000000
01000000
00000000
,
00100000
00010000
00100000
00010000
00100000
00000000
00001000
00000000
,
00011000
00000000
00000100
00001000
00000000
00001000
00000100
00000000
,
00000010
00000000
00000001
00000000
00000100
00000001
00001000
00000000
,
00000010
00000000
00000010
00010000
00000000
00010000
00001000
00000000
,
01000000
00000000
00010000
00000000
00100000
00010000
10000000
00000000
,
01000000
00000000
00100000
01000000
00100000
00000000
00001000
00000000
,
00010000
00000000
00000100
00010000
00000100
00000000
00001000
00000000
,
00000010
00000000
00000100
00000001
00001000
00000010
00001000
00000000
,
00000100
00010000
00000100
00010000
00001000
00000000
00011000
00000000
,
00200000
00010000
00001000
00310000
,
00002000
00010000
01000000
00013000
,
00020000
00001000
00000100
00031000
,
00000020
00001000
00010000
00001030
,
00000010
00000100
00000010
00000000
00000100
00000001
00000100
00000000
,
00000001
00000010
00000001
00000000
00000010
00000100
00000010
00000000
,
00000100
00001000
00000100
00010000
00001000
00100000
00010000
00000000
,
02000000
00010000
00100000
13000000
,
01100000
00000000
00100000
10000000
00010000
00000000
01000000
00001000
,
00000000
00001000
00010000
00000000
00000100
00001000
00000000
00000010
,
00000000
00000100
00000001
00001000
00000001
00000010
00000000
00000010
,
00000000
00000100
00010000
00001000
00010000
00001000
00100000
00010000
,
00100000
00000000
00110000
00000000
10010000
00000000
10000000
00100000
,
10000000
00100000
01000000
00010000
10000000
00100000
00000000
10000000
,
01000000
00000000
00100000
01000000
01000000
00100000
00000000
00001000
,
00010000
00000000
00000100
00001000
00001000
00000010
00000000
00000000
,
00000110
00000001
00001000
00000100
,
00011000
00100000
00010000
01000000
,
01100000
00010000
10000000
01000000
,
01100000
00010000
00100000
00001000
,
00010000
00000100
00010000
00000000
00001000
00100000
00001000
00000000
,
00010000
00000010
00010000
00000000
00001000
01000000
00001000
00000000
,
00010000
00001000
00010000
00000100
00001000
00000100
00010000
00001000
,
00010000
00000010
00001000
00000010
00000100
00000000
00000110
00000000
,
00001001
00000000
00001000
00000010
00000100
00000000
00000001
00000100
,
00001000
00000000
00011000
00000000
00101000
00000000
00100000
00010000
,
01000000
00000000
01100000
00000000
10100000
00000000
00010000
10000000
,
01000000
01000000
10000000
00010000
00100000
01000000
00010000
00000000
,
00011000
00000000
00001000
00100000
00001000
00000000
00010000
00000100
,
00000010
00000000
00000110
00000000
00000011
00000000
00000001
00001000
,
00000010
00000000
00000110
00000000
00000100
00001000
00010000
00001000
,
00010000
00100000
00010000
00100000
10000000
00000000
00010000
00000000
,
01010000
10000000
10100000
00000000
,
11000000
00010000
00110000
00000000
,
00011000
00000100
00001010
00000000
,
00000101
00000010
00001100
00000000
,
00010000
00000000
00010000
00001000
00100000
00000000
00100000
00000000
,
00001000
00000000
00001000
00010000
00000010
00000000
00000010
00000000
,
00010000
00000000
00010000
00001000
01000000
00010000
01000000
00000000
,
00002000
00000000
00020000
00033000
,
00011000
00000000
00010000
00000010
00001000
00000000
00000100
00010000
,
00000000
00010000
00001000
00000000
01000000
00010000
00000000
00100000
,
00000000
01000000
10000000
00010000
10000000
00100000
00000000
00100000
,
00000000
01000000
00001000
00010000
00001000
00010000
00000010
00001000
,
00000010
00000000
00001010
00000000
00001001
00000000
00000001
00000010
,
00000001
00000010
00000100
00001000
00000001
00000010
00000000
00000001
,
00000100
00000000
00000010
00000100
00000100
00000010
00000000
00010000
,
00001000
00000000
01000000
00010000
00010000
00100000
00000000
00000000
,
01100000
10000000
00010000
01000000
,
00011000
00000010
00001000
00000100
,
00000110
00001000
00000001
00000100
,
00000110
00001000
00000010
00010000
,
00001000
00010000
00100000
00000000
00010000
00001000
00000010
00000000
,
00001000
00010000
01000000
00000000
00010000
00001000
00000100
00000000
,
00001000
00010000
00001000
01000000
00010000
01000000
00001000
00010000
,
00001000
00100000
00010000
00100000
01000000
00000000
01100000
00000000
,
10010000
00000000
10000000
01000000
00010000
00000000
00001000
00000000
,
00100000
00000000
00010000
00100000
00001000
00000000
00010000
00000000
,
00000100
00000000
00001000
00000010
00000000
00000100
00000010
00000000
,
00000100
00000001
00000100
00000001
00001000
00000010
00000100
00000000
,
00000001
00000000
00001000
00000100
00000001
00000000
00000100
00000000
,
00010000
00000000
00001000
00100000
01000000
00000000
10000000
00000000
,
00100000
00000000
01000000
10000000
00000000
01000000
00010000
00000000
,
00100000
00001000
00100000
00001000
00010000
00000100
00010000
00000000
,
00011000
00000000
00001000
00100000
00010000
00000000
10000000
01000000
,
00010000
00000000
00011000
00000000
00010010
00000000
00000010
00001000
,
00000100
00000000
00000110
00000000
00000011
00000000
00001000
00000001
,
00000100
00000100
00000001
00001000
00000010
00000100
00001000
00000000
,
00011000
00000000
00010000
00000010
00010000
00000000
00001000
01000000
,
00100000
00000000
01100000
00000000
10100000
00000000
10000000
00010000
,
00100000
00000000
01100000
00000000
01000000
00010000
00001000
00010000
,
00001000
00000010
00001000
00000010
00000001
00000000
00001001
00000000
,
00000200
00000000
00000000
00000000
,
00000300
00000000
00000000
00000000
;

//--------------- dance-double - forcednature ----------------
#NOTEDATA:;
#STEPSTYPE:dance-double;
#DESCRIPTION:forcednature;
#DIFFICULTY:Hard;
#METER:15;
#RADARVALUES:0,0,0,0,0;
#CREDIT:forcednature;
#NOTES:
00000000
00000000
00000000
00000000
,
00000000
00000000
00000000
00000000
,
00000000
00000000
00000000
00000000
,
00000000
00000000
00000000
00000000
,
00000000
00000000
00000000
00000000
,
00000000
00000000
00000000
00000000
,
00010000
00000000
00010000
00001000
00000010
00000000
00000100
00000010
,
00000001
00000000
00000100
00000000
00001000
00000000
00010000
00001000
,
00010000
00000000
00100000
00000000
10000000
10000000
00010000
01000000
,
00200000
00000000
10300000
01000000
00010000
00000000
00011000
00000000
,
00001000
00000010
00000100
00000000
00000010
00000001
00000100
00000000
,
00001000
00010000
00100000
00000000
01000000
00010000
10000000
00000000
,
01000000
00010000
00001000
00000000
00100000
00001000
00010000
00000000
,
00000100
00001000
00000010
00001000
00000100
00000010
00000001
00000000
,
00000100
00001000
00010000
00000000
00100000
01000000
00100000
00000000
,
10000000
01000000
00010000
00000000
00001000
00100000
00001000
00000000
,
00010000
00000100
00000010
00000000
00000100
00001000
00000001
00000000
,
00000100
00000000
00000001
00000100
00000001
00000000
00000100
00000010
00000100
00000000
00000010
00000000
00001000
00000000
00000000
00000000
,
00001001
00000000
00000011
00000000
00000010
00000100
00010000
00000000
,
00011000
00000000
00101000
00000000
00100000
00010000
01000000
00000000
,
10100000
00000000
11000000
00000000
01000000
00100000
00001000
00000000
,
00011000
00000000
00010100
00000000
00000100
00001000
00000010
00000000
,
00000100
00000100
00000001
00000100
00000001
00000001
00000010
00000001
,
00000010
00000010
00001000
00000010
00001000
00001000
00010000
00001000
,
00010000
01000000
10000000
10000000
00100000
10000000
00100000
00010000
,
00002000
00000000
00003000
00000000
00020000
00000000
00030000
00000000
00001000
00000000
00010000
00001000
00010000
00000000
00000000
00000000
,
00021000
00000000
00030010
00000000
00001100
00000000
00000001
00000100
,
00000001
00000100
00001000
00010000
00001000
00010000
00100000
01000000
,
00000000
00010000
00100000
10000000
00100000
00002000
00000000
00013000
,
00000000
00000100
00010000
00001000
00000010
00000001
00000001
00000010
,
00002000
00000000
00013000
00000000
00101000
00000000
10000000
01000000
,
10000000
01000000
00010000
00001000
00010000
00001000
00000010
00000100
,
00000010
00000000
00000000
00000000
00000001
00000000
00001000
00000001
00001000
00000001
00001000
00000000
00000000
00000000
00000010
00000000
,
00000100
00000000
00000000
00000000
00001000
00000000
00010000
00001000
00010000
00001000
00200000
00000000
00000000
00000000
00300000
00000000
,
00010000
00000000
01000000
00010000
01000000
00000000
00100000
00000000
10000000
00000000
01000000
00000000
00100000
00000000
00001000
00000000
,
00010000
00000000
00001000
00010000
00001000
00000000
00010000
00000000
00000100
00000000
00001000
00000000
00000010
00000000
00000100
00000000
,
00000001
00000000
00000010
00000001
00000010
00000000
00000100
00001000
00000100
00001000
00000100
00000000
00010000
00000000
00001000
00000000
,
01000000
00000000
00010000
01000000
00010000
00000000
10000000
00100000
10000000
00000000
02000000
00000000
00000000
00000000
03000000
00000000
,
00100000
00010000
00100000
00010000
00100000
00000000
00000000
00000000
00001000
00010000
00001000
00010000
00001000
00000000
00000000
00000000
,
00010000
00000100
00010000
00000100
00010000
00000000
00000000
00000000
00000010
00001000
00000010
00001000
00000010
00000000
00000000
00000000
,
00000100
00000001
00000100
00001000
00010000
00100000
10000000
00100000
,
01000000
00100000
01000000
00000000
00100000
10000000
00100000
00000000
01000000
00010000
01000000
00010000
20000000
00000000
00000000
00000000
,
31000000
00010000
00001000
00100000
00010000
01000000
10000000
01000000
,
00010000
00000000
00100000
00010000
00100000
00000000
00001000
00010000
00001000
00000000
00010000
00000100
00001000
00000000
00000010
00000000
,
00000100
00000000
00000001
00000100
00000001
00000000
00000010
00000001
00000010
00000000
00000100
00001000
00000001
00000000
00000010
00000000
,
00001000
00010000
00001000
00010000
00001000
00000000
00100000
00010000
02000000
00000000
03200000
00000000
00320000
00000000
00032000
00000000
,
01003000
00010000
10000000
00100000
00010000
00001000
01000000
00010000
,
00100000
00000000
01000000
00100000
01000000
00000000
10000000
01000000
10000000
00000000
00010000
00100000
01000000
00000000
00010000
00000000
,
00001000
00000000
00100000
00010000
00100000
00000000
00001000
00010000
00000100
00001000
00000100
00001000
00000010
00000000
00000100
00000000
,
00000001
00000010
00000100
00000000
00001000
00000010
00000100
00000000
00000001
00001000
00000001
00001000
00000010
00000000
00000000
00000000
,
00000100
00000100
00001000
00000000
00001000
00001000
00010000
00000000
,
00100000
00000000
10000000
00000000
01000000
10000000
01000000
00000000
00100000
00000000
00001000
00000000
00010000
00000000
00000000
00000000
,
00000100
00000100
00000010
00000000
00000001
00000001
00001000
00000000
,
00000010
00000000
00000100
00000000
00001000
00000000
00010000
00000000
00010000
00000000
00000000
00100000
01000000
00000000
00000000
00000000
,
00010000
00000000
00000000
10000000
00000000
00000000
10000000
00000000
01000000
00000000
00000000
10000000
00000000
00000000
10000000
00000000
,
00100000
00000000
00000000
01000000
00000000
00000000
01000000
00000000
00001000
00000000
00000000
00010000
00000000
00000000
00010000
00000000
,
00000010
00000000
00001000
00000000
00000100
00000000
00001000
00000000
00000001
00000010
00000001
00000010
00000100
00001000
00000100
00001000
,
00000002
00000100
00002000
00003003
,
00020100
00000000
00031000
00000000
00101000
00000000
10000000
01000000
,
10000000
01000000
00010000
00001000
00010000
00001000
00000010
00000100
,
00000000
00001000
00000010
00000001
00000010
00020000
00000000
00031000
,
00000000
01000000
00001000
00010000
00100000
10000000
10000000
00100000
,
00020000
00000000
00031000
00000000
00010010
00000000
00000001
00000100
,
00000001
00000100
00001000
00010000
00001000
00010000
00100000
01000000
,
00100000
00000000
00000000
00000000
10000000
00000000
00010000
10000000
00010000
10000000
00010000
00000000
00000000
00000000
00100000
00000000
,
01000000
00000000
00000000
00000000
00010000
00000000
00001000
00010000
00001000
00010000
00000020
00000000
00000000
00000000
00000030
00000000
,
00001000
00000000
00000100
00001000
00000100
00000000
00000010
00000000
00000001
00000000
00000100
00000000
00000010
00000000
00010000
00000000
,
00001000
00000000
00010000
00001000
00010000
00000000
00001000
00000000
01000000
00000000
00010000
00000000
00100000
00000000
01000000
00000000
,
10000000
00000000
00100000
10000000
00100000
00000000
01000000
00010000
01000000
00010000
01000000
00000000
00001000
00000000
00010000
00000000
,
00000100
00000000
00001000
00000100
00001000
00000000
00000001
00000010
00000001
00000000
00000200
00000000
00000000
00000000
00000300
00000000
,
00000010
00001000
00000010
00001000
00000010
00000000
00000000
00000000
00010000
00001000
00010000
00001000
00010000
00000000
00000000
00000000
,
00001000
01000000
00001000
01000000
00001000
00000000
00000000
00000000
00100000
00010000
00100000
00010000
00100000
00000000
00000000
00000000
,
01000000
10000000
01000000
00010000
00001000
00000010
00000001
00000010
,
00000100
00000010
00000100
00000000
00000010
00000001
00000010
00000000
00000100
00001000
00000100
00001000
00000002
00000000
00000000
00000000
,
00000103
00000000
00001000
00000000
00010000
00000000
00001000
00000000
00010000
00000000
00100000
00000000
10000000
00000000
01000000
10000000
,
01000000
00000000
00100000
00000000
00010000
00000000
01000000
00000000
00001000
00000000
00010000
00000000
00000010
00000000
00001000
00000010
,
00001000
00000000
00000100
00000000
00000001
00000000
00000100
00000000
00001000
00000000
00000010
00000000
00010000
00000000
00001000
00010000
,
00001000
00100000
00010000
00100000
00010000
00000000
00100000
01000000
00100000
00000000
01000000
00000000
10000000
00000000
00100000
00000000
,
01000000
00000000
00001000
00000000
00010000
00000000
00100000
00000000
00010000
00000000
00001000
00000000
00010000
00000000
00000100
00001000
,
00000100
00000000
00000010
00000000
00001000
00000000
00000010
00000000
00000001
00000000
00001000
00000000
00000100
00000000
00010000
00001000
,
00010000
00001000
00100000
01000000
00010000
00001000
01000000
00010000
,
00100000
00010000
00100000
00000000
00001000
00010000
00001000
00010000
00000100
00001000
00000100
00001000
00000002
00000000
00000000
00000000
,
00000103
00001000
00010000
00000010
00001000
00000100
00000001
00000100
,
00001000
00000000
00000010
00001000
00000010
00000000
00010000
00001000
00010000
00000000
00001000
01000000
00010000
00000000
00100000
00000000
,
01000000
00000000
10000000
01000000
10000000
00000000
00100000
10000000
00100000
00000000
01000000
00010000
10000000
00000000
00100000
00000000
,
00010000
00001000
00010000
00001000
00010000
00000000
00000100
00001000
00000020
00000000
00000230
00000000
00002300
00000000
00023000
00000000
,
00030010
00001000
00000001
00000010
00001000
00010000
00000100
00001000
,
00000010
00000000
00000100
00000010
00000100
00000000
00000001
00000100
00000001
00000000
00001000
00000010
00000100
00000000
00001000
00000000
,
00010000
00000000
00000010
00001000
00000010
00000000
00010000
00001000
01000000
00010000
01000000
00010000
00100000
00000000
01000000
00000000
,
10000000
00100000
01000000
00000000
00010000
00100000
01000000
00000000
10000000
00010000
10000000
00010000
00200000
00000000
00000000
00000000
,
00302000
00000000
00000000
00000000
,
00003000
00000000
00000000
00000000
;
