#VERSION:0.83;
#TITLE:Lethal Weapon;
#SUBTITLE:;
#ARTIST:BEMANI Sound Team "HuΣeR";
#TITLETRANSLIT:;
#SUBTITLETRANSLIT:;
#ARTISTTRANSLIT:HuΣeR;
#GENRE:RECKLESS HARDCORE;
#CREDIT:;
#MUSIC:Lethal Weapon.ogg;
#BANNER:Lethal Weapon.png;
#BACKGROUND:Lethal Weapon-bg.png;
#CDTITLE:./CDTitles/bm IIDX 26 Rootage.png;
#SAMPLESTART:44.939;
#SAMPLELENGTH:15.000;
#SELECTABLE:YES;
#OFFSET:0.380;
#BPMS:0.000=180.000
,200.000=90.000
,215.000=180.000
,248.000=90.000
,251.000=180.000
;
#STOPS:215.000=0.333
,251.000=0.333
;
#TIMESIGNATURES:0.000=4=4;
#BGCHANGES:-0.250=Lethal Weapon.mp4=1.000=0=0=0=StretchNoLoop====,
99999.000=-nosongbg-=1.000=0=0=0=StretchNoLoop====
;
#FGCHANGES:;

//--------------- dance-single - forcednature ----------------
#NOTEDATA:;
#STEPSTYPE:dance-single;
#DESCRIPTION:forcednature;
#DIFFICULTY:Beginner;
#METER:5;
#RADARVALUES:0,0,0,0,0;
#CREDIT:forcednature;
#NOTES:
0000
0000
0000
0000
,
0000
0000
0000
0000
,
0000
0000
0000
0000
,
0000
0000
0000
0000
,
0000
0000
0000
0000
,
0000
0000
0000
0000
,
0001
0000
0000
0001
,
0000
0000
1000
0000
,
0010
0000
0000
1000
,
0000
0000
0001
0000
,
1001
0000
1000
0000
,
0100
0000
0000
0000
,
1000
0000
0010
0000
,
1000
0000
0000
0000
,
1001
0000
0001
0000
,
0100
0000
0000
0000
,
0001
0000
0010
0000
,
0001
0000
0000
0000
,
1001
0000
0000
1000
,
0000
1000
0000
1000
,
0000
0010
0000
0100
,
0000
0001
0000
1000
,
0000
0100
0000
0100
,
0000
0100
0000
0000
,
0010
0000
0001
0000
,
1000
0001
1000
0000
,
1001
0000
0000
0001
,
0000
0001
0000
0100
,
0000
0010
0000
0010
,
0000
1000
0000
0001
,
0000
0010
0000
0010
,
0000
0100
0000
0000
,
1000
1000
0001
0000
,
0100
0010
0100
0000
,
2002
0000
3003
0000
,
0001
1000
0001
0000
,
0010
0000
0010
0000
,
0001
0000
0100
0000
,
2002
0000
3003
0000
,
1000
0001
1000
0000
,
0010
0000
0010
0000
,
1000
0000
0100
0000
,
0220
0000
0330
0000
,
0010
0100
0010
0000
,
0001
0000
0001
0000
,
1000
0000
0010
0000
,
0220
0000
0330
0000
,
0100
0010
0100
0000
,
0001
0000
0001
0000
,
1000
0000
0100
0000
,
2002
0000
3003
0000
,
0001
0000
0000
0000
,
0100
0000
0010
0000
,
1000
1000
0002
0003
,
1001
0000
1000
0000
,
1000
0000
0100
0000
,
1000
0000
0001
0000
,
0001
0000
0100
0000
,
1001
0000
1000
0000
,
1000
0000
0010
0000
,
0100
0010
0100
0000
,
0002
0000
0003
0000
,
2002
0000
0000
3003
,
0001
1000
0001
0000
,
0010
0000
0100
0000
,
2002
0000
3003
0000
,
1000
0001
1000
0000
,
0010
0000
0010
0000
,
0100
0000
0001
0000
,
2002
0000
3003
0000
,
0001
1000
0001
0000
,
0010
0000
0010
0000
,
0001
0000
1000
0000
,
2002
0000
3003
0000
,
1000
0001
1000
0000
,
0010
0000
0010
0000
,
0100
0010
0100
0000
,
1001
0000
0001
0000
,
1000
0000
0100
0000
,
0010
0100
0010
0000
,
0001
0000
0100
0000
,
0001
0000
0000
1000
0000
0000
2002
0000
,
0000
0000
0000
3003
;

//--------------- dance-single - forcednature ----------------
#NOTEDATA:;
#STEPSTYPE:dance-single;
#DESCRIPTION:forcednature;
#DIFFICULTY:Easy;
#METER:10;
#RADARVALUES:0,0,0,0,0;
#CREDIT:forcednature;
#NOTES:
0000
0000
0000
0000
,
0000
0000
0000
0000
,
0000
0000
0000
0000
,
0000
0000
0000
0000
,
0000
0000
0000
0000
,
0000
0000
0000
0000
,
1000
0100
1000
0000
0001
0000
1000
0100
,
1000
0001
0010
0100
,
1000
0001
1000
0000
0100
0000
1000
0001
,
0020
0100
0200
0330
,
1001
0001
0100
1001
,
0001
0000
0100
0010
0100
0000
0010
0000
,
1001
1000
0100
1001
,
1000
0000
0100
0010
0100
0000
0010
0000
,
0110
1000
0010
0110
,
1000
0000
0010
0100
0010
0000
0100
0000
,
0001
0100
0001
0000
1000
0000
0010
0000
,
0200
0010
0020
0330
,
1001
0000
1000
0000
0000
0100
1000
0000
,
0010
0000
1000
0000
0010
1000
0010
0000
,
0100
0000
0010
0000
0000
0100
0001
0000
,
0010
0000
0001
0000
0010
0001
0010
0000
,
1001
0000
1000
0000
0000
0100
1000
0000
,
0010
0000
1000
0000
0010
0100
0010
0000
,
0100
0000
0001
1000
0001
0000
0010
0000
,
0001
1000
0001
0000
0200
0000
0310
0000
,
1001
0000
0001
0000
0000
0100
0001
0000
,
0010
0000
0001
1000
0001
0000
0100
0000
,
0010
0000
1000
0000
0000
0100
1000
0000
,
0001
0000
0010
0100
0010
0000
0001
0000
,
1001
0000
1000
0000
0000
0010
0100
0000
,
0010
0000
0100
0001
0100
0000
0010
0000
,
1000
0001
1000
0000
0100
0000
1000
0001
,
1000
0020
0230
0300
,
2002
3003
0001
1000
,
0100
0000
0010
0001
1000
0000
0010
0000
,
0100
0001
0100
0000
0010
0000
1000
0000
,
0100
1000
0100
0000
0010
0000
0001
0000
,
2002
3003
1000
0001
,
0100
0000
0010
1000
0001
0000
0010
0000
,
0100
1000
0100
0000
1000
0000
0010
0000
,
0100
0010
0000
0010
0000
0100
0001
0000
,
0202
0303
1000
0001
,
0010
0000
0100
1000
0001
0000
0100
0000
,
0010
1000
0010
0000
1000
0000
0100
0000
,
0010
0001
1000
0000
0010
0000
0100
0000
,
0220
0330
1000
0001
,
1001
0000
1000
0100
1000
0000
0010
0000
,
0200
0000
0320
0000
1030
0001
1000
0000
,
0010
0100
0010
0000
0200
0000
0300
0000
,
2001
0000
0000
3200
0000
0000
1300
0001
,
0200
0000
0000
0302
0000
0000
1003
0001
,
0020
0000
0000
0230
0000
0000
0310
0001
,
1000
2000
0000
3001
0010
0010
0110
0000
,
1000
0000
1000
0100
0000
0100
0010
0000
,
0010
0001
0000
0001
1000
0000
1001
0000
,
0001
0000
0001
0100
0000
0100
0010
0000
,
0010
1000
0000
1000
0001
0000
1001
0000
,
1000
0000
1000
0100
0000
0010
0100
0000
,
0010
0001
0000
1000
0010
0000
1001
0000
,
0001
0100
0001
0000
1000
0100
1000
0000
,
0020
0000
0130
0010
0200
0000
0300
0000
,
2002
0000
0000
0000
0000
0000
0000
0000
3003
0000
0000
0000
0001
0000
0000
0000
1000
0000
0000
0000
0001
0000
1000
0000
0020
0030
0000
0000
0000
0000
0000
0000
,
0100
0001
0100
0000
0010
0000
1000
0000
,
0100
1000
0100
0000
0010
0000
0001
0000
,
2002
3003
1000
0001
,
0100
0000
0010
0100
0010
0000
1000
0000
,
0001
0010
0001
0000
1000
0000
0010
0000
,
0100
0001
0100
0001
0000
0010
0000
0000
,
0022
0033
1000
0001
,
0010
0000
0100
0010
0100
0000
1000
0000
,
0001
0100
0001
0000
1000
0000
0100
0000
,
0010
0001
0010
0000
0100
0000
0110
0000
,
2002
3003
1000
0010
,
0100
0000
0001
0100
0001
0000
0010
0001
,
0010
0010
0100
0010
,
0001
1000
0001
0000
0100
0000
0110
0000
,
2002
3003
1000
0100
,
1000
0000
0010
0100
0010
0000
0100
0000
,
0001
1000
0001
0000
0010
0000
0100
0000
,
1000
0001
1000
0000
0010
0000
0100
0000
,
0110
0000
0000
0010
0000
0000
2002
0000
,
0000
0000
0000
3003
;

//--------------- dance-single - forcednature ----------------
#NOTEDATA:;
#STEPSTYPE:dance-single;
#DESCRIPTION:forcednature;
#DIFFICULTY:Medium;
#METER:14;
#RADARVALUES:0,0,0,0,0;
#CREDIT:forcednature;
#NOTES:
0000
0000
0000
0000
,
0000
0000
0000
0000
,
0000
0000
0000
0000
,
0000
0000
0000
0000
,
0000
0000
0000
0000
,
0000
0000
0000
0000
,
1000
0100
0010
0100
1000
0000
1000
0100
,
0010
0100
1000
0000
0001
0010
0100
1000
,
0001
0100
0010
0100
0001
1000
0010
1000
,
0002
0000
0000
0000
2003
0000
0000
0000
3010
0000
0100
0010
0100
0000
0000
0000
,
0001
1000
0100
1000
0010
0100
0001
1000
,
0100
1000
0010
0100
0001
1000
0100
0010
,
0001
1000
0010
1000
0100
0010
0001
1000
,
0010
1000
0100
0010
0001
1000
0010
0100
,
0001
1000
1000
0010
1000
0001
0010
0001
,
0001
1000
0010
1000
0001
0010
0100
1000
,
0010
0100
0001
0100
1000
0100
0001
0100
,
0020
0000
0000
0000
0230
0000
0000
0000
0301
0000
1000
0001
1000
0000
0000
0000
,
1010
0000
0011
0000
0001
1000
0100
1000
,
0000
0001
0010
1000
0010
0001
0010
0000
,
0101
0000
1100
0000
1000
0001
0010
0001
,
0000
0000
0100
0000
1000
0000
0100
0000
0001
0000
0100
0010
0100
0000
0000
0000
,
1010
0000
1100
0000
0100
0010
0001
0100
,
0000
1000
0100
0001
0100
0010
1000
0000
,
0001
0000
1000
0001
1000
0000
0100
0000
1000
0000
0010
1000
0010
0000
0100
0000
,
0001
0001
0001
0010
0100
0000
0110
0000
,
1001
0000
1100
0000
1000
0001
0100
0001
,
0000
1000
0010
0001
0010
1000
0010
0000
,
0110
0000
0101
0000
0001
0010
0100
0001
,
0000
0100
1000
0100
0000
1000
0010
0000
,
0110
0000
0101
0000
0001
0010
0100
0001
,
0000
0100
1000
0100
0000
1000
0020
0000
,
0130
0000
0001
0100
0001
0000
0010
0000
0100
0000
1000
0100
1000
0000
0001
0000
,
0100
0100
0010
0010
0100
0010
0110
0000
,
2001
0000
0100
0000
3010
0100
0001
0100
,
1000
0000
0000
0000
0100
0000
0001
0000
0010
0000
0000
0100
1000
0000
0000
0000
,
0001
0000
0100
0001
0100
0000
0010
0100
0010
0000
1000
0000
0100
0000
0000
0000
,
0010
0000
0001
0010
0001
0000
0100
0001
0100
0000
0010
0000
1000
0000
0000
0000
,
1002
0000
0100
0000
0013
0100
1000
0100
,
0001
0000
0000
0000
0100
0000
1000
0000
0010
0000
0000
0100
0001
0000
0000
0000
,
1000
0000
0100
1000
0100
0000
0010
0100
0010
0000
0001
0000
0100
0000
0000
0000
,
2000
3200
0302
0023
0030
0100
0110
0000
,
2001
0000
0010
0000
3100
0010
0001
0010
,
1000
0000
0000
0000
0010
0000
0001
0000
0100
0000
0000
0010
1000
0000
0000
0000
,
0001
0000
0010
0001
0010
0000
0100
0010
0100
0000
1000
0000
0010
0000
0000
0000
,
0100
0000
0001
0100
0001
0000
0010
0001
0010
0000
0000
0000
0110
0000
0000
0000
,
2002
0000
0000
0000
3003
0000
1000
0000
0001
0000
1000
0001
1000
0000
0000
0000
,
0001
0000
0010
0000
0100
0010
0000
0001
0010
0000
0100
1000
0000
0000
0100
0000
,
1000
0000
1000
0000
0001
0000
1000
0000
0010
1000
0010
0000
0100
0000
0000
0000
,
0001
0000
0001
0000
1000
0000
1000
0000
0100
0000
0010
0100
0020
0000
0000
0000
,
0031
0001
0001
0000
1000
0000
0001
0001
0001
0000
0100
0000
0010
0000
1000
0000
,
0100
0100
0100
0000
0010
0000
0100
0100
0100
0000
1000
0000
0001
0000
0100
0000
,
0001
0010
0100
0000
0010
0000
0001
0010
0100
0000
1000
0000
0001
0000
0100
0000
,
0010
0000
1000
0000
0001
0000
0000
0000
0020
0000
0000
0000
0230
0000
0000
0000
1300
0000
1000
0000
0001
0000
0000
0000
2002
3003
0000
0000
0000
0000
0000
0000
,
0001
0000
0100
0001
0100
0000
0010
0000
1000
0000
0100
0000
0010
0000
0001
0010
,
0001
1000
0010
0100
0001
1000
1001
0000
,
0001
0000
0100
0001
0100
0000
0010
0000
1000
0000
0100
0000
0010
0000
0100
1000
,
0100
1000
0001
0100
0010
1000
1001
0000
,
0001
0000
0010
0001
0010
0000
0100
0000
1000
0100
1000
0000
0001
0000
0010
0001
,
0010
0000
0100
0000
1000
0100
1000
0000
0001
0000
1000
0000
1001
0000
0000
0000
,
1000
0000
0001
0000
0100
0000
0010
0000
1000
0001
1000
0001
1000
0000
0000
0000
,
0010
0000
0010
0000
0100
0000
0100
0000
0001
0000
1000
0001
1000
0000
0000
0000
,
2002
0000
0000
0000
0003
0000
0000
0000
3002
0000
0000
0000
0023
0000
0000
0000
0230
0000
0000
0000
1300
0000
0001
0000
0200
0300
0000
0000
0000
0000
0000
0000
,
0010
0000
0100
0010
0100
0000
0010
1000
0010
0000
1000
0000
0001
0000
0000
0000
,
0010
0000
0001
0010
0001
0000
1000
0010
1000
0000
0100
0000
0010
0000
0000
0000
,
2001
0000
0010
0000
3100
0010
0001
0010
,
1000
0000
0000
0000
0010
0000
0001
0000
0100
0000
0000
0010
1000
0000
0000
0000
,
0100
0000
1000
0100
1000
0000
0001
0100
0001
0000
0010
0000
0100
0000
0000
0000
,
0002
0203
2300
3020
0030
0100
0110
0000
,
1002
0000
0010
0000
0103
0010
1000
0010
,
0001
0000
0000
0000
0010
0000
1000
0000
0100
0000
0000
0010
0001
0000
0000
0000
,
1000
0000
0010
1000
0010
0000
0100
0010
0100
0000
0001
0000
0010
0000
0000
0000
,
0100
0000
1000
0100
1000
0000
0010
1000
0010
0000
0000
0000
0110
0000
0000
0000
,
2002
0000
0000
0000
3003
0000
0001
0000
1000
0000
0001
1000
0001
0000
0000
0000
,
1000
0000
0010
0000
0100
0010
0000
1000
0010
0000
0100
0001
0000
0000
0010
0000
,
0001
0000
0001
0000
1000
0000
0001
0000
0010
0001
0010
0000
0100
0000
0000
0000
,
1000
0000
1000
0000
0001
0000
0001
0000
0100
0000
0010
0100
0020
0000
0000
0000
,
1030
0000
0100
0000
1000
0010
0000
1000
0010
0000
0100
0001
0000
0000
0010
0000
,
0001
0000
1000
0000
0001
0100
0000
0001
0100
0000
0010
1000
0000
0000
0001
0000
,
0010
0000
0100
0000
0010
0000
0001
0000
1000
0001
1000
0000
0010
0000
0000
0000
,
1000
0000
1000
0000
0001
0000
0001
0000
0100
0010
0100
0010
0100
0000
0000
0000
,
0001
0000
0100
0000
1000
0000
0100
0000
0001
0000
0100
0010
2000
0000
0000
0000
,
0000
0000
0000
3000
;

//--------------- dance-single - forcednature ----------------
#NOTEDATA:;
#STEPSTYPE:dance-single;
#DESCRIPTION:forcednature;
#DIFFICULTY:Hard;
#METER:17;
#RADARVALUES:0,0,0,0,0;
#CREDIT:forcednature;
#NOTES:
0000
0000
0000
0000
,
0000
0000
0000
0000
,
0000
0000
0000
0000
,
0000
0000
0000
0000
,
0000
0000
0000
0000
,
0000
0000
0000
0000
,
0001
0010
0100
0010
0001
1000
0001
0010
,
0100
0010
0001
1000
0001
0100
0010
1000
,
0002
0000
0000
0000
0013
0000
0100
0000
1000
0001
1000
0100
0010
0000
0001
0000
,
0200
0010
0010
0310
0220
0000
0330
0000
,
1000
0000
0100
1000
0001
0000
0100
0001
0100
0000
0010
0000
1000
0000
0100
1000
,
0001
0000
0100
0001
0100
0000
0010
0000
2000
0000
3200
0000
0320
0000
0032
0000
,
1003
0000
0010
1000
0001
0000
0010
0001
0010
0000
0100
0000
1000
0000
0010
1000
,
0001
0000
0010
0001
0010
0000
0100
0000
2000
0000
3002
0000
0203
0000
0320
0000
,
1030
0000
0100
0010
0001
0000
0100
0010
1000
0000
0001
0000
1000
0000
0100
0010
,
0001
0000
0100
0010
1000
0000
0001
0000
2000
0000
3200
0000
0320
0000
0032
0000
,
0103
0001
0100
0001
0100
0000
0010
0000
1000
0100
0010
0001
0010
0100
1000
0000
,
0020
0100
0100
0130
0220
0000
0330
0000
,
1001
0000
0000
0000
1000
0000
0100
0000
1000
0100
1000
0000
0010
0000
0100
0000
,
0000
0110
0000
0101
0000
0001
0010
0000
,
0110
0000
0000
0000
0100
0000
1000
0000
0001
1000
0001
0000
0100
0000
0110
0000
,
0000
1010
0000
2100
0000
3010
0000
0220
,
0000
0000
0330
0000
0001
0000
0100
0000
0010
0100
0010
0000
1000
0000
1001
0000
,
0000
0011
0000
1010
0000
0100
1001
0000
,
0001
0000
0100
0000
0001
0000
1000
0100
0010
0001
0010
0100
1000
0000
0001
0000
,
0100
0010
0100
0010
1000
0000
0001
0000
0010
0000
0000
0000
2002
0000
0000
0000
,
3003
0000
0000
0000
1000
0000
0100
0000
0010
0100
0010
0000
0001
0000
0100
0000
,
0000
0110
0000
1010
0000
1000
0200
0000
,
0302
0000
0000
0000
0103
0000
1000
0000
0001
1000
0001
0000
0100
0000
0010
0000
,
0000
1010
1000
1100
0000
0200
0010
0300
,
1001
0000
0000
0000
0001
0000
0010
0000
0100
1000
0100
0000
1000
0000
0010
0000
,
0000
0110
0100
0101
0000
0010
1001
0000
,
0001
0000
0100
0010
1000
0000
0001
1000
0100
0010
0100
1000
0001
0000
0100
0000
,
0110
0010
0100
0110
2002
0000
3003
0000
,
1000
0010
0100
0010
1000
0010
0100
0000
0002
0000
0010
0000
2003
0000
0010
0000
,
3001
0000
0000
0000
0101
0000
0001
0000
1001
0000
0000
1000
0010
0000
0100
0000
,
0001
1000
0001
1000
0100
0000
0010
0001
1000
0000
0010
0000
0100
0000
0001
0000
,
0010
0001
0010
0001
1000
0000
0010
0100
0001
0000
0000
0000
1001
0000
0000
0000
,
0001
0010
0100
0010
0001
0010
0100
0000
2000
0000
0010
0000
3002
0000
0010
0000
,
1003
0000
0000
0000
1100
0000
1000
0000
1001
0000
0000
0001
0020
0000
0000
0000
,
0130
0000
1000
0100
0010
0000
0001
0100
0010
0000
1000
0001
0200
0000
0300
0000
,
0101
0000
1001
0000
1100
0000
1001
0000
0000
0001
0010
0100
2000
0000
0000
0000
,
3001
0100
0010
0100
0001
0100
0010
0000
2000
0000
0100
0000
3002
0000
0100
0000
,
1003
0000
0000
0000
0011
0000
0001
0000
1001
0000
0000
1000
0100
0000
0010
0000
,
0001
1000
0010
1000
0001
0000
0100
0001
1000
0000
0100
0000
0010
0000
0001
0000
,
1000
0001
0100
0001
1000
0000
0100
0010
0002
0000
0003
0000
0220
0000
0330
0000
,
2001
0000
3010
0000
0100
0001
0000
1000
0100
0000
0010
0001
1000
0000
0010
0000
,
0100
0001
1000
0000
0100
0010
0000
0001
0100
0000
0010
1000
0001
0000
0010
0000
,
0001
0100
0001
1000
0100
1000
0001
0010
0100
1000
0100
0010
0001
1000
0020
0000
,
0100
0100
0100
0130
0220
0330
2002
3003
,
1000
1000
1000
0000
0100
0000
1000
0100
0010
0000
0001
0000
1000
0010
0100
0001
,
0010
0010
0010
0000
0001
0000
0010
0100
1000
0010
0100
0001
0010
0001
1000
0010
,
1001
0000
0000
0000
1000
0000
0001
0100
0001
0100
0001
0000
0000
0000
0010
0000
0100
0000
0100
0000
1000
0000
0010
1000
0010
1000
0010
0000
0000
0000
1000
0000
,
0001
0100
0001
0100
0001
0000
1000
0100
1000
0100
1000
0000
0020
0000
0000
0000
0100
0000
0100
0000
0100
0000
0130
0000
0220
0330
0000
0000
0000
0000
0000
0000
,
1000
0001
0100
0001
1000
0000
0001
1000
0100
1000
0001
0000
1000
0001
0100
0001
,
1000
0000
0001
1000
0100
1000
0001
0000
0010
0100
1000
0100
0010
0000
0001
0000
,
1000
0010
0100
0010
1000
0000
0001
0010
0100
0010
0001
0000
1000
0010
0100
0010
,
1000
0000
0001
0010
0100
0010
0001
0000
1000
0001
1000
0010
0100
0000
0001
0000
,
1000
0100
0010
0001
0100
0000
0001
0010
0100
1000
0010
0000
1000
0100
0010
0001
,
0100
0000
0001
0010
0100
1000
0010
0000
1000
0001
1000
0001
0100
0000
0010
0000
,
1000
0001
0100
0001
1000
0100
1000
0001
0010
0100
1000
0100
0010
0001
1000
0001
,
0200
0000
0010
0010
0020
0000
0330
0000
,
2002
0000
0000
0000
0003
0000
0000
0000
3200
0000
0000
0000
0320
0000
0000
0000
0032
0000
0000
0000
0103
0000
0010
0000
2002
3003
0000
0000
0000
0000
0000
0000
,
0100
0001
1000
0001
0100
0000
0010
1000
0001
0000
0010
0000
0100
0000
1000
0000
,
0010
1000
0001
1000
0010
0000
0100
0001
0010
0000
0000
0000
1001
0000
0000
0000
,
1000
0100
0010
0100
1000
0100
0010
0000
0002
0000
0100
0000
2003
0000
0100
0000
,
3001
0000
0000
0000
0011
0000
0010
0000
0110
0000
0000
1000
0200
0000
0000
0000
,
0310
0000
0001
0010
0001
0000
0100
0010
1000
0000
0100
1000
0002
0000
0003
0000
,
1100
0000
1001
0000
0101
0000
1001
0000
0000
0001
0010
0100
2000
0000
0000
0000
,
3001
0100
0010
0100
0001
0100
0010
0000
2000
0000
0100
0000
3002
0000
0100
0000
,
1003
0000
0000
0000
1010
0000
0010
0000
0110
0000
0000
0001
0100
0000
0010
0000
,
1000
0001
0010
0001
1000
0000
0100
1000
0001
0000
0100
0000
0010
0000
1000
0000
,
0001
1000
0100
1000
0001
0000
0100
0010
2000
0000
3000
0000
0220
0000
0330
0000
,
1002
0000
0013
0000
0100
1000
0000
0001
0100
0000
0010
1000
0001
0000
0010
0000
,
0100
1000
0001
0000
0100
0010
0000
1000
0100
0000
0010
0001
1000
0000
0010
0000
,
0100
0001
0100
0001
0100
0010
0100
0010
1000
0001
1000
0001
0100
0010
1000
0000
,
0002
0000
0010
0000
0013
0000
0001
1000
0100
0010
0001
1000
0020
0000
0000
0000
,
0130
0001
0100
0000
0001
0010
0000
0100
1000
0000
0010
0100
0000
0001
1000
0000
,
0100
0010
0001
0000
1000
0010
0000
0100
0001
0000
0010
0100
0000
1000
0001
0000
,
0100
0010
0100
0010
1000
0010
0100
0001
1000
0100
0010
0001
0010
0100
1000
0000
,
0020
0000
0100
0000
0100
0000
0130
0000
0010
1000
0001
0100
0010
0000
0000
0000
,
1000
0100
0010
0001
0100
0010
1000
0001
0010
0100
1000
0001
0200
0000
0000
0000
,
0000
0000
0000
0300
;

//--------------- dance-double - forcednature ----------------
#NOTEDATA:;
#STEPSTYPE:dance-double;
#DESCRIPTION:forcednature;
#DIFFICULTY:Easy;
#METER:10;
#RADARVALUES:0,0,0,0,0;
#CREDIT:forcednature;
#NOTES:
00000000
00000000
00000000
00000000
,
00000000
00000000
00000000
00000000
,
00000000
00000000
00000000
00000000
,
00000000
00000000
00000000
00000000
,
00000000
00000000
00000000
00000000
,
00000000
00000000
00000000
00000000
,
00001000
00010000
00100000
00010000
,
00001000
01000000
00010000
00100000
,
00001000
00010000
00000010
00001000
,
00000200
00000010
00000020
00000330
,
00001001
00000001
00000100
00001001
,
00001000
00000100
00010000
00001000
,
00011000
00100000
00001000
00011000
,
01000000
00010000
00100000
01000000
,
01100000
10000000
00100000
01100000
,
00010000
00100000
00001000
00010000
,
00001000
00010000
00001000
00000000
00000010
00000000
00000100
00000000
,
00002000
00000001
00000002
00003003
,
00001001
00000000
00001000
00000000
00000000
00000100
00001000
00000000
,
00000100
00000000
00010000
00000000
00001000
00010000
00001000
00000000
,
00100000
00000000
00010000
00000000
00000000
01000000
00010000
00000000
,
01000000
00000000
00100000
00000000
10000000
00100000
10000000
00000000
,
10010000
00000000
00010000
00000000
00000000
01000000
00010000
00000000
,
00100000
00000000
00001000
00000000
00010000
00001000
00010000
00000000
,
00000100
00000000
00001000
00000100
00001000
00000000
00000010
00000000
,
00000100
00000110
00002002
00003003
,
00001100
00000000
00010000
00000000
00000000
00001000
00010000
00000000
,
00001000
00000000
00100000
00010000
00100000
00000000
01000000
00000000
,
10000000
00000000
00100000
00000000
00000000
01000000
00100000
00000000
,
01000000
00000000
00010000
01000000
00010000
00000000
00100000
00000000
,
00011000
00000000
00001000
00000000
00000000
00010000
00001000
00000000
,
00010000
00000000
00000100
00001000
00000100
00000000
00000010
00000000
,
00000001
00001000
00000001
00000000
00000100
00000000
00000001
00001000
,
00000001
00000020
00000230
00000300
,
00022000
00033000
00100000
00010000
,
01000000
00000000
00100000
10000000
00010000
00000000
00100000
00000000
,
00001000
00010000
00001000
00000000
00010000
00000000
00000100
00000000
,
00001000
00000010
00001000
00000000
00000001
00000000
00000010
00000000
,
00002002
00003003
00001000
00000100
,
00010000
00000000
00001000
00010000
00001000
00000000
00100000
00000000
,
00010000
01000000
00010000
00000000
10000000
00000000
01000000
00000000
,
00100000
00010000
00000000
00010000
00000000
01000000
00001000
00000000
,
00022000
00033000
00010000
00000100
,
00001000
00000000
00000010
00001000
00000010
00000000
00000100
00000000
,
00000001
00000010
00000001
00000000
00001000
00000000
00000010
00000000
,
00010000
00001000
00010000
00000000
00001000
00000000
01000000
00000000
,
02020000
03030000
10000000
00010000
,
10010000
00000000
10000000
01000000
10000000
00000000
00100000
00000000
,
02000000
00000000
03002000
00000000
00013000
00001000
00010000
00000000
,
00000100
00001000
00000100
00000000
00000020
00000000
00000030
00000000
,
00000002
00000000
00000000
00000203
00000000
00000000
00001300
00010000
,
00002000
00000000
00000000
00203000
00000000
00000000
00310000
10000000
,
02000000
00000000
00000000
03200000
00000000
00000000
00301000
00010000
,
00000100
00000200
00000000
00001300
00000010
00000010
00001001
00000000
,
00000001
00000000
00000001
00000100
00000000
00000100
00001000
00000000
,
00001000
00010000
00000000
00010000
00200000
00000000
00300000
00000000
,
10000000
00000000
10000000
01000000
00000000
01000000
00010000
00000000
,
00010000
00001000
00000000
00001000
00000020
00000000
00000030
00000000
,
00000001
00000000
00000001
00000100
00000000
00000100
00001000
00000000
,
00001000
00010000
00000000
00010000
02000000
00000000
03000000
00000000
,
10000000
01000000
10000000
00000000
00010000
01000000
00010000
00000000
,
00200000
00302000
00023000
00030000
,
00022000
00000000
00000000
00000000
00000000
00000000
00000000
00000000
00033000
00000000
00000000
00000000
00001000
00000000
00000000
00000000
00010000
00000000
00000000
00000000
00001000
00000000
00010000
00000000
00000200
00000300
00000000
00000000
00000000
00000000
00000000
00000000
,
00001000
00000100
00001000
00000000
00000001
00000000
00000100
00000000
,
00000010
00001000
00000010
00000000
00010000
00000000
00001000
00000000
,
00022000
00033000
00100000
00010000
,
01000000
00000000
00100000
01000000
00100000
00000000
10000000
00000000
,
01000000
00100000
01000000
00000000
00100000
00000000
00001000
00000000
,
00010000
00001000
00010000
00001000
00000000
00000100
00000000
00000000
,
00000220
00000330
00000010
00001000
,
00000001
00000000
00000010
00000001
00000010
00000000
00000100
00000000
,
00010000
00001000
00010000
00000000
00001000
00000000
00100000
00000000
,
00010000
01000000
00010000
00000000
01000000
00000000
01100000
00000000
,
20020000
30030000
10000000
00100000
,
01000000
00000000
00010000
01000000
00010000
00000000
00100000
00001000
,
00100000
00100000
00001000
00010000
,
00000100
00001000
00000100
00000000
00000010
00000000
00000011
00000000
,
00002002
00003003
00001000
00000010
,
00010000
00000000
00001000
00010000
00001000
00000000
01000000
00000000
,
00010000
10000000
00010000
00000000
00100000
00000000
01000000
00000000
,
10000000
00010000
10000000
00000000
00100000
00000000
00010000
00000000
,
00011000
00000000
00000000
00011000
00000000
00000000
00022000
00000000
,
00000000
00000000
00000000
00033000
;

//--------------- dance-double - forcednature ----------------
#NOTEDATA:;
#STEPSTYPE:dance-double;
#DESCRIPTION:forcednature;
#DIFFICULTY:Medium;
#METER:14;
#RADARVALUES:0,0,0,0,0;
#CREDIT:forcednature;
#NOTES:
00000000
00000000
00000000
00000000
,
00000000
00000000
00000000
00000000
,
00000000
00000000
00000000
00000000
,
00000000
00000000
00000000
00000000
,
00000000
00000000
00000000
00000000
,
00000000
00000000
00000000
00000000
,
00001000
00010000
00000010
00001000
00000010
00000000
00010000
00001000
,
00100000
00010000
00100000
00000000
01000000
10000000
00010000
00000000
,
01000000
00100000
01000000
00001000
00010000
00000010
00001000
00000010
,
00000200
00000000
00000000
00000000
00000302
00000000
00000000
00000000
00000013
00000000
00000001
00000010
00000001
00000000
00000000
00000000
,
00001000
00000010
00010000
00001000
00010000
00000100
00001000
00000010
,
00010000
00001000
00010000
00000100
00001000
00000010
00010000
00001000
,
01000000
00010000
00100000
00001000
00010000
00001000
01000000
00010000
,
00100000
00001000
00010000
00001000
01000000
00010000
10000000
00100000
,
10000000
01000000
01000000
10000000
00010000
00100000
00001000
00010000
,
00010000
00000100
00001000
00000001
00000100
00000010
00001000
00000100
,
00010000
00001000
00000010
00000100
00000010
00001000
00010000
00001000
,
00200000
00000000
00000000
00000000
02300000
00000000
00000000
00000000
13000000
00000000
00010000
10000000
00010000
00000000
00000000
00000000
,
01010000
00000000
00110000
00000000
00100000
01000000
10000000
01000000
,
00000000
00010000
00001000
00010000
00000000
00000010
00001000
00000000
,
00001010
00000000
00000110
00000000
00000100
00000001
00000010
00000001
,
00000000
00000000
00001000
00000000
00000010
00000000
00010000
00000000
00001000
00000000
00010000
00001000
00010000
00000000
00000000
00000000
,
00011000
00000000
00101000
00000000
00100000
00010000
01000000
00010000
,
00000000
01000000
00100000
10000000
00000000
01000000
00010000
00000000
,
00001000
00000000
00010000
00001000
00010000
00000000
00000100
00000000
00001000
00000000
00000010
00000000
00000100
00000000
00000001
00000000
,
00000010
00000010
00000010
00000100
00001000
00000000
00001100
00000000
,
00010000
00000000
00011000
00000000
00100000
00010000
01000000
00010000
,
00000000
10000000
00100000
00010000
00000000
00001000
00010000
00000000
,
00011000
00000000
00010100
00000000
00000100
00001000
00000010
00001000
,
00000000
00000001
00000010
00000100
00000000
00010000
00001000
00000000
,
00011000
00000000
00101000
00000000
00100000
00010000
01000000
00010000
,
00000000
01000000
00100000
10000000
00000000
01000000
00200000
00000000
,
00310000
00000000
00100000
00010000
00100000
00000000
00001000
00000000
00010000
00000000
00000010
00000000
00001000
00000000
00000001
00000000
,
00000100
00000100
00000010
00000010
00010000
00000000
00011000
00000000
,
00201000
00000000
00010000
00000000
01300000
00100000
01000000
10000000
,
00010000
00000000
00000000
00000000
01000000
00000000
00001000
00000000
00010000
00000000
00000000
00000010
00001000
00000000
00000000
00000000
,
00000001
00000000
00000010
00000001
00000010
00000000
00000100
00000010
00000100
00000000
00010000
00000000
00001000
00000000
00000000
00000000
,
00100000
00000000
00010000
00100000
00010000
00000000
01000000
00010000
01000000
00000000
00100000
00000000
10000000
00000000
00000000
00000000
,
01002000
00000000
00010000
00000000
00103000
00010000
00100000
00001000
,
00010000
00000000
00000000
00000000
00000010
00000000
00001000
00000000
00000001
00000000
00000000
00000010
00000100
00000000
00000000
00000000
,
00001000
00000000
00000100
00001000
00000100
00000000
00010000
00001000
00010000
00000000
00001000
00000000
01000000
00000000
00000000
00000000
,
00200000
02300000
03200000
00320000
00030000
00001000
00011000
00000000
,
00010200
00000000
00001000
00000000
00000310
00000100
00000010
00000001
,
00001000
00000000
00000000
00000000
00000010
00000000
00010000
00000000
00001000
00000000
00000000
00100000
00010000
00000000
00000000
00000000
,
01000000
00000000
00100000
01000000
00100000
00000000
10000000
00100000
10000000
00000000
01000000
00000000
00100000
00000000
00000000
00000000
,
00001000
00000000
00010000
00001000
00010000
00000000
00000100
00001000
00000100
00000000
00000000
00000000
00000110
00000000
00000000
00000000
,
00002002
00000000
00000000
00000000
00003003
00000000
00000001
00000000
00001000
00000000
00000100
00001000
00000100
00000000
00000000
00000000
,
00010000
00000000
00001000
00000000
00100000
00010000
00000000
00100000
00010000
00000000
01000000
00010000
00000000
00000000
01000000
00000000
,
00100000
00100000
10000000
01000000
00100000
00001000
00010000
00000000
,
00000100
00000000
00000100
00000000
00001000
00000000
00001000
00000000
00000100
00000000
00000010
00000001
00000020
00000000
00000000
00000000
,
00000031
00000001
00000001
00000000
00000100
00000000
00001000
00001000
00001000
00000000
00010000
00000000
00000000
00000000
00100000
00000000
,
10000000
10000000
10000000
00000000
01000000
00000000
00010000
00010000
00010000
00000000
00001000
00000000
00000000
00000000
00000010
00000000
,
00000001
00000010
00000100
00000000
00001000
00000000
00000001
00000010
00000100
00000000
00010000
00000000
00000000
00000000
00001000
00000000
,
01000000
00000000
00100000
00000000
10000000
00000000
00000000
00000000
02000000
00000000
00000000
00000000
03020000
00000000
00000000
00000000
00031000
00000000
00001000
00000000
00010000
00000000
00000000
00000000
00022000
00033000
00000000
00000000
00000000
00000000
00000000
00000000
,
00000100
00000000
00001000
00000100
00001000
00000000
00000010
00000000
00000100
00000000
00000001
00000000
00000010
00000000
00000100
00000010
,
00000100
00001000
00000010
00010000
00001000
00010000
00011000
00000000
,
01000000
00000000
00010000
01000000
00010000
00000000
00100000
00000000
01000000
00000000
10000000
00000000
00100000
00000000
01000000
00100000
,
01000000
00010000
00100000
00001000
00010000
00001000
00011000
00000000
,
00000010
00000000
00001000
00000010
00001000
00000000
00000001
00000000
00000010
00000000
00000100
00000000
00010000
00000000
00001000
00010000
,
00001000
00100000
00010000
01000000
00010000
10000000
10010000
00000000
,
10000000
00000000
01000000
00000000
00100000
00000000
00001000
00000000
00010000
00000000
00001000
00010000
00001000
00000000
00000000
00000000
,
00000010
00000000
00000010
00000000
00000100
00000000
00000100
00000000
00001000
00000000
00000001
00001000
00000001
00000000
00000000
00000000
,
00000200
00000000
00000000
00000000
00000000
00000000
00000000
00000000
00002300
00000000
00000000
00000000
00023000
00000000
00000000
00000000
00230000
00000000
00000000
00000000
10300000
00000000
01000000
00000000
00200000
00300000
00000000
00000000
00000000
00000000
00000000
00000000
,
00010000
00000000
01000000
00010000
01000000
00000000
00001000
00010000
00001000
00000000
00010000
00000000
00000100
00000000
00000000
00000000
,
00000010
00000000
00000001
00000010
00000001
00000000
00000100
00000001
00000100
00000000
00000010
00000000
00001000
00000000
00000000
00000000
,
00010200
00000000
00001000
00000000
00000310
00000100
00010000
00001000
,
00010000
00000000
00000000
00000000
00100000
00000000
01000000
00000000
00100000
00000000
00000000
10000000
00010000
00000000
00000000
00000000
,
01000000
00000000
00010000
01000000
00010000
00000000
00100000
00010000
00100000
00000000
00001000
00000000
00010000
00000000
00000000
00000000
,
00000020
00000230
00002300
00023000
00030000
00001000
00011000
00000000
,
00010020
00000000
00001000
00000000
00000130
00000010
00001000
00000001
,
00000010
00000000
00000000
00000000
00000100
00000000
00010000
00000000
00001000
00000000
00000000
00100000
00010000
00000000
00000000
00000000
,
01000000
00000000
00100000
01000000
00100000
00000000
10000000
00100000
10000000
00000000
00010000
00000000
00100000
00000000
00000000
00000000
,
00001000
00000000
00010000
00001000
00010000
00000000
00000100
00001000
00000100
00000000
00000000
00000000
00000110
00000000
00000000
00000000
,
00002002
00000000
00000000
00000000
00003003
00000000
00001000
00000000
00000100
00000000
00010000
00001000
00010000
00000000
00000000
00000000
,
00001000
00000000
00100000
00000000
00010000
00100000
00000000
00010000
00100000
00000000
01000000
10000000
00000000
00000000
00100000
00000000
,
01000000
01000000
00010000
00100000
01000000
00010000
00001000
00000000
,
00000010
00000000
00000010
00000000
00000100
00000000
00000100
00000000
00000010
00000000
00000001
00001000
00000002
00000000
00000000
00000000
,
00001003
00000000
00000100
00000000
00010000
00001000
00000000
00010000
00001000
00000000
00100000
00010000
00000000
00000000
01000000
00000000
,
00010000
00000000
10000000
00000000
00100000
01000000
00000000
00100000
01000000
00000000
00010000
10000000
00000000
00000000
01000000
00000000
,
00100000
00001000
00010000
00000100
00000010
00000001
00000100
00000000
,
00001000
00000000
00001000
00000000
00010000
00000000
00010000
00000000
00100000
00000000
01000000
00100000
01000000
00000000
00000000
00000000
,
00010000
00000000
10000000
00000000
01000000
00000000
00010000
00000000
00001000
00000000
00000000
00000010
00000200
00000000
00000000
00000000
,
00000000
00000000
00000000
00000300
;

//--------------- dance-double - forcednature ----------------
#NOTEDATA:;
#STEPSTYPE:dance-double;
#DESCRIPTION:forcednature;
#DIFFICULTY:Hard;
#METER:17;
#RADARVALUES:0,0,0,0,0;
#CREDIT:forcednature;
#NOTES:
00000000
00000000
00000000
00000000
,
00000000
00000000
00000000
00000000
,
00000000
00000000
00000000
00000000
,
00000000
00000000
00000000
00000000
,
00000000
00000000
00000000
00000000
,
00000000
00000000
00000000
00000000
,
00001000
00010000
00000010
00001000
00000100
00000010
00001000
00010000
,
00000010
00001000
00000100
00000010
00000001
00000010
00000100
00010000
,
00002000
00000000
00000000
00000000
00103000
00000000
00010000
00000000
01000000
00010000
01000000
00100000
10000000
00000000
01000000
00000000
,
00010000
00010000
00010000
00001000
00022000
00000000
00033000
00000000
,
00010000
00000000
00001000
00010000
00000100
00000000
00001000
00000100
00001000
00000000
00000010
00000000
00000100
00000000
00000001
00000010
,
00000100
00000000
00000010
00000001
00000010
00000000
00001000
00000000
00020000
00000000
00032000
00000000
00023000
00000000
00230000
00000000
,
01300000
00000000
00100000
10000000
00010000
00000000
00100000
00010000
00100000
00000000
01000000
00000000
00010000
00000000
00001000
00010000
,
00000100
00000000
00001000
00000100
00001000
00000000
00000010
00000000
00000200
00000000
00000302
00000000
00000203
00000000
00002300
00000000
,
00013000
00000000
00001000
00100000
00010000
00000000
01000000
00001000
00010000
00000000
00001000
00000000
00100000
00000000
00010000
10000000
,
00100000
00000000
01000000
00010000
10000000
00000000
01000000
00000000
00200000
00000000
02300000
00000000
03200000
00000000
00302000
00000000
,
00013000
00001000
00010000
00001000
00010000
00000000
00000100
00000000
00010000
00000010
00001000
00000010
00010000
00001000
00010000
00000000
,
00100000
00100000
00100000
01000000
02200000
00000000
03300000
00000000
,
10010000
00000000
00000000
00000000
10000000
00000000
01000000
00000000
10000000
00100000
10000000
00000000
00100000
00000000
01000000
00000000
,
00000000
01010000
00000000
00110000
00000000
00100000
00001000
00000000
,
00011000
00000000
00000000
00000000
00010000
00000000
00000100
00000000
00001000
00000100
00001000
00000000
00000010
00000000
00000110
00000000
,
00000000
00000101
00000000
00000021
00000000
00001030
00000000
00000220
,
00000000
00000000
00000330
00000000
00000100
00000000
00010000
00000000
00001000
00010000
00001000
00000000
00100000
00000000
00110000
00000000
,
00000000
01010000
00000000
01100000
00000000
00100000
10010000
00000000
,
10000000
00000000
01000000
00000000
00100000
00000000
00010000
01000000
00001000
00010000
00001000
01000000
00010000
00000000
00100000
00000000
,
00001000
00010000
00001000
00010000
00000010
00000000
00001000
00000000
00000100
00000000
00000000
00000000
00002002
00000000
00000000
00000000
,
00003003
00000000
00000000
00000000
00000001
00000000
00000010
00000000
00000100
00000010
00000100
00000000
00010000
00000000
00001000
00000000
,
00000000
00011000
00000000
00101000
00000000
00100000
00020000
00000000
,
20030000
00000000
00000000
00000000
30100000
00000000
01000000
00000000
00010000
00100000
00010000
00000000
00100000
00000000
00001000
00000000
,
00000000
00011000
00000000
00010010
00000000
00000020
00001000
00000030
,
00001001
00000000
00000000
00000000
00000001
00000000
00001000
00000000
00000100
00000010
00000100
00000000
00010000
00000000
00001000
00000000
,
00000000
00101000
00000000
00110000
00000000
01000000
10010000
00000000
,
00010000
00000000
00100000
00010000
10000000
00000000
00010000
01000000
00001000
00010000
00001000
00100000
00010000
00000000
01000000
00000000
,
00100000
00010000
00001000
00000100
00000220
00000000
00000330
00000000
,
00000001
00000010
00000001
00000010
00000100
00001000
00000100
00000000
00020000
00000000
00001000
00000000
00030020
00000000
00001000
00000000
,
00010030
00000000
00000000
00000000
00011000
00000000
00001000
00000000
00101000
00000000
00000000
00100000
00020000
00000000
00000000
00000000
,
01030000
00100000
01000000
00100000
10000000
00000000
01000000
10000000
00010000
00000000
00100000
00000000
00001000
00000000
00010000
00000000
,
00000010
00001000
00000010
00001000
00000100
00000000
00010000
00001000
00100000
00000000
00000000
00000000
10010000
00000000
00000000
00000000
,
10000000
00100000
10000000
00100000
01000000
00010000
01000000
00000000
00002000
00000000
00010000
00000000
00203000
00000000
00010000
00000000
,
00301000
00000000
00000000
00000000
00011000
00000000
00010000
00000000
00010010
00000000
00000000
00000010
00002000
00000000
00000000
00000000
,
00003100
00000000
00000010
00000100
00001000
00000000
00000010
00000100
00000001
00000000
00001000
00000010
00020000
00000000
00000000
00000000
,
00130000
00000000
01100000
00000000
01000000
00000000
10010000
00000000
00000000
10000000
00100000
01000000
00020000
00000000
00000000
00000000
,
10030000
01000000
10000000
01000000
00100000
00010000
00100000
00000000
00002000
00000000
00010000
00000000
02003000
00000000
00010000
00000000
,
03001000
00000000
00000000
00000000
00011000
00000000
00010000
00000000
00010100
00000000
00000000
00000100
00002000
00000000
00000000
00000000
,
00003010
00000100
00000010
00000100
00000001
00000000
00001000
00000100
00010000
00000000
00001000
00000000
00100000
00000000
00010000
00000000
,
01000000
00100000
01000000
00100000
10000000
00000000
01000000
00100000
00020000
00000000
00000000
00000000
00032000
00000000
00000000
00000000
,
00003100
00000000
00000010
00000000
00000100
00001000
00000000
00000001
00000100
00000000
00000010
00001000
00000100
00000000
00010000
00000000
,
00001000
00010000
00001000
00000000
00100000
00010000
00000000
01000000
00010000
00000000
01000000
00100000
10000000
00000000
01000000
00000000
,
00100000
00010000
00100000
00010000
00100000
00001000
00010000
00000010
00001000
00000010
00000100
00000001
00001000
00000001
00000020
00000000
,
00000100
00000100
00000100
00000130
00000220
00000330
00002002
00003003
,
00000001
00000001
00000001
00000000
00000100
00000000
00000001
00000010
00001000
00000000
00010000
00000000
00010000
00000000
00100000
00000000
,
10000000
10000000
10000000
00000000
01000000
00000000
10000000
00100000
00010000
00000000
00001000
00010000
00000100
00001000
00000100
00000000
,
00001001
00000000
00000000
00000000
00000001
00000000
00000100
00000001
00000100
00000001
00000100
00000000
00000000
00000000
00000010
00000000
00001000
00000000
00001000
00000000
00000100
00000000
00010000
00001000
00010000
00001000
00010000
00000000
00000000
00000000
00001000
00000000
,
00100000
00010000
00100000
00010000
00100000
00000000
01000000
10000000
01000000
10000000
01000000
00000000
00020000
00000000
00000000
00000000
00001000
00000000
00001000
00000000
00001000
00000000
00031000
00000000
00022000
00033000
00000000
00000000
00000000
00000000
00000000
00000000
,
00001000
00010000
00001000
00010000
00000100
00000000
00001000
00000100
00001000
00000100
00000010
00000000
00000001
00001000
00000001
00001000
,
00000010
00000000
00010000
00001000
00010000
00001000
00100000
00000000
00010000
01000000
00010000
01000000
00100000
00000000
10000000
00000000
,
01000000
00100000
00010000
00100000
00010000
00000000
00100000
00001000
00010000
00001000
00010000
00000000
00000010
00001000
00000100
00001000
,
00000100
00000000
00000010
00000001
00001000
00000001
00001000
00000000
00000010
00010000
00001000
01000000
00010000
00000000
01000000
00000000
,
00100000
10000000
00100000
01000000
00010000
00000000
00100000
00010000
00100000
00001000
00010000
00000000
00000010
00001000
00000010
00000100
,
00000001
00000000
00000010
00000100
00001000
00000100
00010000
00000000
00001000
00010000
00001000
01000000
00010000
00000000
00100000
00000000
,
01000000
10000000
01000000
10000000
00100000
01000000
00010000
00100000
00001000
00010000
00000010
00001000
00000010
00010000
00001000
00000000
,
00020000
00000000
00001000
00001000
00002000
00000000
00033000
00000000
,
02000000
00000000
00000000
00000000
00000000
00000000
00000000
00000000
03200000
00000000
00000000
00000000
20300000
00000000
00000000
00000000
32000000
00000000
00000000
00000000
03010000
00000000
00001000
00000000
00000020
00000030
00000000
00000000
00000000
00000000
00000000
00000000
,
00000100
00001000
00000100
00001000
00000001
00000000
00000100
00000010
00001000
00000000
00000100
00000000
00010000
00000000
00001000
00000000
,
00100000
00010000
00100000
00010000
01000000
00000000
00001000
00010000
00000010
00000000
00000000
00000000
00001001
00000000
00000000
00000000
,
00000001
00000100
00000001
00000100
00000010
00001000
00000010
00000000
00020000
00000000
00001000
00000000
00030200
00000000
00001000
00000000
,
00010300
00000000
00000000
00000000
00011000
00000000
00001000
00000000
00101000
00000000
00000000
00100000
00020000
00000000
00000000
00000000
,
01030000
00000000
00100000
01000000
00010000
00000000
00100000
01000000
10000000
00000000
00010000
00100000
00002000
00000000
00000000
00000000
,
00003010
00000000
00000110
00000000
00000100
00000000
00001001
00000000
00000000
00000001
00000100
00000010
00002000
00000000
00000000
00000000
,
00003001
00000010
00000001
00000010
00000100
00001000
00000100
00000000
00020000
00000000
00001000
00000000
00030020
00000000
00001000
00000000
,
00010030
00000000
00000000
00000000
00011000
00000000
00001000
00000000
01001000
00000000
00000000
01000000
00020000
00000000
00000000
00000000
,
00130000
01000000
00100000
01000000
10000000
00000000
00010000
01000000
00001000
00000000
00010000
00000000
00000010
00000000
00001000
00000000
,
00000100
00000010
00000100
00000010
00000001
00000000
00000100
00000010
00002000
00000000
00000000
00000000
00023000
00000000
00000000
00000000
,
01030000
00000000
00100000
00000000
01000000
00010000
00000000
10000000
01000000
00000000
00100000
00010000
01000000
00000000
00001000
00000000
,
00010000
00001000
00010000
00000000
00000010
00001000
00000000
00000100
00001000
00000000
00000100
00000010
00000001
00000000
00000100
00000000
,
00000010
00001000
00000010
00001000
00000010
00010000
00001000
00100000
00010000
00100000
01000000
10000000
00010000
10000000
00100000
00000000
,
02000000
00000000
00100000
00000000
03100000
00000000
01000000
00010000
10000000
01000000
00100000
00001000
00020000
00000000
00000000
00000000
,
00030100
00001000
00000100
00000000
00000010
00000001
00000000
00001000
00000010
00000000
00010000
00001000
00000000
01000000
00010000
00000000
,
00100000
01000000
10000000
00000000
00010000
01000000
00000000
00001000
00010000
00000000
00000010
00001000
00000000
00000001
00000010
00000000
,
00000100
00001000
00000100
00010000
00001000
00010000
00001000
00100000
00010000
01000000
00001000
00010000
00001000
01000000
00010000
00000000
,
00200000
00000000
01000000
00000000
01000000
00000000
01300000
00000000
00100000
00010000
01000000
00001000
00010000
00000000
00000000
00000000
,
00000010
00001000
00000010
00000100
00001000
00010000
00001000
01000000
00100000
10000000
00010000
10000000
02000000
00000000
00000000
00000000
,
00000000
00000000
00000000
03000000
;
