#VERSION:0.83;
#TITLE:LOUDER ROLLING THUNDER;
#SUBTITLE:;
#ARTIST:BEMANI Sound Team "Dustup Vs. L.E.D.-G";
#TITLETRANSLIT:;
#SUBTITLETRANSLIT:;
#ARTISTTRANSLIT:Dustup Vs. L.E.D.-G;
#GENRE:MASSIVE MIXTURE;
#CREDIT:;
#MUSIC:LOUDER ROLLING THUNDER.ogg;
#BANNER:LOUDER ROLLING THUNDER.png;
#BACKGROUND:LOUDER ROLLING THUNDER-bg.png;
#CDTITLE:./CDTitles/bm IIDX 30 RESIDENT.png;
#SAMPLESTART:57.333;
#SAMPLELENGTH:15.000;
#SELECTABLE:YES;
#OFFSET:0.000;
#BPMS:0.000=180.000;
#STOPS:;
#TIMESIGNATURES:0.000=4=4;
#BGCHANGES:0.000=LOUDER ROLLING THUNDER.mp4=1.000=0=0=0=StretchNoLoop====,
99999.000=-nosongbg-=1.000=0=0=0=StretchNoLoop====
;
#FGCHANGES:;

//--------------- dance-single - 47R ----------------
#NOTEDATA:;
#STEPSTYPE:dance-single;
#DESCRIPTION:47R;
#DIFFICULTY:Beginner;
#METER:5;
#RADARVALUES:0,0,0,0,0;
#CREDIT:47R;
#NOTES:
0000
0000
0000
0000
,
0000
0000
0000
0000
,
0000
0000
0000
0000
,
0000
0000
0000
0000
,
0000
0000
0000
0000
,
0001
0000
0000
0000
,
0001
0000
0000
0000
,
1000
0000
0000
0000
,
0001
0000
0000
0000
,
1001
0000
0000
0000
,
1000
0000
1000
0000
,
0100
0000
0000
0000
,
1000
0000
0010
0000
,
1000
0000
0000
0000
,
0001
0000
0001
0000
,
0010
0000
0001
0000
,
0200
0000
0300
0000
,
1001
0000
0000
0000
,
1000
0000
0001
0000
,
0000
1000
0000
1000
,
1000
0000
1000
0000
,
0000
0001
0000
0001
,
0001
0000
0001
0000
,
0000
0100
0000
0100
,
0100
0000
0100
0000
,
0010
0000
1000
0000
,
0001
0000
1000
0000
,
0001
0000
0001
0000
,
0010
0000
0001
0000
,
0100
0000
0100
0000
,
1001
0000
0000
0000
,
1000
0000
1000
0000
,
0100
0000
1000
0000
,
0010
0100
0010
0000
,
0110
0000
0000
0000
,
1001
0000
0000
0000
,
0000
0000
0000
0000
,
0000
0000
0000
0000
,
0000
0000
0000
0000
,
0001
0000
0000
0000
,
0100
0000
0000
0000
,
0010
0000
0000
0000
,
2000
0000
3000
0000
,
0001
0000
0001
0000
,
0001
0001
0001
0000
,
1000
0000
1000
0000
,
1000
1000
1000
0000
,
0010
0000
0010
0000
,
0010
0010
0010
0000
,
0100
0000
0100
0000
,
0001
0001
0001
0000
,
1000
0000
0010
0000
,
0010
0000
0010
0000
,
0100
0000
0001
0000
,
0001
0001
0001
0000
,
0010
0000
0100
0000
,
0100
0000
0100
0000
,
1000
0000
0010
0000
,
0110
0000
1000
1000
,
1000
0000
0000
0000
,
0000
0000
0000
0000
,
0000
0000
0000
0000
,
0000
0000
0000
0000
,
1001
0000
0000
0000
,
0000
0000
0000
0000
,
0000
0000
0000
0000
,
0001
0000
0000
1000
,
1000
0000
0000
0000
,
0010
0000
0000
0000
,
0100
0000
0000
0000
,
0001
0000
1000
0000
,
0000
0000
0010
0000
0000
0010
0000
0000
,
0200
0000
0300
0000
,
0001
0000
0001
0000
0000
1000
0000
0000
,
2000
0000
3010
0000
,
1000
0000
0100
0000
,
0010
0000
0010
0000
,
0001
0000
0100
0000
,
0010
0010
0010
0000
,
1000
0000
0001
0000
,
0010
0010
0010
0000
,
0001
0000
1000
0000
,
0010
0100
0010
0000
,
1001
0000
0000
0000
;

//--------------- dance-single - 47R ----------------
#NOTEDATA:;
#STEPSTYPE:dance-single;
#DESCRIPTION:47R;
#DIFFICULTY:Easy;
#METER:10;
#RADARVALUES:0,0,0,0,0;
#CREDIT:47R;
#NOTES:
0000
0000
0000
0000
,
0000
0000
0000
0000
,
0000
0000
0000
0000
,
0000
0000
0000
0000
,
0000
0000
0000
0000
,
0001
0001
0100
0000
,
0001
1000
0010
0000
,
1000
1000
0100
0000
,
1000
0010
0200
0300
,
0001
0000
0000
1000
,
1000
0000
0000
0010
0000
0000
0010
0000
,
0000
0100
0000
0000
0100
0000
0000
0001
,
0000
0001
0020
0032
,
1003
1000
0100
0100
,
0010
0010
0001
0001
,
1000
0010
0100
0001
,
0010
0100
1000
1001
,
0001
0100
0100
0100
,
1000
0100
0010
0100
,
1001
1000
0100
1000
,
0010
1000
0010
0000
0100
0000
0001
0000
,
0000
1001
1000
0001
,
0010
0001
0010
0000
0100
0000
2000
0000
,
3000
1001
0001
0010
,
0100
1000
0100
0000
1000
0000
0010
0000
,
0000
0000
0110
0000
0001
0100
0001
0000
,
1001
0000
0000
0000
1000
0000
0000
0000
0010
0000
0000
0010
0000
0000
0100
0000
,
0001
0000
0010
0000
0001
1000
0100
0000
,
1000
0000
0010
0000
1000
0001
0100
0000
,
0001
0000
0010
0000
0001
1000
0010
0000
,
0110
0001
0110
1000
,
1001
0000
1000
0000
0100
0010
0001
0000
,
1001
0000
0001
0000
0100
0010
1000
0000
,
0010
0010
0100
0000
0001
1000
0100
0000
,
0010
0000
0010
0000
0001
0000
0000
0000
1000
0000
0000
0001
0000
0000
0100
0000
,
0020
0000
0000
0000
,
0000
0000
0000
0000
,
0000
0000
0000
0000
,
0000
0000
0000
0000
,
1030
0000
0100
0000
,
0010
0001
1000
0000
,
0001
0000
0100
0000
,
0010
1000
0001
0000
,
1001
0100
1001
1000
,
0110
1001
0220
0330
,
1001
0100
1001
0001
,
0110
0110
2002
3003
,
0110
1000
1001
0010
,
0110
1001
0220
0330
,
1001
0100
0110
0001
,
0110
0000
0000
0001
0000
0000
1000
0000
1000
0000
1000
0000
,
0002
0203
0320
0032
,
0013
0000
0010
0000
0010
0000
0100
0000
0100
0000
0100
0000
,
0002
0000
0000
2003
0000
0000
3100
0000
0100
0000
0100
0000
,
0010
0000
0010
0000
0010
0000
0100
0000
0100
0000
0100
0000
,
2000
3020
0230
2300
,
3100
0000
0100
0000
0100
0000
0010
0000
0010
0000
0010
0000
,
1000
0000
0000
1001
0000
0000
0001
0000
0100
0000
0010
0000
,
1000
0000
0000
0110
0000
0000
0001
0000
1000
0000
0010
0000
,
0200
0000
0000
0000
,
0000
0000
0000
0000
,
0000
0000
0000
0000
,
0000
0000
0300
0000
,
0010
0000
1000
0000
,
0001
0000
0100
0000
,
0001
0001
0010
0010
,
0100
1000
0010
1100
,
0001
0000
1001
0000
1000
0100
0000
0100
,
1000
0000
1000
0010
0000
0010
1000
0000
,
0100
0000
1001
0000
0001
0100
0000
0100
,
0001
0000
0001
0010
0000
0010
0001
0000
,
0100
0000
1010
0000
1000
0100
0000
0100
,
0010
0000
0010
0100
0000
0100
1000
0000
,
0010
0000
0101
0000
0001
0010
0000
0010
,
0002
0000
0000
0103
0010
0000
1000
0000
,
1001
0000
1001
0000
0001
0100
0000
0100
,
0010
0000
1000
0100
0000
0100
0010
0000
,
0110
0000
0000
0000
1000
0001
0000
0100
,
0010
0000
0010
1000
0000
0001
0100
0000
,
0110
0000
0110
0000
1000
0100
0000
1000
,
0010
0000
0100
0001
0000
0010
0001
0000
,
0220
0000
0330
2002
0000
3003
1000
0001
,
2000
0000
3010
0000
0100
0010
0100
0000
,
2002
0000
0000
0000
,
0000
0000
0000
0000
,
3003
0000
0000
0000
;

//--------------- dance-single - 47R ----------------
#NOTEDATA:;
#STEPSTYPE:dance-single;
#DESCRIPTION:47R;
#DIFFICULTY:Medium;
#METER:13;
#RADARVALUES:0,0,0,0,0;
#CREDIT:47R;
#NOTES:
0000
0000
0000
0000
,
0000
0000
0000
0000
,
0000
0000
0000
0000
,
0000
0000
0000
0000
,
0000
0000
0000
0000
,
0001
0000
0000
0001
0000
0000
0100
0000
,
0010
0000
0000
0010
0000
0000
1000
0000
,
0100
0000
0000
0100
0000
0000
0010
0000
,
0001
0000
1000
0000
0010
2000
0001
3000
,
2001
0000
0001
0000
0100
0000
3100
1000
,
0001
0000
0010
0100
1000
0000
0010
0100
,
0002
0000
0100
0000
0100
0000
1003
0001
,
0010
0000
0100
1000
0010
0000
0100
0001
,
0010
0100
0010
0100
1000
0100
0001
0000
,
0100
1000
0100
1000
0010
0100
0001
0000
,
0010
0000
0001
0000
0100
0000
0010
0000
1000
0000
0100
0000
1000
0000
0001
1000
,
0002
0000
0000
0000
0013
0000
0010
0000
0001
0000
0000
0100
0010
0000
0000
0000
,
2000
0100
0100
0001
,
0001
0000
0000
0000
3010
0000
0000
0000
1000
0010
1000
0000
0001
0000
0000
0000
,
2000
0000
3001
0010
0100
0010
0001
0010
,
0100
0010
0001
0010
0100
1000
0010
0100
,
0002
0000
1003
0010
0100
0010
1000
0010
,
0100
0010
1000
0100
0010
0001
0100
0100
,
0020
0000
1030
0001
0010
0001
1000
0001
,
0010
0001
1000
0001
0100
0001
1000
1000
,
0200
0000
0301
0100
1000
1000
0010
0010
,
0100
0000
0001
1000
0001
0000
1000
0001
1000
0000
0000
1001
0000
0000
0001
1000
,
0001
0000
0100
0000
0010
0000
0100
0000
0001
0000
1000
0001
1000
0000
0010
0000
,
1000
0000
0100
0000
0010
0000
0100
0000
1000
0000
0001
1000
0001
0000
0010
0000
,
0100
0000
1000
0000
0010
0000
1000
0000
0100
0000
0010
0100
0010
0000
0001
0000
,
2002
0000
0000
0000
3003
0000
0000
0000
1010
0000
0000
0110
0000
0000
0001
0000
,
1000
0000
0100
0000
0010
0000
0100
0000
1000
0000
0010
1000
0010
0000
0100
0000
,
0001
0000
0010
0000
0100
0000
0010
0000
0001
0000
0100
0001
0100
0000
0010
0000
,
1000
0000
1000
0000
0100
0000
1000
0000
0010
0000
0010
0000
0100
0000
0001
0100
,
0002
0000
0000
0000
0000
0000
0000
0000
0013
0000
0000
0110
0000
0000
0001
1000
,
0002
0000
0000
0000
,
0000
0000
0000
0000
,
0003
0000
0000
0000
,
0000
0000
0000
0000
,
2000
3200
2300
3002
,
0013
0110
1000
1001
,
0001
0000
0100
0001
0000
0100
0010
0000
0000
0010
0000
0000
,
1000
0000
0000
0000
1000
0000
0002
0000
0000
0000
0000
0000
0013
0000
0100
0000
0000
0000
0220
0000
0000
0330
0000
0000
,
1000
0000
1000
0100
0000
0100
1000
0000
1000
0001
0000
0001
,
1000
1010
0110
0101
,
0001
0000
0001
0100
0000
0100
0001
0000
0001
1000
0000
1000
,
0001
0000
0010
0001
0000
1000
0001
0000
0100
0001
0000
0001
,
1000
0000
1000
0010
0000
0010
1000
0000
1000
0001
0000
0001
,
1000
1100
0110
0011
,
0001
0000
0001
0010
0001
0010
0001
0000
0000
2001
0000
0000
,
3010
0000
0000
0100
0001
0100
0001
0000
1000
0000
0001
0000
,
2002
0000
0000
3003
0000
0000
0001
0100
0001
0100
0001
0000
,
1000
0100
1000
0100
1000
0000
0001
0010
0001
0010
0001
0000
,
0220
0000
0000
0330
0000
0000
1000
0010
0100
0001
0000
0000
,
0011
0000
0000
0101
0000
0000
0110
0000
0110
0000
1000
0000
,
2002
0000
0000
3003
0000
0000
1000
0100
0010
0100
1000
0000
,
0001
0100
0010
0100
0001
0000
1000
0010
0100
0010
1000
0000
,
1002
0000
0000
0013
0000
0000
1000
0100
1000
0001
0000
0000
,
0220
0000
0000
0330
0000
0000
1001
0000
0101
0000
1000
0001
,
2000
0000
0000
0000
,
0000
0000
0000
0000
,
3000
0000
0000
0000
,
0000
0000
0000
0000
,
1001
0000
0001
0000
0000
0001
0000
0000
,
0100
0000
0000
0100
0000
0000
0010
0000
,
1000
0000
0001
0000
0000
0001
0000
0000
,
0010
0100
0000
0100
0010
0001
1000
0000
,
0001
0000
0000
0000
0200
0000
0000
0301
1000
0000
0200
0000
0000
1300
0001
0000
,
0200
0000
0000
0301
1000
0000
0200
0000
0000
1300
0001
0000
0100
0000
0010
0000
,
1000
0000
1000
0000
0020
0000
0000
1030
0001
0000
0020
0000
0000
0031
1000
0000
,
0020
0000
0000
1030
0001
0000
0010
0000
0001
0000
0001
0000
1000
0000
0010
0000
,
0100
0000
1001
0001
0000
1100
1000
0000
,
0110
0010
0000
0001
1000
1000
0002
0000
,
0013
0100
0110
0000
0001
0101
0000
1000
,
2200
0300
0020
3030
,
2000
0000
0000
0000
0100
0000
0000
0000
3001
0000
0010
0000
0100
1000
0100
0000
,
0020
0000
0000
0031
0100
0000
0020
0000
0000
1030
0100
0000
0010
0000
0001
0000
,
1000
0000
1000
0000
0010
0000
0001
0000
0010
0000
0100
0010
0000
1000
0010
0000
,
0200
0000
0000
0000
0301
0000
0020
0000
0000
0000
0130
0000
1000
0001
1000
0000
,
0002
0000
0000
0000
0100
0000
0000
0000
1003
0000
0010
0100
0010
0000
1000
0000
,
0200
0000
0000
1300
0010
0000
0200
0000
0000
0301
0010
0000
0100
0000
1000
0000
,
0002
0000
0000
0000
0100
0000
2003
0000
0000
0000
0100
0000
3001
1000
0001
0000
,
0100
0000
0000
0000
0010
1000
0010
1000
0020
0000
0000
0000
1030
0001
1000
0001
,
2000
0000
0000
0000
,
0000
0000
0000
0000
,
3000
0000
0000
0000
;

//--------------- dance-single - 47R ----------------
#NOTEDATA:;
#STEPSTYPE:dance-single;
#DESCRIPTION:47R;
#DIFFICULTY:Hard;
#METER:16;
#RADARVALUES:0,0,0,0,0;
#CREDIT:47R;
#NOTES:
0000
0000
0000
0000
,
0000
0000
0000
0000
,
0000
0000
0000
0000
,
0000
0000
0000
0000
,
0002
0100
0000
2003
0100
0000
3001
0000
,
2000
0100
0000
3002
0100
0000
1003
0000
,
0002
0010
0000
2003
0010
0000
3001
0000
,
1000
0000
0100
1000
0010
0000
0100
0001
,
0010
0100
0220
0330
,
1000
0001
0200
0000
1000
0000
0310
0100
,
0002
0000
0010
2003
0000
0010
3002
0000
,
0103
0020
0000
0001
0130
0000
0001
0020
,
0000
1000
0230
0000
2300
0000
3020
0000
,
1030
1000
0100
0100
0010
0010
0001
1000
,
0001
0001
0100
0100
0010
0010
1000
1000
,
0001
0010
0001
0010
0001
0010
0100
0000
1000
0010
1000
0010
1000
0010
0100
0000
,
0010
0000
0000
0000
0100
0001
1000
0001
0020
0000
0031
1000
0010
0000
0000
0000
,
1000
0100
0100
0001
,
0010
0000
0000
0000
0100
0000
0000
0000
0100
0010
0100
0000
0110
0000
0000
0000
,
1001
0000
0000
0001
0100
0000
0010
0100
0010
0000
1000
0000
0100
0000
1000
0100
,
1000
0000
0001
0000
0100
0000
0010
0100
0010
0000
0000
1000
0001
0000
0001
0000
,
0020
0000
0000
0000
1030
0000
0010
0001
0010
0000
0100
0000
1000
0000
0010
1000
,
0010
0000
0100
0000
0001
0000
1000
0100
1000
0000
0000
0010
0100
0001
0100
0001
,
2000
0000
0000
0000
3010
0000
0100
0001
0100
0000
0010
1000
0001
0000
0010
0001
,
0010
0000
0100
0010
0001
0000
1000
0010
2000
0000
0000
3001
0010
0100
0010
0100
,
2000
0000
0000
0000
3001
0100
0001
1000
0010
0000
0010
0000
0100
0000
0010
0000
,
1000
0001
1000
0001
0100
0001
0100
0010
1000
0000
0100
1000
0000
0100
0010
0000
,
0001
0000
0100
0001
0000
0001
1000
0000
0010
1000
0000
0001
1000
0000
0010
0000
,
1000
0000
0100
1000
0000
1000
0001
0000
0010
0001
0000
0001
1000
0000
1001
0000
,
0001
0000
0010
0001
0000
0001
1000
0000
0100
1000
0000
0001
1000
0000
0100
0000
,
0210
0000
0000
0000
0301
0100
1000
0000
1002
0000
0000
0103
1000
0000
0100
0010
,
0100
0000
0010
1000
0000
1000
0010
0000
1000
0001
0000
0010
0001
1000
0001
0000
,
0010
0000
0100
1000
0000
1000
0001
0000
0100
0010
0000
1000
0010
1000
0001
0000
,
1000
0100
1000
0100
1000
0100
0010
0000
0001
0100
0001
0100
0001
0100
0010
0000
,
0210
0000
0000
0000
1000
0000
0000
0000
0310
0000
1000
0001
0000
0010
0001
1000
,
0002
0000
0000
0000
,
0000
0000
0000
0000
,
0203
0000
0000
0000
,
0320
0000
0000
0000
,
1030
0100
0100
0001
,
0010
1000
0020
0130
,
1000
0010
0010
0001
,
0100
0000
0010
0100
0010
0100
0100
0100
0000
0110
0000
0001
,
1001
0000
0000
1000
0100
1000
0001
0000
0001
0010
0100
0010
,
0001
0000
0000
0101
0000
0000
0110
0000
1000
1000
0000
0010
,
1000
0000
1000
0001
0100
0001
0010
0000
0010
0100
0010
0001
,
2000
0000
3100
0002
0000
0103
2000
0000
0000
3010
0100
0010
,
0110
0000
0000
1000
0001
0100
0001
0000
0001
1000
0010
0100
,
0010
0000
0000
0110
0000
0001
0001
0000
1000
0200
0000
0300
,
0110
0000
0000
0010
1000
0010
0002
0000
0000
0103
1000
0100
,
0002
0000
0000
0013
0100
1000
1100
0000
1010
0000
0110
0000
,
0102
0000
0000
1003
0010
0100
1000
0100
0010
1000
0100
0000
,
0001
0100
0010
0001
0100
0010
0001
0010
0100
0001
0010
0100
,
2000
0000
0000
0010
0000
0000
3001
0010
0100
0001
0100
0000
,
1000
0010
0100
1000
0100
0000
0010
0000
0110
0000
0101
0000
,
2001
0000
0000
3001
1000
0100
0001
1000
0001
0100
1000
0000
,
0001
0100
1000
0001
1000
0000
0100
0001
1000
0100
0001
1000
,
0001
0000
0000
0110
0000
0000
1000
0010
0001
1000
0000
0001
,
0020
0000
1030
0002
0000
0013
1000
0000
0110
0000
0001
1000
,
2002
0000
0000
0000
,
0000
0000
0000
0000
,
0000
0000
0000
0000
,
0000
0000
0000
3003
,
1000
0000
0100
0000
0200
0000
0301
0010
,
0100
0000
1000
0010
0000
0100
0001
1000
,
0001
0000
0010
0000
0020
0000
1030
0100
,
0010
0000
0001
1000
0001
0000
0100
0000
0010
1000
0001
0100
0010
0000
0000
0000
,
1010
0000
0000
0010
1000
0000
0010
0100
0001
0000
0100
0010
0000
1000
0001
0000
,
0010
0100
0000
1000
0100
0000
0010
0001
0000
0010
1000
0000
0010
0001
0010
0001
,
2000
0000
0100
0000
3001
0000
1000
0010
1000
0000
0001
0010
0000
0001
1000
0000
,
0100
0001
0000
0100
1000
0000
0001
0000
0010
0001
0100
0000
0001
1000
0001
0000
,
1000
0000
0010
0000
0100
0000
1000
0100
1000
0000
0200
0000
0010
0000
0301
0010
,
0001
0000
0020
0000
0100
0000
2030
0000
3020
0000
0032
0000
0103
0010
0100
0010
,
0100
0000
0100
0000
0001
0000
0010
0100
0010
0000
0200
0000
0001
0000
0310
0000
,
0001
0100
0020
0000
0000
0000
0000
0000
1030
0010
0100
0001
1000
0000
0000
0000
,
1100
0000
0001
0000
0101
0000
1000
0010
0100
0010
1000
0000
0002
0000
0010
0000
,
1003
0000
0001
0100
0010
0000
1000
0100
1000
0000
0010
0000
0110
0000
0001
0000
,
0110
0000
1000
0000
1001
0000
0001
0010
0100
0000
1000
0100
0000
0010
1000
0000
,
0010
0001
0000
0100
0001
0100
0010
0000
1000
0000
1001
0000
0001
0010
0100
1000
,
0010
0000
0100
0001
0010
0000
0100
1000
0001
0000
0100
0001
0200
0000
0010
0000
,
1300
0000
0100
0001
1000
0000
0010
1000
0000
0100
1000
0010
0100
0001
0010
0000
,
0200
0000
0310
1001
0000
0100
0110
0000
,
1001
0000
0001
0000
0010
0001
0100
0010
1000
0100
0010
0001
0010
0100
1000
0001
,
0200
0000
0000
0000
,
0000
0000
0000
0000
,
0300
0000
0000
0000
;

//--------------- dance-double - 47R ----------------
#NOTEDATA:;
#STEPSTYPE:dance-double;
#DESCRIPTION:47R;
#DIFFICULTY:Easy;
#METER:10;
#RADARVALUES:0,0,0,0,0;
#CREDIT:47R;
#NOTES:
00000000
00000000
00000000
00000000
,
00000000
00000000
00000000
00000000
,
00000000
00000000
00000000
00000000
,
00000000
00000000
00000000
00000000
,
00000000
00000000
00000000
00000000
,
00001000
01000000
00010000
00000000
,
00100000
00001000
00010000
00000000
,
00001000
00001000
00010000
00000000
,
00000100
00001000
00000020
00000030
,
00001000
00000000
00000000
00000001
,
00000001
00000000
00000000
00000100
00000000
00000000
00000100
00000000
,
00000000
00001000
00000000
00000000
00001000
00000000
00000000
00010000
,
00000000
00010000
00200000
20300000
,
30010000
00010000
00100000
00100000
,
00001000
00001000
00010000
00010000
,
00001000
00000100
00000001
00001000
,
00000100
00010000
00001000
00011000
,
00010000
00010000
01000000
01000000
,
00100000
00000000
00010000
10000000
,
10010000
00010000
01000000
00010000
,
00100000
00010000
00100000
00000000
00001000
00000000
00010000
00000000
,
00000000
00011000
00000100
00001000
,
00000010
00001000
00000010
00000000
00000100
00000000
00000002
00000000
,
00000003
00001001
00001000
00000100
,
00010000
00001000
00010000
00000000
00001000
00000000
00100000
00000000
,
00000000
01100000
10000000
00100000
,
20020000
00000000
00000000
00000000
30030000
00000000
00000000
00000000
00010000
00000000
00000000
00010000
00000000
00000000
00100000
00000000
,
00001000
00000000
00010000
00000000
00000100
00001000
00000000
00000001
,
00001000
00000000
00000001
00000000
00000100
00000010
00000000
00010000
,
00001000
00000000
00100000
00000000
00010000
10000000
00000000
01000000
,
00010000
00001000
00011000
00000000
,
00001000
00000000
00000100
00000000
00000001
00000010
00000000
00001000
,
00010000
00000000
01000000
00000000
10000000
00100000
00000000
00010000
,
00001000
00000100
00000110
00000000
,
00010000
00000100
00010000
00011000
,
00002000
00000000
00000000
00000000
,
00000000
00000000
00000000
00000000
,
00000000
00000000
00000000
00000000
,
00000000
00000000
00000000
00000000
,
01003000
00000000
00010000
00000000
,
10000000
00100000
00010000
00001000
,
00010000
00000000
00000100
00000000
,
00001000
00000001
00000100
00001000
,
00011000
00010000
00011000
00100000
,
01100000
10010000
02200000
03300000
,
00011000
00001000
00011000
00000010
,
00000110
00000110
00002002
00003003
,
00011000
00010000
00011000
01000000
,
01100000
10010000
02200000
03300000
,
00011000
00001000
00011000
00000100
,
00000110
00000000
00000000
00001000
00000000
00000000
00000001
00000000
00000001
00000000
00000001
00000000
,
00000100
00000000
00000000
00001000
00000000
00000000
00010000
00000000
00010000
00000000
00010000
00000000
,
00002000
02003000
03020000
20030000
,
31000000
00000000
00000000
00010000
00000000
00000000
00001000
00000000
00001000
00000000
00001000
00000000
,
00020000
00032000
00003020
00000032
,
00000103
00000000
00000000
00000110
00000000
00000000
00001000
00000000
00001000
00000000
00001000
00000000
,
00000002
00000203
00002300
00023000
,
00031000
00000000
00000000
01000000
00000000
00000000
00010000
00000000
00010000
00000000
00010000
00000000
,
10000000
00000000
00000000
01010000
00000000
00000000
10000000
00000000
10000000
00000000
10000000
00000000
,
02000000
00000000
00000000
00000000
,
00000000
00000000
00000000
00000000
,
00000000
00000000
00000000
00000000
,
00000000
00000000
03000000
00000000
,
00100000
00000000
00010000
00000000
,
10000000
00100000
00010000
00000000
,
00001000
00000000
00000100
00000001
,
00001000
00000000
00000100
00000000
00000010
00000001
00001000
00000000
,
00000100
00000000
00001001
00000000
00001000
00000010
00000000
00000010
,
00001000
00000000
00001000
00000100
00000000
00000100
00010000
00000000
,
00001000
00000000
00011000
00000000
00000100
00001000
00000000
00001000
,
00000001
00000000
00000001
00000100
00000000
00000100
00001000
00000000
,
00010000
00000000
00011000
00000000
01000000
00010000
00000000
00010000
,
10000000
00000000
10000000
00100000
00000000
00100000
00010000
00000000
,
00001000
00000000
00011000
00000000
00000010
00001000
00000000
00001000
,
00000002
00000000
00000000
00000013
00001000
00000000
00010000
00000000
,
00011000
00000000
00011000
00000000
00010000
00000100
00000000
00000100
,
00001000
00000000
00001000
00000010
00000000
00000010
00000100
00000000
,
00000110
00000000
00000000
00000000
00000001
00000100
00000000
00000100
,
00000010
00000000
00000010
00001000
00000000
00001000
00000100
00000000
,
00011000
00000000
00011000
00000000
00100000
00010000
00000000
01000000
,
00010000
00000000
10000000
01000000
00000000
10000000
00100000
00000000
,
02200000
00000000
03300000
20020000
00000000
30030000
00010000
00100000
,
00020000
00000000
01030000
00000000
00001000
00010000
00001000
00000000
,
00022000
00000000
00000000
00000000
,
00000000
00000000
00000000
00000000
,
00033000
00000000
00000000
00000000
;

//--------------- dance-double - 47R ----------------
#NOTEDATA:;
#STEPSTYPE:dance-double;
#DESCRIPTION:47R;
#DIFFICULTY:Medium;
#METER:13;
#RADARVALUES:0,0,0,0,0;
#CREDIT:47R;
#NOTES:
00000000
00000000
00000000
00000000
,
00000000
00000000
00000000
00000000
,
00000000
00000000
00000000
00000000
,
00000000
00000000
00000000
00000000
,
00000000
00000000
00000000
00000000
,
00010000
00000000
00000000
00010000
00000000
00000000
00001000
00000000
,
00000010
00000000
00000000
00000010
00000000
00000000
00000001
00000000
,
00000100
00000000
00000000
00000100
00000000
00000000
00001000
00000000
,
00010000
00000000
00000000
00010000
02000000
00000000
03100000
00000000
,
00020000
01000000
10000000
00100000
,
00032000
00000100
00000001
00000010
,
00023000
01000000
10000000
00100000
,
00032000
00000100
00003002
00000010
,
00001003
00000010
00001000
00000010
00000100
00001000
00010000
00000000
,
00100000
01000000
00100000
01000000
00010000
10000000
01000000
00000000
,
00010000
00001000
00000010
00000100
00000010
00000001
00000100
00001000
,
00020000
00000000
00000000
00000000
00130000
00000000
00100000
00000000
01000000
00000000
00000000
01000000
00010000
00000000
00000000
00000000
,
20000000
01000000
01000000
00010000
,
00010000
00000000
00000000
00000000
30100000
00000000
00000000
00000000
00010000
00000000
00001000
00010000
00001000
00000000
00000000
00000000
,
00020000
00000000
00030100
00001000
00000001
00001000
00000100
00001000
,
00000001
00000100
00000000
00001000
00010000
00000000
00001000
00001000
,
00020000
00000000
00031000
01000000
00010000
10000000
00010000
00100000
,
00010000
00000000
10000000
01000000
00000000
00010000
00001000
00001000
,
00020000
00000000
00030010
00001000
00000001
00001000
00000010
00001000
,
00000001
00000010
00000000
00001000
00010000
00000000
00000100
00000100
,
00020000
00000000
00031000
00010000
00010000
00001000
01000000
00010000
,
10000000
01000000
00010000
00000000
00001000
00000000
00011000
00000000
,
00000100
00001000
00000010
00001000
00000100
00000010
00001000
00010000
,
01000000
10000000
00100000
10000000
01000000
00010000
00001000
00000100
,
00000001
00000000
00000010
00000000
00000001
00000000
00001000
00000000
00000010
00000000
00000000
00000100
00001000
00000000
00010000
00000000
,
00022000
00000000
00000000
00000000
00033000
00000000
00000000
00000000
00101000
00000000
00000000
00110000
00000000
00000000
10000000
00000000
,
01000000
00100000
10000000
00100000
00001000
00010000
00000100
00001000
,
00000010
00000000
00000100
00000000
00000001
00000000
00000100
00000000
00010000
00000000
00000000
00010000
01000000
00000000
00100000
00000000
,
10000000
00000000
10000000
00000000
01000000
00000000
10000000
00000000
00100000
00000000
00100000
00000000
00010000
00000000
00001000
00010000
,
00002000
00000000
00000000
00000000
00003000
00000000
00000000
00000000
00010100
00000000
00000000
00001100
00000000
00000000
00001000
00000000
,
00000002
00000000
00000000
00000000
,
00000000
00000000
00000000
00000000
,
00000003
00000000
00000000
00000000
,
00000000
00000000
00000000
00000000
,
00020000
02030000
23000000
30020000
,
00130000
01100000
10000000
10010000
,
00010000
00000000
01000000
00001000
00000000
00010000
00001000
00000000
00000000
00011000
00000000
00000000
,
00000010
00000000
00000000
00000000
00000010
00000000
00002000
00000000
00000000
00000000
00000000
00000000
00003001
00000000
00000100
00000000
00000000
00000000
00000220
00000000
00000000
00000330
00000000
00000000
,
00000001
00000000
00000001
00000010
00000000
00000010
00000001
00000000
00000001
00000100
00000000
00000000
,
00001000
00011000
01001000
00011000
,
00001000
00000000
00001000
00100000
00000000
00000000
00010000
00000000
00010000
10000000
00000000
00000000
,
00100000
00000000
00010000
00001000
00000000
00000000
00010000
00000000
01000000
10000000
00000000
00000000
,
10000000
00000000
10000000
00100000
00000000
00100000
10000000
00000000
10000000
01000000
00000000
00000000
,
00010000
00011000
00010100
00011000
,
00010000
00000000
00010000
00000010
00000000
00000000
00001000
00000000
00001000
00000002
00000000
00000000
,
00000013
00000000
00001000
00010000
00000000
00000000
00001000
00000000
00010000
00000000
00001000
00000000
,
00022000
00033000
00101000
01010000
,
00101000
00010010
00001100
00010010
,
00002002
00000000
00000000
00003003
00000000
00000000
00000001
00000100
00000010
00001000
00000000
00000000
,
00001010
00000000
00000000
00001100
00000000
00000000
00011000
00000000
00011000
00000000
00011000
00000000
,
00000200
00000300
00010010
00001100
,
00010010
00101000
01010000
00101000
,
20010000
00000000
00000000
31000000
00000000
00000000
10000000
00100000
01000000
00010000
00000000
00000000
,
00202000
00000000
00000000
00303000
00000000
00000000
00011000
00000000
00011000
00000000
00011000
00000000
,
00020000
00000000
00000000
00000000
,
00000000
00000000
00000000
00000000
,
00030000
00000000
00000000
00000000
,
00000000
00000000
00000000
00000000
,
00001001
00000000
00000001
00000000
00000000
00000001
00000000
00000000
,
00000100
00000000
00000000
00000100
00000000
00000000
00001000
00000000
,
00010000
00000000
00001000
00000000
00000000
00001000
00000000
00000000
,
00010000
00100000
00000000
00100000
10000000
00000000
10010000
00000000
,
00010000
00000000
00000000
00000000
20000000
00000000
00000000
31000000
00100000
00000000
00002000
00000000
00000000
00013000
00001000
00000000
,
00000020
00000000
00000000
00000130
00001000
00000000
00000001
00000000
00000100
00000000
00000010
00000000
00001000
00000000
00000001
00000000
,
00000100
00000000
00000100
00000000
00000002
00000000
00000000
00000103
00000010
00000000
00020000
00000000
00000000
00031000
00010000
00000000
,
00200000
00000000
00000000
01300000
00010000
00000000
10000000
00000000
01000000
00000000
01000000
00000000
00020000
00000000
00000000
00000000
,
00031000
00000000
00010000
00000100
00000000
00000001
00000100
00000000
,
00010000
00001000
00001000
00100000
00010000
01000000
20000000
00000000
,
31000000
00010000
00110000
00000000
00001000
00011000
00000000
00000100
,
00002100
00000000
00000020
00003030
,
00001002
00000000
00000100
00000000
00001003
00000100
00010000
00001000
,
00020000
00000000
00000000
01030000
00100000
00000000
00020000
00000000
00000000
00000000
01030000
00000000
00100000
00000000
00100000
00000000
,
10000000
00000000
10000000
00000000
01000000
00000000
00100000
00000000
00010000
00000000
00100000
00010000
00000000
00100000
00001000
00000000
,
00010000
00000000
00000000
00000000
00001000
00000000
00000200
00000000
00000000
00000000
00000301
00000000
00001000
00000001
00001000
00000000
,
00001002
00000000
00000010
00000000
00001003
00000010
00010000
00001000
,
00020000
00000000
00000000
00130000
01000000
00000000
00020000
00000000
00000000
00000000
00130000
00000000
01000000
00000000
01000000
00000000
,
00020000
00000000
00001000
00030200
00000000
00001000
00020300
00000000
,
00031000
00000000
00000000
00000000
00010000
00000000
01000000
00000000
20000000
00000000
00000000
00000000
30100000
00000000
00010000
00001000
,
00020000
00000000
00000000
00000000
,
00000000
00000000
00000000
00000000
,
00030000
00000000
00000000
00000000
;

//--------------- dance-double - 47R ----------------
#NOTEDATA:;
#STEPSTYPE:dance-double;
#DESCRIPTION:47R;
#DIFFICULTY:Hard;
#METER:16;
#RADARVALUES:0,0,0,0,0;
#CREDIT:47R;
#NOTES:
00000000
00000000
00000000
00000000
,
00000000
00000000
00000000
00000000
,
00000000
00000000
00000000
00000000
,
00000000
00000000
00000000
00000000
,
00000000
00000000
00000000
00000000
,
00002000
00010000
00000000
01003000
00000000
00000000
00001000
00000000
,
00020000
00001000
00000000
00030100
00000000
00001000
00000001
00001000
,
00000100
00000000
00001000
00000010
00000100
00000000
00000001
00000010
,
00000100
00010000
00022000
00033000
,
00001000
01000000
00020000
00000000
00100000
00000000
10030000
01000000
,
00020000
00000000
00001000
00030200
00000000
00001000
00020300
00000000
,
00032000
00010000
00000000
01000000
00013000
00000000
00001000
00020000
,
00000000
00001000
00030100
00000000
00002000
00000000
00003002
00000000
,
00000013
00000010
00000100
00000100
00001000
00000001
00000100
00000000
,
00001000
00001000
00010000
00010000
01000000
10000000
00010000
00000000
,
10000000
00100000
10000000
00000000
00010000
01000000
00010000
00000000
00100000
00010000
00100000
00000000
00001000
00010000
00001000
00010000
,
00000100
00000000
00000000
00000000
00001000
00000001
00001000
00000001
00000010
00000000
00000001
00001000
00000010
00000000
00000000
00000000
,
00001000
00000001
00000100
00001000
,
01000000
00000000
00000000
00000000
01000000
00000000
00000000
00000000
00100000
01000000
00100000
00000000
01100000
00000000
00000000
00000000
,
10010000
00000000
00000000
00010000
01000000
00000000
00100000
01000000
00100000
00000000
10000000
00000000
00010000
00000000
00100000
00010000
,
00100000
00000000
00001000
00000000
00010000
00000000
00000100
00010000
00000100
00000000
00000000
00001000
00000010
00000000
00000010
00000000
,
00000200
00000000
00000000
00000000
00001300
00000000
00000100
00000001
00000100
00000000
00000001
00000000
00000010
00000000
00000100
00000010
,
00000100
00000000
00010000
00000000
00001000
00000000
00100000
00010000
00100000
00000000
00000000
01000000
10000000
00010000
10000000
00010000
,
02000000
00000000
00000000
00000000
03100000
00000000
10000000
00100000
10000000
00000000
01000000
10000000
00010000
00000000
00100000
00010000
,
00100000
00000000
00001000
00010000
00000100
00000000
00001000
00000100
00002000
00000000
00000000
00003010
00000100
00000001
00000100
00000001
,
00002000
00000000
00000000
00000000
00003100
00000010
00000001
00000010
00000100
00000000
00000100
00000000
00001000
00000000
00000100
00000000
,
00010000
00001000
00010000
00001000
00100000
00010000
00100000
01000000
10000000
00000000
00000000
10100000
00000000
00100000
01000000
00000000
,
00010000
00000000
00100000
00010000
00000000
00010000
10000000
00000000
00100000
01000000
00000000
00010000
10000000
00000000
01000000
00000000
,
00010000
00000000
00001000
00010000
00000000
00010000
00000100
00000000
00001000
00000010
00000000
00001000
00000001
00000000
00000100
00000000
,
00000001
00000000
00000010
00000100
00000000
00000100
00001000
00000000
00000001
00000100
00000000
00001000
00010000
00000000
00001000
00000000
,
02000000
00000000
00000000
00000000
03010000
10000000
01000000
00000000
21000000
00000000
00000000
30100000
00010000
00000000
00001000
00000000
,
00010000
00000000
01000000
10000000
00000000
10000000
00010000
00000000
10000000
00100000
00000000
00010000
00001000
00000000
00010000
00000000
,
00001000
00000000
00000100
00000001
00000000
00000001
00001000
00000000
00000001
00000010
00000000
00001000
00010000
00000000
00001000
00000000
,
00010000
00000000
00010000
00000000
01000000
00000000
01000000
00000000
10000000
00000000
10000000
00000000
00100000
00000000
00010000
00001000
,
00020000
00000000
00000000
00000000
00001000
00000000
00000000
00000000
00030100
00000000
00000000
00000110
00000000
00000000
00000001
00001000
,
00000020
00000000
00000000
00000000
,
00000000
00000000
00000000
00000000
,
00002030
00000000
00000000
00000000
,
00003002
00000000
00000000
00000000
,
00000013
00001000
00010000
00000100
,
00001000
00000001
00000100
00001000
,
00010000
00000000
00000000
00100000
00000000
00000000
10000000
00000000
00000000
00010000
00000000
00100000
,
00001000
00000000
00001000
00010000
00001000
00010000
00000100
00000100
00000000
00010100
00000000
00010000
,
00011000
00000000
00000000
00100000
00001000
00010000
00000100
00000000
00000100
00001000
00000010
00000100
,
00001000
00000000
00000000
00011000
00000000
00000000
00101000
00000000
00100000
00100000
00000000
00010000
,
01000000
00000000
00000000
00100000
10000000
01000000
00100000
00000000
00100000
00001000
00010000
00000100
,
00002000
00000000
00003010
00000002
00000000
00000013
00002000
00000000
00000000
00003100
00010000
00001000
,
00011000
00000000
00000000
00000010
00010000
00001000
01000000
00000000
01000000
00010000
10000000
01000000
,
00100000
00000000
00000000
01100000
00000000
00010000
00010000
00000000
01000000
00002000
00000000
00003000
,
00011000
00000000
00000000
00000010
00000100
00001000
00020000
00000000
00000000
00030100
00000010
00001000
,
00020000
00000000
00000000
01030000
10000000
00100000
10000000
00000000
01100000
00000000
01010000
00000000
,
20000000
00000000
00000000
31000000
00010000
00001000
01000000
00100000
00010000
00001000
01000000
00000000
,
00010000
00100000
01000000
00010000
00000100
00000000
00001000
00000010
00000100
00000001
00001000
00000100
,
00001000
00000000
00000000
00000002
00000000
00000000
00000103
00001000
00010000
00000100
00000010
00000000
,
00000100
00010000
00001000
00000100
00000010
00001000
00000100
00000000
00001100
00000000
00010100
00000000
,
00012000
00000000
00000000
00013000
01000000
10000000
00010000
01000000
10000000
01000000
00001000
00000000
,
00010000
00001000
00000100
00000001
00001000
00000100
00000001
00000100
00001000
00000001
00000100
00001000
,
00010000
00000000
00000000
00011000
00000000
00000000
00001000
00000010
00000001
00000100
00001000
00000000
,
00020000
00000000
00130000
20000000
00000000
31000000
00010000
00000000
00010100
00000000
00000100
00010000
,
00022000
00000000
00000000
00000000
,
00000000
00000000
00000000
00000000
,
00000000
00000000
00000000
00000000
,
00000000
00000000
00000000
00033000
,
00001000
00000000
01000000
00000000
00020000
00000000
10030000
00100000
,
00000000
00000000
01000000
00000000
00010000
00000000
00000000
00000000
10000000
00000000
01000000
00100000
01000000
00000000
00010000
00000000
,
00001000
00000000
00000100
00000010
00000100
00000000
00000001
00000000
00000010
00000000
00000100
00000000
00010000
00000000
00001000
00010000
,
00001000
00000000
00010000
00000000
00100000
00000000
10000000
00000000
01000000
00000000
00010000
00001000
00010000
00000000
00000000
00000000
,
00001100
00000000
00000000
00000010
00001000
00000000
00000010
00000100
00000001
00000000
00000010
00000001
00000000
00000010
00000100
00000000
,
00001000
00000010
00000000
00000100
00000010
00000000
00000100
00001000
00000000
00010000
00001000
00000000
00010000
00100000
00010000
00100000
,
10000000
00000000
10000000
00000000
11000000
00000000
00010000
00100000
00010000
00000000
00100000
00001000
00000000
00010000
00001000
00000000
,
00000010
00000100
00000000
00010000
00001000
00000000
00000010
00000000
00000100
00001000
00000001
00000000
00000100
00000001
00000100
00001000
,
00010000
00000000
01000000
00000000
00100000
00000000
00010000
00100000
00010000
00000000
10000000
00000000
00100000
00000000
00010000
00001000
,
00010000
00000000
00001000
00000000
00000100
00000000
00000002
00000000
00000023
00000000
00002030
00000000
00013000
00001000
00010000
00001000
,
00010000
00000000
00010000
00000000
00100000
00000000
01000000
00010000
01000000
00000000
00100000
00000000
10000000
00000000
01000000
00010000
,
00001000
01000000
00020000
00000000
00000000
00000000
00000000
00000000
00130000
00001000
00010000
00000010
00010000
00000000
00000000
00000000
,
00011000
00000000
00000000
00000000
00011000
00000000
00100000
00010000
01000000
00000000
00100000
10000000
00020000
00000000
00000000
00000000
,
01030000
00000000
10000000
01000000
00010000
00000000
00100000
00000000
00001000
00000000
00010000
00000000
00011000
00000000
00000100
00000000
,
00001000
00000000
00000010
00000000
00001010
00000000
00000001
00000100
00000010
00000000
00001000
00000100
00000000
00000010
00000100
00000000
,
00010000
00001000
00000000
01000000
00010000
01000000
00100000
00000000
10000000
00000000
10010000
00000000
00010000
00100000
00001000
00010000
,
00000010
00000000
00000100
00000001
00000010
00000000
00000100
00001000
00000001
00000000
00000100
00000000
00002000
00000000
00000000
00000000
,
01003000
00000000
00010000
10000000
00100000
00000000
01000000
00010000
00000000
00100000
00010000
00100000
00001000
00010000
00000100
00000000
,
00002000
00000000
00003010
00000110
00000000
00001000
00011000
00000000
,
01100000
00000000
00000000
00000000
10000000
00100000
10000000
00100000
01000000
00010000
00100000
00001000
00010000
00000010
00001000
00000100
,
00000020
00000000
00000000
00000000
,
00000000
00000000
00000000
00000000
,
00000030
00000000
00000000
00000000
;
