#VERSION:0.83;
#TITLE:LIMIT TOPPA REVOLUTION;
#SUBTITLE:;
#ARTIST:BEMANI Sound Team "PON" feat. NU-KO;
#TITLETRANSLIT:;
#SUBTITLETRANSLIT:;
#ARTISTTRANSLIT:PON feat. NU-KO;
#GENRE:HAPPY CORE MAX;
#CREDIT:;
#MUSIC:LIMIT TOPPA REVOLUTION.ogg;
#BANNER:LIMIT TOPPA REVOLUTION.png;
#BACKGROUND:LIMIT TOPPA REVOLUTION-bg.png;
#CDTITLE:./CDTitles/pnm UniLab.png;
#SAMPLESTART:41.199;
#SAMPLELENGTH:15.000;
#SELECTABLE:YES;
#OFFSET:-0.002;
#BPMS:0.000=190.000;
#STOPS:;
#TIMESIGNATURES:0.000=4=4;
#BGCHANGES:0.000=../BGAs/19po.mp4=1.000=0=0=0=StretchNoLoop====,
99999.000=-nosongbg-=1.000=0=0=0=StretchNoLoop====
;
#FGCHANGES:;

//--------------- dance-single - forcednature ----------------
#NOTEDATA:;
#STEPSTYPE:dance-single;
#DESCRIPTION:forcednature;
#DIFFICULTY:Beginner;
#METER:4;
#RADARVALUES:0,0,0,0,0;
#CREDIT:forcednature;
#NOTES:
0000
0000
0000
0000
,
0000
0000
0000
0000
,
0000
0000
0000
0000
,
0001
0000
1000
0000
,
0001
0000
0000
0000
,
1001
0000
0000
0000
,
1000
0000
0000
0000
,
0100
0000
0000
0000
,
1000
0000
0000
0000
,
0010
0000
0000
0000
,
1000
0000
0000
0000
,
0001
0000
0001
0000
,
0010
0000
0000
0000
,
1001
0000
0000
0000
,
0000
0000
0000
0000
,
1000
0000
0000
0000
,
0010
0000
0000
0000
,
1001
0000
0000
0000
,
0000
0000
0000
0000
,
0001
0000
0000
0000
,
0000
0000
0000
0000
,
0010
0000
0000
0000
,
0000
0000
0000
0000
,
0100
0000
0000
0000
,
1000
0000
0000
0000
,
0001
0000
0000
0000
,
0100
0000
0000
0000
,
0001
0000
0000
0000
,
0010
0000
0000
0000
,
0200
0000
0000
0000
,
0300
0000
0000
0000
,
1000
0000
0001
0000
,
1001
0000
0000
0000
,
1000
0000
1000
0000
,
0010
0000
0000
0000
,
1000
0000
1000
0000
,
0100
0000
0000
0000
,
1000
0000
1000
0000
,
0001
0000
0000
0000
,
0010
0000
0000
0000
,
0100
0000
0010
0000
,
0001
0000
0001
0000
,
0100
0000
0000
0000
,
0001
0000
0001
0000
,
1000
0000
0000
0000
,
0001
0000
0001
0000
,
0010
0000
0100
0000
,
1000
0000
0000
0000
,
0010
0000
0000
0000
,
1001
0000
0000
0000
,
0000
0000
0000
0000
,
0001
0000
0000
0000
,
0000
0000
0000
0000
,
0100
0000
0000
0000
,
0000
0000
0000
0000
,
0010
0000
0000
0000
,
1000
0000
0000
0000
,
2002
0000
3003
0000
,
0010
0000
0000
0000
,
2002
0000
3003
0000
,
0100
0000
0000
0000
,
0001
0000
0000
0000
,
0001
0000
0000
0000
,
1000
0000
1000
0000
,
0010
0000
0010
0000
,
1000
0000
0010
0000
,
1001
0000
0000
0000
,
0002
0000
0000
0000
,
0003
0000
0000
0000
,
2000
0000
0000
0000
,
3010
0010
0000
0000
,
0100
0000
0000
0000
,
0001
0000
0001
0000
,
0010
0000
0000
0000
,
0100
0000
0000
0000
,
1000
1000
1000
0000
,
1000
0000
1000
0000
,
0001
0001
0001
0000
,
0001
0000
0001
0000
,
0100
0000
0010
0000
,
0100
0000
0000
0000
,
0001
0000
1000
0000
,
0001
0000
0000
0000
,
1001
0000
0000
0000
,
1000
0000
1000
0000
,
0010
0000
0000
0000
,
0000
0000
0000
0000
,
0100
0000
0010
0000
,
0100
0010
0100
0000
,
1001
0000
0000
0000
;

//--------------- dance-single - forcednature ----------------
#NOTEDATA:;
#STEPSTYPE:dance-single;
#DESCRIPTION:forcednature;
#DIFFICULTY:Easy;
#METER:7;
#RADARVALUES:0,0,0,0,0;
#CREDIT:forcednature;
#NOTES:
0000
0000
0000
0000
,
0000
0000
0000
0000
,
0000
0000
0000
0000
,
0001
0000
1000
0000
,
2002
0000
3003
0000
,
1000
0010
1000
0000
,
0010
0000
0000
0000
,
1000
0001
1000
0000
,
0001
0000
0000
0000
,
1000
0100
1000
0000
,
0100
0000
0010
0000
,
0110
0000
0001
1000
,
0001
0000
0100
0000
,
1001
0000
0000
0000
,
0001
0000
0010
0000
,
0100
0100
0010
0000
,
0100
0000
1000
0000
,
1001
0000
0000
0000
,
0001
0000
0000
0000
,
0100
0000
0000
0000
,
0001
0000
0001
0000
,
1000
0000
0000
0000
,
0100
0000
0000
0000
,
1000
0000
1000
0000
,
0010
0000
0000
0000
,
0110
0000
0000
0000
,
0100
0001
0100
0000
,
0010
0000
0000
0000
,
1000
0001
1000
0000
,
1001
0000
0001
0000
,
0001
0000
0010
0000
,
0100
0010
0100
0000
,
0110
0000
0000
0000
,
0001
1000
0001
0000
,
1001
0000
1000
0000
,
0001
0100
0001
0000
,
1001
0000
0001
0000
,
1000
0001
1000
0000
,
1001
0000
0001
0000
,
0010
0001
0010
0000
,
0110
0000
1000
0001
,
1000
0100
1000
0000
,
1001
0000
1000
0000
,
0001
0100
0001
0000
,
0010
0000
0110
0000
,
1000
0001
1000
0000
,
0010
0000
0100
0000
,
0110
0000
1000
0000
,
0001
1000
0001
0000
,
1001
0000
0000
0000
,
1000
0000
1000
0000
,
0100
0000
0000
0000
,
1000
0000
1000
0000
,
0010
0000
0000
0000
,
0100
0000
0100
0000
,
0001
0000
0001
0000
,
0020
0000
0030
0000
,
0220
0000
0330
0000
,
0001
0001
1000
0001
,
2002
0000
3003
0000
,
1000
1000
0001
1000
,
0000
0010
0010
0100
,
0000
0010
0010
0100
,
0001
0000
0001
0010
,
0100
0000
0100
1000
,
0010
0000
1000
0001
,
2002
0000
3003
0000
,
1000
0000
0010
0000
,
1001
0000
0000
0000
,
0001
0000
0010
0000
,
0100
0100
0000
0100
,
0010
0000
0001
0000
,
1000
0001
1000
0000
,
0020
0000
1030
1000
,
0001
0000
0100
0000
,
0010
0010
0010
0010
,
1000
0001
1000
0000
,
0010
0010
0010
0010
,
0100
0000
0001
1000
,
0001
0000
1001
0000
,
1000
0100
0010
0000
,
0100
0100
1000
0001
,
0010
0000
0110
0000
,
2002
0000
3003
0000
,
1000
0001
0100
0000
,
0010
0000
1000
0000
,
0001
0000
0100
0000
,
0010
1000
0001
0100
,
0010
0010
1000
0001
,
0200
0000
0000
0000
,
0000
0000
0000
0000
,
0300
0000
0000
0000
;

//--------------- dance-single - forcednature ----------------
#NOTEDATA:;
#STEPSTYPE:dance-single;
#DESCRIPTION:forcednature;
#DIFFICULTY:Medium;
#METER:11;
#RADARVALUES:0,0,0,0,0;
#CREDIT:forcednature;
#NOTES:
0000
0000
0000
0000
,
0000
0000
0000
0000
,
0000
0000
0000
0000
,
1001
0000
1001
0000
,
0100
0000
0000
0220
0000
0000
0330
0000
,
0001
0000
0100
0001
0100
0000
0010
0000
,
1000
0100
0001
0000
,
0100
0000
1000
0100
1000
0000
0010
0000
,
1000
0010
0001
0000
,
0010
0000
1000
0010
1000
0000
0001
0000
,
0100
1000
0100
0001
,
0010
0000
0001
0010
0001
0000
0100
0000
,
0010
0100
0010
0100
0000
0000
0001
0000
,
1001
0000
1000
0100
,
0001
0100
1000
0001
,
0010
0002
0000
0000
0103
0000
0010
0000
,
1000
0000
1000
0001
0000
0000
0010
0000
,
0110
0000
0100
1000
,
1000
0000
0010
1000
,
1000
0000
0000
0000
0100
0000
0010
0100
,
0010
0001
1000
0010
,
0100
0000
0001
0100
,
0100
0000
0001
0010
,
0010
0000
0100
0010
0100
0000
1000
0000
,
0001
0000
0000
1001
0000
0000
0110
0000
,
0000
1000
0001
0000
0001
0000
0100
0000
,
0010
1000
0010
2000
0000
0000
3000
0000
,
0000
0001
1000
0000
1000
0000
0100
0000
,
0010
0001
0010
0002
0000
0000
0003
0000
,
0100
0000
0010
0100
0010
0000
0010
0000
,
1000
0001
1000
0100
,
0010
0000
0100
0010
0100
0000
0010
0000
,
2002
0000
3003
0000
,
0001
0000
0100
0001
1000
0000
0100
0000
,
1100
0001
0011
0000
,
1000
0000
0100
1000
0001
0000
0100
0000
,
0101
1000
1010
0000
,
0001
0000
0010
0001
0100
0000
0010
0000
,
1010
0100
0101
0000
,
1001
0000
1000
0000
0100
1000
0100
1000
,
0000
0010
0000
0010
0000
0000
0110
0000
,
0001
0000
1000
0001
1000
0000
0010
0000
,
0101
0001
1010
0000
,
0001
0000
0010
0001
0010
0000
0100
1000
,
0000
1000
0000
0010
1000
0010
0000
0100
,
0000
0000
0001
0000
0100
0001
0100
0000
,
0010
0000
1000
0000
0100
1000
0100
0000
,
0020
0001
0001
0130
,
1000
0000
1000
0001
0000
0001
0100
0000
,
0020
0000
0000
1030
,
2000
0000
0000
3001
,
0002
0000
0000
0013
,
0020
0000
0230
0000
,
2300
0000
0001
3001
,
0020
0000
0100
0130
,
2000
0000
0100
3100
,
0001
0000
0000
0010
0000
0000
0100
0000
0000
1000
0000
0000
0001
0000
0000
0000
,
1001
0000
0000
0000
0000
0000
1000
0100
1000
0100
0010
0100
,
0010
0000
0001
0100
0001
0000
1000
0000
,
1001
0000
0000
0000
0000
0000
0001
0100
0001
0100
0010
0100
,
0010
0000
1000
0010
1000
0000
0001
0000
,
0010
0000
0100
1000
0000
0001
0000
0000
,
0010
0000
0100
1000
0000
0001
0000
0000
,
0100
0000
0100
0010
0000
0010
0000
0000
,
0100
0000
0100
0010
0000
0010
0000
0000
,
1000
0000
1000
0001
0000
0001
0010
0000
,
2002
0000
3003
0000
,
2000
0000
0100
0100
,
0100
0000
3100
0000
,
0002
0000
0100
0103
,
0001
1000
0001
1000
0000
0000
0010
0000
,
0110
0000
0100
0100
,
0001
0010
0001
0010
,
0200
0000
0000
0000
1300
0001
1000
0001
,
0000
0100
0000
0100
0000
0010
1000
0000
,
0001
0010
0001
0010
0100
0010
0100
0010
,
0001
1000
0100
0001
,
0100
1000
0100
1000
0010
1000
0010
1000
,
0001
0100
1000
0100
,
0110
0000
0001
0000
1001
0000
1000
0100
,
0000
0010
0100
0020
0000
0000
0030
0000
,
0001
1000
0001
0000
1000
0000
1000
0010
,
0000
0100
0010
0100
0000
0001
0010
0000
,
0200
0000
0000
0000
1300
0001
1000
0001
,
0000
0100
0000
0010
0000
0110
0000
0000
,
2000
0100
0100
3100
,
0002
0100
0100
0103
,
1000
0010
1000
0000
0001
0010
0001
0000
,
0100
0010
0100
0010
1000
0001
0100
0010
,
2000
0000
0000
0000
,
0000
0000
0000
0000
,
3000
0000
0000
0000
;

//--------------- dance-single - forcednature ----------------
#NOTEDATA:;
#STEPSTYPE:dance-single;
#DESCRIPTION:forcednature;
#DIFFICULTY:Hard;
#METER:16;
#RADARVALUES:0,0,0,0,0;
#CREDIT:forcednature;
#NOTES:
0000
0000
0000
0000
,
0000
0000
0000
0000
,
0000
0000
0000
0000
,
1001
0000
0110
0000
,
1001
0000
0000
0220
0000
0000
0330
0000
,
1000
0000
0010
0100
0010
0000
0100
0000
0001
0000
0010
0000
0100
0000
2000
0000
,
0000
3010
0100
0010
0000
1000
0010
1000
,
0001
0000
0010
0100
0010
0000
0100
0000
1000
0000
0010
0000
0100
0000
0002
0000
,
0000
0013
0100
0010
0000
0001
0100
0001
,
1000
0000
0100
0010
0100
0000
0010
0000
0001
0000
0100
0000
1000
0000
0200
0000
,
0000
0300
0001
0000
0100
0000
0002
0000
0000
0003
0010
0000
0001
0000
0010
0000
,
0100
0000
0010
0100
0010
0000
0100
1000
0100
0000
1000
0000
0001
0000
0100
0000
,
0010
0000
0010
0000
0010
0000
2000
0000
0000
0000
3001
0000
1000
0001
1000
0001
,
1000
0000
0100
0000
0010
0000
0000
0100
1000
0000
0001
0000
0010
0001
0020
0000
,
0000
0130
1000
0001
0100
0001
1000
0010
,
0000
0000
0002
0000
0000
0000
0013
0000
0100
0000
0010
1000
0010
0000
1000
0000
,
1001
0000
0000
0000
0001
0000
0101
0000
0000
0000
1000
0010
1000
0000
0001
0000
,
0010
0000
0010
0100
0000
0010
0001
1000
,
0010
0000
0000
0000
0010
0000
0100
0000
0000
0000
0010
0000
1000
0000
0001
1000
,
0001
0000
0001
0100
0000
0010
1000
0010
,
1000
0000
0000
1000
0000
0000
0001
0000
0000
0010
0000
0000
0100
0000
0000
0000
,
1001
0000
1000
0010
0000
0100
0010
0100
,
0001
0000
0001
0010
0000
0100
0010
0100
,
2000
0001
0100
3001
,
1010
0000
0000
0110
0000
0000
0001
0000
0000
0100
0000
0000
2000
0000
0000
0000
,
3100
0001
0100
0001
0010
0100
0010
0001
,
0100
0000
0010
0100
0010
0000
2000
0000
0000
0000
3100
0000
0001
0000
0100
0000
,
0000
1000
0100
1000
0010
0100
0010
1000
,
0100
0000
0010
0100
0010
0000
0002
0000
0000
0000
0103
0000
1000
0000
0100
0000
,
0001
0000
0101
0000
0101
0000
0100
0010
,
1000
1010
0110
1001
,
0001
0000
0010
0000
0100
0000
0010
0000
0001
1000
0001
1000
0100
1000
0100
1000
,
0200
0000
0000
0000
0310
0001
0100
0010
,
0000
0000
1000
0010
1000
0000
0001
0010
0001
0000
1000
0010
0100
0000
0002
0000
,
0000
0013
0100
0010
0001
0100
0010
1000
,
0000
0000
0001
0010
0001
0000
1000
0010
1000
0000
0001
0010
0100
0000
2000
0000
,
0000
3010
0100
0010
1000
0100
0010
0001
,
0000
0000
1000
0100
1000
0000
0001
0100
0001
0000
0010
0100
1000
0000
0002
0000
,
0000
0003
0100
0001
0100
0000
0020
0000
0000
0030
1000
0001
1000
0000
0100
0000
,
0010
0001
1000
0001
0100
0100
0100
0020
,
0000
0030
1000
0010
1000
0000
0001
0000
0000
0000
0100
0000
1001
0000
0000
0000
,
0001
0000
0100
0001
1000
0000
0100
1000
0001
0000
0010
0100
1000
0000
0020
0000
,
0000
0130
0001
0100
0010
0001
0010
1000
,
0000
0000
0100
1000
0001
0000
0100
0001
1000
0000
0010
0100
0001
0000
0010
0000
,
0000
0110
0000
0100
1000
1001
0000
0101
,
0000
0000
0100
0010
1000
0000
0100
0010
0001
0000
0100
0001
1000
0000
0200
0000
,
0000
0300
0010
0001
0010
0000
0200
0000
0000
0300
1000
0001
1000
0000
0010
0000
,
0100
0000
0001
0000
0100
0010
0100
0010
0100
0000
0010
0000
1000
0000
0001
0000
,
1001
0000
0000
0000
1000
0000
0100
0000
1000
0001
1000
0001
0010
0000
0200
0000
,
0000
0000
0300
0000
0010
0001
0100
0010
,
0000
1000
0100
0001
0000
0200
0000
0000
,
1300
0000
0010
0000
0100
0001
0020
0000
,
0000
0130
0010
0001
0000
0100
0010
0010
,
1000
0000
1001
0000
0001
0000
0010
0200
,
0000
0300
0000
1000
0001
1000
0000
0020
,
0000
0000
0130
0000
0001
0010
0100
1000
,
1100
0000
0000
1010
0000
0000
0110
0000
0000
0101
0000
0000
1001
0000
0000
0000
,
1000
0100
1000
0100
1000
0100
0010
0001
0100
0010
1000
0100
,
0010
0000
0001
0010
0000
0001
0100
0000
0010
1000
0010
1000
0010
0000
1000
0000
,
0001
0100
0001
0100
0001
0100
0010
1000
0100
0001
0100
1000
,
0001
0000
0010
0001
0010
0001
0000
0100
0010
0000
1000
0010
1000
0000
0001
0000
,
0010
0001
0000
0100
0001
0000
0010
0001
0000
0100
0001
0000
1000
0001
1000
0000
,
0100
1000
0000
0010
1000
0000
0100
1000
0000
0010
1000
0000
0001
1000
0001
0000
,
0010
0001
0010
0001
0010
0000
0100
1000
0100
1000
0100
0000
0010
0000
0001
0000
,
0100
0001
0100
0001
0100
0000
0010
1000
0010
1000
0010
0000
0100
0000
0001
0000
,
0010
0001
0010
0001
0010
0000
0100
0000
1000
0001
1000
0001
0100
0000
0010
1000
,
0200
0000
0000
0000
0300
0010
0100
0010
,
0000
0001
0100
0000
0010
0100
0010
2000
,
0000
0000
3000
0000
0000
0001
0100
0001
,
0000
0010
0001
0000
0010
0100
1000
0100
,
0010
0010
0010
0001
0000
0100
0010
0000
,
1000
0000
0100
1100
0000
0001
0010
0100
,
0010
0000
0001
0101
0000
1000
0010
0100
,
0002
0000
0000
0000
0013
0010
0010
0200
,
0000
1300
1000
0002
0000
0103
0110
0000
,
0001
0100
0001
0100
0001
0100
0001
0100
0010
1000
0010
1000
0010
1000
0010
1000
,
0001
0010
0100
1000
0000
1001
0000
0001
,
1000
0100
1000
0100
1000
0100
1000
0100
0010
0001
0010
0001
0010
0001
0010
0001
,
1000
0010
0000
0110
0110
0000
0001
1000
,
0001
0000
0011
0000
1100
0000
0001
2000
,
0000
3100
0001
0200
0000
1300
0100
1000
,
0001
1000
0001
1000
0001
0010
0001
0010
0100
0000
1000
0000
0001
0000
0100
0000
,
0010
0000
0010
0000
0010
0000
0100
0000
0001
1000
0001
1000
0010
1000
0010
1000
,
0200
0000
0000
0000
1300
0001
0010
0011
,
0000
1000
0100
1100
0000
0001
1000
0001
,
0020
0230
2300
3002
,
0023
0230
2300
3002
,
0013
0010
0100
0100
1000
1000
0001
0001
,
0010
0100
0010
0100
1000
0001
1000
0001
0010
0100
0010
0100
1000
0001
1000
0001
,
0200
0000
0000
0000
,
0000
0000
0000
0000
,
0300
0000
0000
0000
;

//--------------- dance-double - forcednature ----------------
#NOTEDATA:;
#STEPSTYPE:dance-double;
#DESCRIPTION:forcednature;
#DIFFICULTY:Easy;
#METER:7;
#RADARVALUES:0,0,0,0,0;
#CREDIT:forcednature;
#NOTES:
00000000
00000000
00000000
00000000
,
00000000
00000000
00000000
00000000
,
00000000
00000000
00000000
00000000
,
00001000
00000000
00010000
00000000
,
00022000
00000000
00033000
00000000
,
00001000
00010000
00001000
00000000
,
00100000
00000000
00000000
00000000
,
00001000
00010000
00001000
00000000
,
01000000
00000000
00000000
00000000
,
00010000
10000000
00010000
00000000
,
00100000
00000000
01000000
00000000
,
01100000
00000000
10000000
00010000
,
10000000
00000000
00100000
00000000
,
01100000
00000000
00000000
00000000
,
00010000
00000000
00100000
00000000
,
00001000
00001000
00010000
00000000
,
00000100
00000000
00001000
00000000
,
00001001
00000000
00000000
00000000
,
00000001
00000000
00000000
00000000
,
00000100
00000000
00000000
00000000
,
00000001
00000000
00000001
00000000
,
00000010
00000000
00000000
00000000
,
00000100
00000000
00000000
00000000
,
00010000
00000000
00010000
00000000
,
00001000
00000000
00000000
00000000
,
00011000
00000000
00000000
00000000
,
01000000
00010000
01000000
00000000
,
00100000
00000000
00000000
00000000
,
10000000
00010000
10000000
00000000
,
10010000
00000000
00010000
00000000
,
00010000
00000000
00100000
00000000
,
00001000
00010000
00001000
00000000
,
00011000
00000000
00000000
00000000
,
00010000
00001000
00010000
00000000
,
00011000
00000000
00000100
00000000
,
00001000
00000001
00001000
00000000
,
00001001
00000000
00000001
00000000
,
00000010
00000100
00000010
00000000
,
00000110
00000000
00000100
00000000
,
00010000
00001000
00010000
00000000
,
00011000
00000000
01000000
00010000
,
10000000
00100000
10000000
00000000
,
10010000
00000000
00010000
00000000
,
00100000
00010000
00100000
00000000
,
00001000
00000000
00011000
00000000
,
00010000
00001000
00010000
00000000
,
00000100
00000000
00001000
00000000
,
00001001
00000000
00000001
00000000
,
00000100
00000001
00000100
00000000
,
00001001
00000000
00000000
00000000
,
00001000
00000000
00001000
00000000
,
00000100
00000000
00000000
00000000
,
00010000
00000000
00010000
00000000
,
00001000
00000000
00000000
00000000
,
00100000
00000000
00100000
00000000
,
00010000
00000000
01000000
00000000
,
00200000
00000000
00300000
00000000
,
02200000
00000000
03300000
00000000
,
00010000
00000000
00001000
00000000
,
00022000
00000000
00033000
00000000
,
00000010
00000000
00000100
00000000
,
00000110
00000000
00000001
00000100
,
00000001
00000000
00000001
00000100
,
00000010
00000000
00000010
00000000
,
00001000
00000000
00001000
00000000
,
00000100
00010000
00001000
00000000
,
00022000
00000000
00033000
00000000
,
00100000
00000000
00010000
00000000
,
10010000
00000000
00000000
00000000
,
00100000
00000000
10000000
00000000
,
01000000
01000000
00000000
01000000
,
00100000
00000000
00010000
00000000
,
01000000
00010000
01000000
00000000
,
00002000
00000000
00013000
00010000
,
00001000
00000000
00010000
00000000
,
00000100
00000100
00000100
00000100
,
00001000
00000001
00001000
00000000
,
00000010
00000010
00000010
00000010
,
00001000
00000000
00000100
00001000
,
00000100
00000000
00011000
00000000
,
01000000
00010000
01000000
00000000
,
00100000
00100000
10000000
00010000
,
10000000
00000000
10010000
00000000
,
02200000
00000000
03300000
00000000
,
00010000
10000000
00010000
00000000
,
00100000
00000000
00001000
00000000
,
00010000
00000000
00000100
00000000
,
00001000
00000010
00000100
00000001
,
00000010
00000010
00000100
00000010
,
00000002
00000000
00000000
00000000
,
00000000
00000000
00000000
00000000
,
00000003
00000000
00000000
00000000
;

//--------------- dance-double - forcednature ----------------
#NOTEDATA:;
#STEPSTYPE:dance-double;
#DESCRIPTION:forcednature;
#DIFFICULTY:Medium;
#METER:12;
#RADARVALUES:0,0,0,0,0;
#CREDIT:forcednature;
#NOTES:
00000000
00000000
00000000
00000000
,
00000000
00000000
00000000
00000000
,
00000000
00000000
00000000
00000000
,
00011000
00000000
00011000
00000000
,
00100000
00000000
00000000
00022000
00000000
00000000
00033000
00000000
,
00001000
00000000
00000010
00000000
00000100
00000010
00000001
00000000
,
00000100
00000010
00001000
00000000
,
00010000
00000000
01000000
00000000
10000000
01000000
00010000
00000000
,
00100000
00001000
00010000
00000000
,
01000000
00000000
10000000
00000000
00100000
01000000
00010000
00000000
,
00100000
01000000
00010000
01000000
,
00100000
00000000
00001000
00100000
00001000
00000000
00010000
00000000
,
00000100
00001000
00000100
00001000
00000000
00000000
00000010
00000000
,
00001001
00000000
00000001
00000100
,
00001000
00010000
01000000
10000000
,
00100000
02000000
00000000
00000000
03010000
00000000
00100000
00000000
,
01000000
00000000
01000000
00010000
00000000
00000000
00001000
00000000
,
00011000
00000000
00010000
00000010
,
00000010
00000000
00010000
00000100
,
00000100
00000000
00000000
00000000
00010000
00000000
00001000
00010000
,
00001000
00100000
00010000
01000000
,
00100000
00000000
10000000
01000000
,
01000000
00000000
00010000
00001000
,
00001000
00000000
00010000
00001000
00010000
00000000
00000100
00000000
,
00000010
00000000
00000000
00000110
00000000
00000000
00001001
00000000
,
00000000
00000001
00000100
00000000
00000100
00000000
00000001
00000000
,
00000010
00000100
00000010
00000200
00000000
00000000
00000300
00000000
,
00000000
00010000
00001000
00000000
00001000
00000000
01000000
00000000
,
00010000
10000000
00010000
20000000
00000000
00000000
30000000
00000000
,
01000000
00000000
00100000
01000000
00100000
00000000
00001000
00000000
,
00010000
00000100
00010000
00001000
,
00000010
00000000
00000001
00000010
00000001
00000000
00000100
00000000
,
00002002
00000000
00003003
00000000
,
00001000
00000000
00000001
00000100
00001000
00000000
00000100
00000000
,
00000101
00001000
00001010
00000000
,
00001000
00000000
00000001
00000010
00001000
00000000
00000010
00000000
,
00001100
00010000
00011000
00000000
,
00100000
00000000
00010000
01000000
10000000
00000000
01000000
00000000
,
01010000
00001000
00011000
00000000
,
00110000
00000000
00001000
00000000
00010000
00001000
00010000
00001000
,
00000000
00000010
00000000
00000010
00000000
00000000
00000110
00000000
,
00001000
00000000
00000001
00001000
00000001
00000000
00000100
00000000
,
00000110
00001000
00001100
00000000
,
00010000
00000000
00001000
00010000
00001000
00000000
00100000
00010000
,
00000000
00010000
00000000
01000000
00100000
01000000
00000000
00100000
,
00000000
00000000
10000000
00000000
01000000
10000000
01000000
00000000
,
00100000
00000000
00001000
00000000
00010000
00001000
00010000
00000000
,
00000200
00000000
00001300
00000010
,
00001000
00000000
00001000
00000001
00000000
00000001
00000010
00000000
,
00000200
00000000
00000000
00010300
,
00020000
00000000
00000000
00031000
,
00002000
00000000
00000000
00103000
,
00200000
00000000
00320000
00000000
,
02030000
00000000
00100000
03100000
,
00020000
00000000
10000000
10030000
,
00200000
00000000
00001000
00301000
,
00100000
00000000
00000000
00010000
00000000
00000000
01000000
00000000
00000000
00010000
00000000
00000000
10000000
00000000
00000000
00000000
,
10010000
00000000
00000000
00000000
00000000
00000000
10000000
01000000
10000000
01000000
00100000
01000000
,
00100000
00000000
00010000
00100000
00001000
00000000
00010000
00000000
,
00011000
00000000
00000000
00000000
00000000
00000000
00000100
00001000
00000100
00001000
00000010
00001000
,
00000010
00000000
00000100
00000001
00001000
00000000
00000100
00000000
,
00000010
00000000
00000001
00001000
00000000
00001000
00000000
00000000
,
00000100
00000000
00010000
00001000
00000000
00001000
00000000
00000000
,
00100000
00000000
00100000
00010000
00000000
00010000
01000000
00000000
,
00100000
00000000
00100000
10000000
00000000
10000000
01000000
00000000
,
00100000
00000000
00100000
00001000
00000000
00001000
00010000
00000000
,
00022000
00000000
00033000
00000000
,
00002000
00000000
00000010
00000010
,
00000010
00000000
00000010
00000000
,
00023000
00000000
00100000
00130000
,
01000000
00100000
01000000
00100000
00000000
00000000
01000000
00000000
,
01100000
00000000
10000000
10000000
,
00010000
00100000
00010000
00100000
,
00002000
00000000
00000000
00000000
00013000
00001000
00010000
00001000
,
00000000
00000010
00000000
00000010
00000000
00000001
00001000
00000000
,
00000100
00000010
00000100
00000010
00000001
00000010
00000001
00000010
,
00000100
00010000
00001000
00100000
,
00010000
01000000
00010000
01000000
00100000
01000000
00100000
01000000
,
00010000
10000000
01000000
00010000
,
00011000
00000000
00000010
00000000
00001010
00000000
00001000
00000001
,
00000000
00000100
00000001
00000200
00000000
00000000
00000300
00000000
,
00000010
00000100
00000010
00000000
00001000
00000000
00001000
00000100
,
00000000
00010000
00001000
00010000
00000000
00001000
00100000
00000000
,
02000000
00000000
00000000
00000000
13000000
00010000
10000000
00010000
,
00000000
01000000
00000000
00100000
00000000
01100000
00000000
00000000
,
20000000
00000000
32000000
00010000
,
03020000
00001000
00032000
00000010
,
00003010
00000001
00000100
00001000
,
00010000
00001000
00010000
00001000
00100000
00010000
01000000
00100000
,
20000000
00000000
00000000
00000000
,
00000000
00000000
00000000
00000000
,
30000000
00000000
00000000
00000000
;

//--------------- dance-double - forcednature ----------------
#NOTEDATA:;
#STEPSTYPE:dance-double;
#DESCRIPTION:forcednature;
#DIFFICULTY:Hard;
#METER:16;
#RADARVALUES:0,0,0,0,0;
#CREDIT:forcednature;
#NOTES:
00000000
00000000
00000000
00000000
,
00000000
00000000
00000000
00000000
,
00000000
00000000
00000000
00000000
,
00010100
00000000
01001000
00000000
,
00001000
00010000
00001000
00022000
00000000
00000000
00033000
00000000
,
00010000
00100000
01000000
00100000
10000000
01000000
00010000
00002000
,
00000000
00103000
00010000
00100000
00000000
01000000
00010000
00000000
,
00001000
00000010
00000100
00000010
00000001
00000100
00001000
00020000
,
00000000
00030010
00001000
00000010
00000000
00000100
00001000
00000000
,
00010000
01000000
00100000
01000000
10000000
00100000
00010000
00002000
,
00000000
00003000
00000100
00000000
00001000
00000000
00020000
00000000
00000000
00030000
00100000
00000000
00010000
00000000
00001000
00000000
,
00000010
00000100
00000010
00000001
00000100
00000010
00000100
00001000
,
00010000
00000000
00010000
00000000
00010000
00000000
00002000
00000000
00000000
00000000
00103000
00000000
00010000
00100000
00010000
00100000
,
00010000
00000000
01000000
00000000
00100000
00000000
00000000
10000000
01000000
00000000
00010000
00000000
00001000
00000000
00000020
00000000
,
00000000
00000130
00001000
00000010
00001000
00000100
00000010
00001000
,
00000000
00000000
00020000
00000000
00000000
00000000
01030000
00000000
00100000
00000000
01000000
00100000
01000000
00000000
10000000
00000000
,
00010000
00000000
00000000
00000000
00100000
00000000
00110000
00000000
00000000
00000000
00001000
00010000
00001000
00000000
00010000
00000000
,
00000000
00000010
00001000
00000000
00000200
00000000
00000320
00000000
,
00000031
00000000
00000100
00000000
00000000
00000000
00001000
00000000
00000000
00000000
00000100
00000000
00000001
00000000
00000100
00000010
,
00000100
00000000
00001000
00010000
00000000
00010000
00001000
00100000
,
00001000
00000000
00000000
00010000
00000000
00000000
01000000
00000000
00000000
00100000
00000000
00000000
00001000
00000000
00001000
00000000
,
00000000
00010000
00100000
00000000
02000000
00000000
03200000
00000000
,
10300000
00000000
01000000
00000000
00000000
00000000
00010000
00000000
00000000
00000000
01000000
00000000
10000000
00000000
01000000
00100000
,
02000000
00000000
00000000
00000000
03100000
01000000
00100000
00001000
,
00011000
00000000
00000000
00010100
00000000
00000000
00001100
00000000
00000000
00001010
00000000
00000000
00000220
00000000
00000000
00000000
,
00000330
00000001
00000100
00000001
00000100
00000001
00000010
00000001
,
00000010
00001000
00010000
00200000
00000000
00310000
00001000
00010000
,
00000000
01000000
10000000
01000000
10000000
00100000
10000000
00000000
,
00100000
00010000
00001000
00000020
00000000
00001030
00010000
00001000
,
00011000
00000000
00011000
00000000
00101000
00000000
00100000
00010000
,
01000000
01010000
00011000
00001010
,
00000010
00000000
00000100
00000000
00001000
00000000
00000100
00000000
00000001
00001000
00000001
00001000
00000010
00001000
00000010
00001000
,
00000020
00000000
00000000
00000000
00000130
00001000
00000000
00011000
,
00000000
00000000
00010000
00001000
00010000
00000000
00001000
00100000
00001000
00000000
00100000
00010000
00100000
00000000
02000000
00000000
,
00000000
13000000
00100000
01000000
00000000
10000000
01000000
00010000
,
00000000
00000000
01000000
00100000
01000000
00000000
00100000
10000000
00100000
00000000
10000000
01000000
10000000
00000000
00020000
00000000
,
00000000
00130000
01000000
00100000
00000000
00001000
00010000
00000100
,
00000000
00000000
00000010
00000001
00000010
00000000
00000001
00000100
00000001
00000000
00000100
00000010
00000100
00000000
00000020
00000000
,
00000000
00000030
00001000
00000010
00001000
00000000
00000200
00000000
00000000
00000300
00010000
00000100
00010000
00000000
00002000
00000000
,
00000000
00003000
00010000
00000000
00100000
00000000
10000000
00000000
00100000
00000000
00100000
00000000
00100000
00000000
02000000
00000000
,
00000000
03000000
00010000
01000000
00010000
00000000
00100000
00000000
00000000
00000000
00001000
00000000
00011000
00000000
00000000
00000000
,
00010000
00000000
00000100
00001000
00000100
00000000
00001000
00000010
00001000
00000000
00000010
00000100
00000001
00000000
00000020
00000000
,
00000000
00001030
00000010
00000001
00000000
00000100
00000010
00001000
,
00000000
00000000
00000100
00001000
00000100
00000000
00010000
00001000
00010000
00000000
00001000
00100000
00010000
00000000
01000000
00000000
,
00000000
01100000
00000000
00100000
00010000
00001000
00000000
00011000
,
00000000
00000000
00010000
00000100
00010000
00000000
00001000
00010000
00001000
00000000
00010000
00000010
00001000
00000000
00000020
00000000
,
00000000
00000030
00000100
00000010
00000100
00000000
00002000
00000000
00000000
00003000
00010000
00001000
00010000
00000000
00100000
00000000
,
01000000
00000000
00010000
00000000
01000000
00100000
01000000
00100000
01000000
00000000
00100000
00000000
10000000
00000000
02000000
00000000
,
00000000
00000000
03010000
00000000
00001000
00000000
00100000
00000000
00001000
00010000
00001000
00010000
00000100
00000000
00002000
00000000
,
00000000
00000000
00003000
00000000
00000010
00000100
00000001
00000100
,
00000000
00001000
00010000
01000000
00000000
00200000
00000000
00000000
,
00300000
00000000
00000000
00000000
01000000
00010000
00002000
00000000
,
00000000
00003010
00000100
00000010
00000000
00000002
00000000
00000000
,
00000003
00000000
00000000
00000000
00000100
00000000
00001000
00020000
,
00000000
00030000
00000000
01000000
00100000
01000000
00000000
20000000
,
00000000
00000000
00000000
30000000
01000000
00100000
00010000
01000000
,
01010000
00000000
00000000
01001000
00000000
00000000
00011000
00000000
00000000
00010010
00000000
00000000
00001010
00000000
00000000
00000000
,
00000010
00000100
00000010
00000100
00000010
00000100
00001000
00010000
00001000
00010000
00001000
00010000
,
00100000
00000000
01000000
00000000
00100000
10000000
00100000
00000000
10000000
00010000
10000000
00010000
10000000
00000000
01000000
00000000
,
00100000
01000000
00100000
01000000
00100000
01000000
00010000
00001000
00010000
00000100
00010000
00001000
,
00000010
00000000
00000100
00000000
00000010
00000001
00000010
00000000
00000001
00001000
00000001
00001000
00000001
00000000
00000100
00000000
,
00000010
00000100
00000000
00000010
00000100
00000000
00001000
00000100
00000000
00000001
00000100
00000000
00001000
00000000
00010000
00000000
,
00100000
01000000
00000000
00100000
01000000
00000000
00010000
01000000
00000000
10000000
01000000
00000000
00010000
00000000
10000000
00000000
,
01000000
00100000
00100000
00001000
00010000
00010000
00000100
00000000
,
00000010
00000100
00000100
00010000
00001000
00001000
00100000
00000000
,
00010000
10000000
00010000
10000000
00010000
00000000
01000000
00000000
00100000
01000000
00100000
01000000
00100000
10000000
00100000
10000000
,
00020000
00000000
00000000
00000000
00030000
10000000
00100000
10000000
,
00000000
01000000
00100000
00000000
01000000
10000000
01000000
00020000
,
00000000
00000000
00030000
00000000
00000000
00001000
00000010
00001000
,
00000000
00000010
00000001
00000000
00000100
00000001
00000100
00001000
,
00010000
00010000
00010000
00100000
00000000
10000000
00100000
00000000
,
01100000
00000000
01000000
00010000
00000000
00010000
00100000
01000000
,
00010000
00000000
00010000
00001000
00000000
00001000
00000010
00000001
,
00000020
00000000
00000000
00000000
00001030
00001000
00001000
00020000
,
00000000
01030000
01000000
00200000
00000000
00310000
10010000
00000000
,
10000000
00010000
10000000
00010000
10000000
00010000
10000000
00010000
10000000
00010000
10000000
00010000
10000000
00010000
10000000
00010000
,
01000000
00000000
00100000
00010000
00000000
00001000
00000000
00000010
,
00000001
00001000
00000001
00001000
00000001
00001000
00000001
00001000
00000001
00001000
00000001
00001000
00000001
00001000
00000001
00001000
,
00000100
00000010
00000000
00001000
00010000
00000000
00011000
00000000
,
00100000
00000000
00110000
00000000
11000000
00000000
00010000
20000000
,
00000000
31000000
00010000
02000000
00000000
03100000
00010000
00100000
,
00001000
00010000
00001000
00010000
00001000
00010000
00001000
00010000
00001000
00000000
00000000
00000000
00000010
00000000
00000100
00000000
,
00000010
00000000
00000010
00000000
00000010
00000000
00000001
00000000
00000100
00000001
00000100
00000001
00000100
00000010
00000100
00000010
,
00002000
00000000
00000000
00000000
00003001
00000010
00001000
00010000
,
00000000
00011000
00000000
00100000
00000000
00110000
00000000
10000000
,
00020000
01000000
10000000
00100000
,
00032000
00000100
00000001
00000010
,
00013000
01000000
00001000
00100000
00000010
00010000
00000100
00001000
,
00000010
00000100
00000001
00000000
00000010
00000100
00001000
00000000
00000010
00010000
00001000
00000000
00100000
00010000
01000000
00000000
,
00200000
00000000
00000000
00000000
,
00000000
00000000
00000000
00000000
,
00300000
00000000
00000000
00000000
;
