#VERSION:0.83;
#TITLE:きゅんです。;
#SUBTITLE:;
#ARTIST:Pizuya's Cell;
#TITLETRANSLIT:Kyundesu.;
#SUBTITLETRANSLIT:;
#ARTISTTRANSLIT:;
#GENRE:ROCK;
#CREDIT:;
#MUSIC:Kyundesu.ogg;
#BANNER:Kyundesu.png;
#BACKGROUND:Kyundesu-bg.png;
#CDTITLE:./CDTitles/bm IIDX 30 RESIDENT.png;
#SAMPLESTART:1.012;
#SAMPLELENGTH:15.000;
#SELECTABLE:YES;
#OFFSET:1.395;
#BPMS:0.000=162.000;
#STOPS:;
#BGCHANGES:0.000=Kyundesu.mp4=1.000=0=0=0=StretchNoLoop====,
99999.000=-nosongbg-=1.000=0=0=0=StretchNoLoop====
;
#FGCHANGES:;

//--------------- dance-single - forcednature x Talkion ----------------
#NOTEDATA:;
#STEPSTYPE:dance-single;
#DESCRIPTION:forcednature x Talkion;
#CREDIT:forcednature x Talkion;
#DIFFICULTY:Beginner;
#METER:2;
#RADARVALUES:0,0,0,0,0;
#NOTES:
0000
0000
0000
0000
,
0000
0000
0000
0000
,
0000
0000
0000
0000
,
0000
0000
0000
0000
,
0000
0000
0000
0000
,
0000
0000
0000
0000
,
1000
0000
0000
0000
,
0000
0000
0000
0000
,
0001
0000
0000
0000
,
0100
0000
0000
0000
,
0010
0000
0000
0000
,
0000
0000
0000
0000
,
1000
0000
0000
0000
,
0000
0000
0000
0000
,
0001
0000
0000
0000
,
0000
0000
0000
0000
,
0100
0000
0000
0000
,
0000
0000
0000
0000
,
0001
0000
0000
0000
,
0000
0000
0000
0000
,
0010
0000
0000
0000
,
0000
0000
0000
0000
,
0100
0000
0000
0000
,
0000
0000
0000
0000
,
1000
0000
0000
0000
,
0000
0000
0000
0000
,
0010
0000
0000
0000
,
0000
0000
0000
0000
,
0100
0000
0000
0000
,
0000
0000
0000
0000
,
0001
0000
0000
0000
,
1000
0000
0000
0000
,
0001
0000
0000
0000
,
1000
0000
0000
0000
,
0010
0000
0000
0000
,
0000
0000
0000
0000
,
0000
0000
0000
0000
,
0000
0000
0000
0000
,
1001
0000
0000
0000
,
0000
0000
0000
0000
,
1000
0000
0000
0000
,
0100
0000
0000
0000
,
0010
0000
0000
0000
,
0001
0000
0000
0000
,
0000
0000
0000
0000
,
1000
0000
0000
0000
,
0010
0000
0000
0000
,
1000
0000
0000
0000
,
0000
0000
0000
0000
,
0001
0000
0000
0000
,
0010
0000
0000
0000
,
0100
0000
0000
0000
,
0000
0000
0000
0000
,
0010
0000
0000
0000
,
0001
0000
0000
0000
,
0010
0000
0000
0000
,
0000
0000
0000
0000
,
0100
0000
0000
0000
,
1000
0000
0000
0000
,
0001
0000
0000
0000
,
1001
0000
0000
0000
,
1000
0000
0000
0000
,
0000
0000
0000
0000
,
0010
0000
0000
0000
,
0100
0000
0000
0000
,
0001
0000
0000
0000
,
0000
0000
0000
0000
,
0010
0000
0000
0000
,
0001
0000
0000
0000
,
1000
0000
0000
0000
,
1001
0000
0000
0000
;

//--------------- dance-single - forcednature x Talkion ----------------
#NOTEDATA:;
#STEPSTYPE:dance-single;
#DESCRIPTION:forcednature x Talkion;
#CREDIT:forcednature x Talkion;
#DIFFICULTY:Easy;
#METER:5;
#RADARVALUES:0,0,0,0,0;
#NOTES:
0000
0000
0000
0000
,
0000
0000
0000
0000
,
0000
0000
0000
0000
,
0000
0000
0000
0000
,
0000
0000
0000
0000
,
0000
0000
0000
0000
,
1001
0000
0001
0000
,
0100
0001
0100
0000
,
0010
0010
1000
0000
,
0001
1000
0001
0000
,
1001
0000
0000
0000
,
1000
0100
0010
0001
,
0100
0000
0000
0000
,
0001
0010
0100
1000
,
0010
0000
0000
0000
,
1000
0001
0100
0010
,
1000
0000
0000
0000
,
0001
1000
0010
0100
,
0001
0000
0001
0001
,
0001
0000
0100
0000
,
1001
0000
0000
0000
,
0001
1000
0010
0000
,
1000
0000
1000
1000
,
1000
0000
0100
0000
,
1001
0000
0000
0000
,
0001
0010
0100
1000
,
0002
0000
0003
0100
,
0200
0000
0300
0010
,
0020
0000
0030
1000
,
0001
0000
0010
0000
,
1001
0000
1000
1000
,
0100
0000
1000
1000
,
0010
0000
0100
0000
,
0220
0000
0330
0000
,
2002
0000
0000
0000
,
0000
0000
0000
0000
,
0000
0000
0000
0000
,
0000
0000
3003
0000
,
1001
0000
0001
0100
,
0000
0100
0001
0010
,
0100
0000
1000
1000
,
0010
0100
0010
0000
,
0100
0001
1000
0000
,
1001
0000
0110
0000
,
0001
0001
1000
0000
,
0100
1000
0100
0000
,
1000
0010
0100
0001
,
0010
0000
0001
0001
,
1000
0001
1000
0000
,
0010
0100
0001
0100
,
0010
0010
1000
0000
,
0001
1000
1001
0000
,
0001
1000
0100
0000
,
1000
0010
1000
0000
,
0001
0010
0100
1000
,
0010
0000
0100
0001
,
0100
0000
0010
1000
,
0002
0003
2000
3000
,
0010
0100
0010
0110
,
1000
0001
1000
1001
,
0200
0000
0300
0000
,
0001
0000
0001
0010
,
0000
0010
0001
0100
,
0010
0000
0010
1000
,
0000
1000
0001
0010
,
0100
0000
0100
1000
,
0000
1000
0001
0100
,
0010
0000
0100
0001
,
0000
1000
0100
0001
,
0000
0001
0100
2000
,
0000
0000
3000
0000
;

//--------------- dance-single - forcednature x Talkion ----------------
#NOTEDATA:;
#STEPSTYPE:dance-single;
#DESCRIPTION:forcednature x Talkion;
#CREDIT:forcednature x Talkion;
#DIFFICULTY:Medium;
#METER:9;
#RADARVALUES:0,0,0,0,0;
#NOTES:
0000
0000
0000
0000
,
0000
0000
0000
0000
,
0000
0000
0000
0000
,
0000
0000
0000
0000
,
0000
0000
0000
0000
,
0000
0000
0000
0000
,
1001
0000
0000
1000
0001
0000
0100
0000
,
0002
0010
0020
0033
,
1000
0001
1000
0000
0100
1000
0100
0000
,
0010
0010
0100
0110
,
2002
3003
1000
0010
,
0001
0010
2000
3002
,
1003
0000
0001
0010
,
1000
0010
0002
2003
,
3001
0000
1000
0010
,
0100
0010
0002
0023
,
1030
0000
0001
0100
,
0010
0000
0100
0000
0001
1000
0001
1000
,
0000
0100
0100
0100
,
1000
0100
0010
0000
0100
0000
1000
0000
,
0010
0110
2002
3003
,
1000
0000
0001
0100
0002
0000
0023
0000
,
0030
0001
0100
0001
,
0100
0010
1000
0000
0100
0000
1000
0000
,
1001
0000
0000
0001
0010
0000
0001
0000
,
0200
0320
2030
3001
,
1001
0000
0000
1000
0100
0000
1000
0000
,
0010
0000
0000
0100
0001
0000
0100
0000
,
0010
0000
0000
1000
0100
0000
1000
0000
,
0001
0010
0001
0000
0100
0000
0010
0000
,
1001
0000
0000
0001
0010
0001
0010
0000
,
0110
0000
0000
1000
0010
1000
0010
0000
,
1000
0001
0000
0000
0001
1000
0000
0000
,
0010
0000
0000
0100
0000
0000
0010
0000
0200
0000
0000
0000
0000
0000
0000
0000
,
0301
0001
1000
0000
,
0100
0000
1000
0000
,
0010
0010
1000
0010
,
2000
3200
0320
0032
,
0103
0000
0010
0000
,
1000
0010
0100
0001
,
1001
0000
0000
0000
0001
1000
0001
1000
,
0000
0100
1000
0000
1000
0000
0010
0100
,
0000
0100
0010
0000
0100
0000
0110
0000
,
0010
0000
1001
0000
0110
0000
1000
0001
,
1000
0100
1000
0010
,
0100
0001
0100
0000
0001
0000
0010
0000
,
0002
2003
3200
0320
,
0031
0000
1000
0001
1000
0000
0010
0000
,
2000
0000
3002
0000
0203
0000
0310
0100
,
0000
0010
1000
0000
0100
0000
0100
0000
,
1000
0001
1000
0000
0001
0000
1001
0000
,
0100
0000
0110
0000
1001
0000
0001
1000
,
0001
0000
0100
0000
0010
0000
1000
0100
,
1000
1000
0010
0100
,
0001
1001
0010
0110
,
0000
1000
0001
0000
0001
1000
0000
0000
,
0010
0100
0010
0200
0000
0300
0001
0000
,
1001
0000
0000
1000
0100
1000
0100
0000
,
1000
1010
0001
0011
,
1000
0000
1000
0010
0000
0010
0100
0000
,
2002
0000
3003
0000
,
0001
1000
0001
0000
0100
0000
0001
0000
,
0010
0001
0100
0110
,
1000
0001
1000
0000
0100
0000
1000
0000
,
0010
1000
0100
0110
,
0010
0001
0010
0000
0100
0000
1000
0000
,
0001
0100
0010
0110
,
1000
0010
1000
0000
0001
0010
0000
0001
,
0000
0100
0001
0100
0001
0000
0100
0010
,
0000
1000
0100
1000
0100
0000
0010
0200
,
0000
0000
0300
0000
;

//--------------- dance-single - forcednature x Talkion ----------------
#NOTEDATA:;
#STEPSTYPE:dance-single;
#DESCRIPTION:forcednature x Talkion;
#CREDIT:forcednature x Talkion;
#DIFFICULTY:Hard;
#METER:13;
#RADARVALUES:0,0,0,0,0;
#NOTES:
0000
0000
0000
0000
,
0000
0000
0000
0000
,
0000
0000
0000
0000
,
0000
0000
0000
0000
,
0000
0000
0000
0000
,
0000
0000
0000
0000
,
0000
0001
0100
0001
1000
0100
0000
1100
,
0000
1000
0001
0020
0000
0031
0100
0010
,
1000
1000
0001
0100
0001
0001
1000
0100
,
0010
0000
0000
0000
0110
0000
0000
0000
1000
0000
0001
1000
0001
0000
0000
0000
,
0100
0001
0000
0001
0010
0001
0000
0001
,
0100
0010
1000
0100
0010
0000
0110
0000
,
0100
1000
0000
1000
0010
1000
0000
1000
,
0100
0010
0001
0100
0010
0000
1001
0000
,
1000
0100
0000
0100
0001
0100
0000
0100
,
1000
0001
0100
0010
1000
0000
1001
0000
,
0001
0100
0000
0100
1000
0100
0000
0100
,
0001
1000
0100
0010
0001
0100
0020
0000
,
0030
1000
1000
0010
1000
0010
1000
0010
,
0100
0000
0001
0010
0100
0010
0001
1000
,
0100
0000
0110
0000
2002
0000
3003
0001
,
0000
1000
0010
1000
0100
0000
0110
0000
,
0000
0010
0001
1000
0001
0010
0001
1000
,
0100
0000
0010
0100
1000
0001
1000
0010
,
0100
0000
0001
0010
0001
1000
0010
0100
,
0001
0011
1000
1010
,
1001
0000
0001
0100
0001
0100
1000
0100
,
0001
0000
1000
0010
1000
0010
0001
0010
,
1000
0000
0001
0100
0010
0000
0010
1000
,
0000
0100
1000
0001
0100
0001
1000
0000
,
1001
0000
0001
0010
0010
0010
0001
0100
,
0010
0000
1000
0010
0010
0010
1000
0100
,
0001
0001
0000
0100
1000
1000
0000
0010
,
0100
0000
0000
0100
0000
0000
0010
0000
0220
0000
0000
0000
0330
0000
0000
0000
,
0002
0000
1000
0003
1000
0001
0000
0000
,
0100
0010
0000
0010
0000
0000
1000
0000
,
0100
1000
0100
1000
0010
0000
0100
0010
,
2000
3200
0320
0032
,
0103
0000
0000
0010
1000
0010
0000
1010
,
0000
1000
0100
1000
0001
0100
0010
0000
,
0110
0000
0001
1000
1000
0001
0001
0020
,
0000
0031
0100
1000
0100
0000
0010
1001
,
0000
1000
0100
0001
0200
0000
1300
0001
,
0010
0000
0100
0010
0100
0000
0000
0000
1001
0000
0000
0000
0001
0000
0100
0000
,
0020
0000
1030
0100
0000
1000
0010
1000
,
0001
0010
0001
0010
1000
0010
0001
1000
,
0002
0203
0320
2030
,
3100
0000
1000
0010
1000
0001
0010
0001
,
0200
0000
0320
0000
2030
0000
3001
0100
,
0000
0010
1000
0001
0010
0100
0010
0100
,
1000
0000
0001
1000
0001
0000
1000
0001
1000
0000
0010
0000
0100
0000
0001
0000
,
0010
0100
0110
0000
1001
0000
1000
0100
,
0020
0000
0031
0100
0000
0001
0010
0001
,
1000
0010
1000
0010
0001
0010
0001
0010
,
2000
3200
0320
0032
,
0003
0100
0001
1000
0100
1000
0000
1010
,
0000
0010
0100
0002
0000
0013
0100
1000
,
1001
0000
0000
0000
0001
0000
1000
0001
1000
0000
0010
0000
0010
0000
0100
0000
,
0001
0010
0100
0010
0011
0000
0101
0000
,
1000
0000
0010
1000
0010
0000
0100
0000
0001
0100
0001
0000
0200
0000
0000
0000
,
0320
0000
0030
0000
,
1000
0100
0010
0100
0001
0100
0010
0100
,
1000
0010
0100
0001
0011
0000
1100
0000
,
0001
0100
0010
0100
1000
0100
0010
0100
,
0001
0010
0100
1000
1010
0000
0101
0000
,
0001
0010
0100
0010
1000
0010
0100
0010
,
0001
1000
0010
0100
0110
0000
1001
0000
,
1000
1000
0010
0000
0001
0001
0010
1000
,
0000
0000
0100
0000
1000
0000
0100
1000
0001
0000
0100
0000
0010
0000
0110
0000
,
0000
0000
0100
0000
0001
0000
0100
0001
1000
0000
0100
0000
0010
0000
2002
0000
,
0000
0000
3003
0000
;

//--------------- dance-single - forcednature x Talkion ----------------
#NOTEDATA:;
#STEPSTYPE:dance-single;
#DESCRIPTION:forcednature x Talkion;
#CREDIT:forcednature x Talkion;
#DIFFICULTY:Challenge;
#METER:15;
#RADARVALUES:0,0,0,0,0;
#NOTES:
0000
0000
0000
0000
,
0000
0000
0000
0000
,
0000
0000
0000
0000
,
0000
0000
0000
0000
,
0000
0000
0000
0000
,
0000
0000
0000
0000
,
0000
1000
0100
0010
0100
1000
0000
2001
,
0000
3010
0100
0002
0000
0013
0001
0100
,
0010
0000
1000
0001
1000
0001
0010
0100
1000
0001
1000
0001
0200
0000
0320
0000
,
1030
0000
0000
0000
1100
0000
0000
0000
0101
0000
0001
0010
0100
0000
0000
0000
,
1000
0000
0001
0000
0100
0000
0001
0000
1000
0100
1000
0000
0001
0000
0100
0000
,
0010
0100
0001
0010
0110
0000
1001
0000
,
1000
0000
0001
0000
0100
0000
0001
0000
1000
0100
1000
0000
0001
0000
0100
0000
,
0010
0000
0100
0000
0001
0000
0010
0100
0010
0100
0000
0000
1000
0001
0100
0010
,
1000
0000
0001
0000
0010
0000
0001
0000
1000
0010
1000
0000
0001
0000
0010
0000
,
0100
0010
0001
0100
0110
0000
1001
0000
,
1000
0000
0001
0000
0010
0000
0001
0000
1000
0010
1000
0000
0001
0000
0010
0000
,
0100
0000
0010
0000
0001
0000
0100
0000
0020
0000
1030
0100
2000
0000
0010
0000
,
3001
1000
1000
0010
0100
0010
1000
0100
,
0001
0000
0100
0010
0100
0000
1000
0000
0001
0000
0010
0000
0001
0000
0100
0000
,
0210
0000
1000
0000
0320
0000
2030
0100
,
0000
3001
0100
0010
1010
0000
0011
0000
,
0010
0100
1000
0001
0010
0001
0100
0010
,
0001
0000
0010
0100
0010
0000
1000
0000
0001
0000
0100
0000
0001
0000
0010
0000
,
0110
0000
0100
1000
0001
0100
0010
1000
,
1100
0000
0000
0000
0101
0000
0000
0000
0001
0000
0010
0001
0010
0001
1000
0000
,
1010
0000
0001
1000
0100
0001
0100
0010
,
1010
0000
1000
0001
0100
1000
0100
0010
,
0011
0000
0001
2000
0100
0000
3002
0100
,
0000
1003
0001
0100
0010
0001
0010
0100
,
1100
0000
0001
0100
0001
0010
0110
0001
,
1001
0000
0000
0000
1000
0000
0010
0100
0010
0000
1000
0000
1100
0000
0001
0000
,
1001
1001
0000
0100
1001
1001
0000
0100
,
1010
0000
0000
0011
0000
0000
1100
0000
2200
0000
0000
0000
3300
0000
0000
0000
,
0100
0010
0200
0000
0301
0100
0000
0010
,
0100
1000
0000
0001
0000
0100
0010
1000
,
0001
0010
0001
0010
0100
1000
0001
0100
,
0020
2030
3200
0320
,
0031
0000
1000
0010
0100
1000
0000
0120
,
0000
1030
0001
0010
0100
0010
0001
0000
,
1001
0000
1000
0010
0010
0100
0100
0001
,
0010
0100
0010
0000
0002
0000
0100
0000
1003
0000
0010
0100
0010
0000
1000
0000
,
0000
0000
0100
0000
2000
0000
0010
0000
3001
1000
0001
0000
0010
0001
0010
0001
,
1000
0000
0010
0100
0010
0000
0002
0000
1000
0000
0000
0000
0013
0000
0100
0001
,
0100
0010
1000
1100
0000
0100
0100
1000
,
0001
0100
0001
0010
1000
0010
0100
1000
,
1010
0000
0000
0000
0011
0000
0000
0000
0001
0000
0100
0001
0100
0001
1000
0000
,
1100
0000
0000
0000
0100
0000
0010
0001
0010
0000
0100
0000
1000
0000
0010
0000
,
0110
0000
0000
0000
1001
0000
0001
0010
0001
0000
0100
0000
0010
0000
1000
0000
,
0000
0000
0100
0010
0100
0000
1000
0000
0001
0000
0100
0000
0001
0000
0010
0000
,
1000
0000
0010
0100
1000
0000
0100
0010
0001
0000
1000
0000
0010
0100
0010
1000
,
0001
0000
0010
0100
0010
0000
2000
0000
0001
0000
0000
0000
3010
0000
0100
1000
,
0100
0010
0001
0101
0000
0100
0100
0001
,
1000
0100
2000
0010
3001
0100
0001
0010
,
0110
0000
0000
0000
1001
0000
0000
0000
1000
0000
0100
1000
0100
1000
0001
0000
,
0100
0010
0100
0001
0010
0100
1000
2001
,
0000
3010
0100
0002
0000
0013
0001
0100
,
0210
0000
0000
0000
0301
0000
1000
0100
0020
0000
0001
0000
0031
0000
1000
0000
,
1010
0000
0001
0000
0011
0000
0010
0100
1000
0000
0100
0000
1002
0000
0000
0000
,
0103
0010
0100
0001
1000
0000
0100
0010
0100
1000
0001
0000
0100
0010
0100
0001
,
0020
0000
0000
0000
0000
0000
0000
0000
0031
1000
0100
1000
0001
0000
0100
0010
,
1000
0000
0001
0000
0010
0000
0001
0000
0100
0010
0100
0000
0001
0000
0010
0000
,
0100
0001
0100
0000
0010
0000
0001
0000
0101
0000
0000
0000
1100
0000
0000
0000
,
1000
0000
0001
0000
0010
0000
0100
1000
0100
0000
0010
0000
0001
0000
0100
0010
,
0100
0000
0001
0000
1000
0000
0100
0010
0100
0010
0000
0000
0001
1000
0010
0100
,
0001
0000
1000
0000
0010
0000
1000
0000
0100
0010
0100
0000
1000
0000
0010
0000
,
0100
1000
0100
0000
0010
0000
1000
0000
1100
0000
0000
0000
0101
0000
0000
0000
,
1010
1010
0001
0000
0011
0011
1000
0010
,
0000
0000
0100
0010
0100
0000
0001
0000
1000
0100
0010
0100
1000
0000
1001
0000
,
0000
0000
0101
0000
1100
0000
0100
0010
0001
0000
0100
0010
1000
0000
2002
0000
,
0000
0000
3003
0000
;

//--------------- dance-double - forcednature x Talkion ----------------
#NOTEDATA:;
#STEPSTYPE:dance-double;
#DESCRIPTION:forcednature x Talkion;
#CREDIT:forcednature x Talkion;
#DIFFICULTY:Easy;
#METER:5;
#RADARVALUES:0,0,0,0,0;
#NOTES:
00000000
00000000
00000000
00000000
,
00000000
00000000
00000000
00000000
,
00000000
00000000
00000000
00000000
,
00000000
00000000
00000000
00000000
,
00000000
00000000
00000000
00000000
,
00000000
00000000
00000000
00000000
,
00011000
00000000
00010000
00000000
,
00001000
00010000
00001000
00000000
,
00100000
00100000
00010000
00000000
,
01000000
00010000
01000000
00000000
,
10010000
00000000
00000000
00000000
,
10000000
01000000
00100000
00010000
,
01000000
00000000
00000000
00000000
,
00010000
00100000
00001000
00010000
,
00000100
00000000
00000000
00000000
,
00001000
00000001
00000100
00000010
,
00001000
00000000
00000000
00000000
,
00000100
00000010
00000001
00000100
,
00000010
00000000
00000010
00000010
,
00000010
00000000
00001000
00000000
,
00001001
00000000
00000000
00000000
,
00000001
00001000
00000100
00000000
,
00010000
00000000
00010000
00010000
,
00010000
00000000
00001000
00000000
,
00011000
00000000
00000000
00000000
,
00100000
00010000
10000000
00010000
,
20000000
00000000
30000000
01000000
,
02000000
00000000
03000000
00100000
,
00200000
00000000
00300000
00010000
,
01000000
00000000
00001000
00000000
,
00011000
00000000
00000100
00000100
,
00001000
00000000
00000010
00000010
,
00001000
00000000
00000100
00000000
,
00000020
00000000
00000030
00000000
,
00022000
00000000
00000000
00000000
,
00000000
00000000
00000000
00000000
,
00000000
00000000
00000000
00000000
,
00000000
00000000
00033000
00000000
,
00100000
00000000
00100000
00010000
,
00000000
01000000
00010000
01000000
,
00100000
00000000
10000000
10000000
,
01000000
00100000
01000000
00000000
,
00100000
00001000
00010000
00000000
,
00011000
00000000
00000100
00001000
,
00000010
00000000
00000100
00000000
,
00000001
00000010
00000001
00000000
,
00001000
00000010
00000100
00000001
,
00000010
00000000
00000100
00000100
,
00001000
00000100
00010000
00000000
,
00001000
00010000
00001000
00100000
,
00010000
00010000
10000000
00000000
,
01000000
00000000
10010000
00000000
,
00010000
10000000
00100000
00000000
,
01000000
00100000
01000000
00000000
,
00010000
00100000
00001000
00010000
,
00000100
00000000
00010000
00001000
,
00010000
00000000
00000010
00001000
,
00000002
00000003
00002000
00003000
,
00000100
00000100
00010000
00001000
,
00100000
00100000
00010000
01000000
,
00200000
00000000
00300000
00000000
,
10000000
00000000
10000000
01000000
,
00000000
10000000
00010000
00100000
,
00010000
00000000
00010000
01000000
,
00000000
00001000
00010000
00000100
,
00010000
00000000
00000100
00001000
,
00000000
00001000
00000010
00000100
,
00000001
00000000
00000001
00001000
,
00000000
00001000
00000100
00010000
,
00000000
00001000
01000000
00020000
,
00000000
00000000
00030000
00000000
;

//--------------- dance-double - forcednature x Talkion ----------------
#NOTEDATA:;
#STEPSTYPE:dance-double;
#DESCRIPTION:forcednature x Talkion;
#CREDIT:forcednature x Talkion;
#DIFFICULTY:Medium;
#METER:9;
#RADARVALUES:0,0,0,0,0;
#NOTES:
00000000
00000000
00000000
00000000
,
00000000
00000000
00000000
00000000
,
00000000
00000000
00000000
00000000
,
00000000
00000000
00000000
00000000
,
00000000
00000000
00000000
00000000
,
00000000
00000000
00000000
00000000
,
00011000
00000000
00000000
00001000
00010000
00000000
00000010
00000000
,
00002000
00000010
00000020
00003030
,
00000001
00001000
00000001
00000000
00000100
00000001
00000100
00000000
,
00001000
00010000
00011000
00100000
,
00220000
00330000
10000000
01000000
,
10000000
00010000
00200000
00302000
,
00013000
00000000
00000010
00001000
,
00000010
00000100
00000002
00002003
,
00003010
00000000
00001000
00000100
,
00010000
00001000
00200000
00320000
,
10030000
00000000
00100000
01000000
,
00010000
00000000
00100000
00000000
00001000
00010000
00001000
00010000
,
00000000
00000100
00000100
00000100
,
00001000
00000100
00010000
00000000
00001000
00000000
00100000
00000000
,
00010000
01000000
20020000
30030000
,
10000000
00000000
00100000
01000000
00200000
00000000
20300000
00000000
,
30000000
00010000
01000000
00010000
,
01000000
00100000
10000000
00000000
01000000
00000000
00010000
00000000
,
00001000
00000000
00000000
00001000
00010000
00000000
00000100
00000000
,
00002000
00003020
00000230
00000301
,
00001001
00000000
00000000
00001000
00000100
00000000
00000100
00000000
,
00010000
00000000
00000000
00001000
00100000
00000000
00100000
00000000
,
00010000
00000000
00000000
01000000
00100000
00000000
00100000
00000000
,
10000000
00100000
10000000
00000000
00010000
00000000
01000000
00000000
,
10010000
00000000
00000000
00010000
00100000
00010000
00100000
00000000
,
00110000
00000000
00000000
00001000
00010000
00001000
00010000
00000000
,
00000100
00001000
00000000
00000000
00001000
00000100
00000000
00000000
,
00001000
00000000
00000000
00000001
00000000
00000000
00001000
00000000
00000002
00000000
00000000
00000000
00000000
00000000
00000000
00000000
,
00000103
00000100
00000010
00000000
,
00000100
00000000
00001000
00000000
,
00010000
00010000
00001000
00010000
,
00002000
00203000
00320000
02030000
,
03100000
00000000
10000000
00000000
,
00100000
01000000
00010000
00100000
,
00011000
00000000
00000000
00000000
00001000
00010000
00001000
00010000
,
00000000
00000100
00001000
00000000
00001000
00000000
00000010
00000100
,
00000000
00000100
00000010
00000000
00001000
00000000
00000001
00000000
,
00000010
00000000
00000110
00000000
00001001
00000000
00000001
00001000
,
00000001
00000010
00000100
00001000
,
00000010
00001000
00000010
00000000
00010000
00000000
00001000
00000000
,
00200000
00320000
02030000
03200000
,
10300000
00000000
01000000
10000000
01000000
00000000
00100000
00000000
,
00002000
00000000
00023000
00000000
00030200
00000000
00001300
00000100
,
00000000
00001000
00000010
00000000
00000100
00000000
00000100
00000000
,
00000001
00001000
00000001
00000000
00000010
00000000
00000110
00000000
,
00001000
00000000
00011000
00000000
00011000
00000000
00010000
00001000
,
00100000
00000000
00010000
00000000
00100000
00000000
00010000
01000000
,
00010000
01000000
00100000
10000000
,
01000000
01100000
00100000
10010000
,
00000000
00010000
00100000
00000000
00100000
00001000
00000000
00000000
,
00010000
00001000
00010000
00002000
00000000
00003000
00010000
00000000
,
00011000
00000000
00000000
00000100
00001000
00000100
00001000
00000000
,
00000010
00000110
00000001
00000101
,
00001000
00000000
00001000
00000010
00000000
00000010
00010000
00000000
,
00022000
00000000
00033000
00000000
,
01000000
00010000
01000000
00000000
00100000
00000000
10000000
00000000
,
01000000
00100000
00010000
00110000
,
00001000
00010000
00001000
00000000
00010000
00000000
00000100
00000000
,
00001000
00000010
00000100
00000110
,
00000001
00000100
00000001
00000000
00000010
00000000
00000100
00000000
,
00010000
00001000
00100000
00110000
,
10000000
01000000
10000000
00000000
00010000
01000000
00000000
00010000
,
00000000
00100000
00010000
00100000
00001000
00000000
00001000
00010000
,
00000000
00000100
00001000
00000100
00001000
00000000
00000001
00000200
,
00000000
00000000
00000300
00000000
;

//--------------- dance-double - forcednature x Talkion ----------------
#NOTEDATA:;
#STEPSTYPE:dance-double;
#DESCRIPTION:forcednature x Talkion;
#CREDIT:forcednature x Talkion;
#DIFFICULTY:Hard;
#METER:13;
#RADARVALUES:0,0,0,0,0;
#NOTES:
00000000
00000000
00000000
00000000
,
00000000
00000000
00000000
00000000
,
00000000
00000000
00000000
00000000
,
00000000
00000000
00000000
00000000
,
00000000
00000000
00000000
00000000
,
00000000
00000000
00000000
00000000
,
00000000
00001000
00010000
00001000
01000000
00010000
00000000
00100000
,
00000000
01000000
10000000
00020000
00000000
01030000
00100000
10000000
,
01000000
00100000
01000000
00100000
00001000
00010000
00001000
00010000
,
00000100
00000000
00000110
00000000
00000010
00000001
00001000
00000000
,
00000001
00000100
00000000
00001000
00000000
00010000
00000000
01000000
,
00000000
10000000
00100000
01000000
00010000
00000000
10010000
00000000
,
10000000
01000000
00000000
00010000
00000000
00001000
00000000
00000100
,
00000000
00000001
00000010
00000100
00001000
00000000
00000110
00000000
,
00000001
00000010
00000000
00001000
00000000
00010000
00000000
00100000
,
00000000
10000000
01000000
00100000
00010000
00000000
10010000
00000000
,
10000000
00100000
00000000
00010000
00000000
00001000
00000000
00000010
,
00000000
00000001
00000100
00000010
00001000
00000100
00000020
00000000
,
00000030
00000001
00000001
00000100
00000001
00000100
00000001
00000100
,
00001000
00000000
00010000
00001000
00010000
00000000
00100000
01000000
,
00010000
00000000
01010000
00000000
20200000
00000000
30300000
00010000
,
00000000
00100000
00010000
10000000
01000000
00000000
01100000
00000000
,
00000000
00100000
01000000
10000000
01000000
00100000
01000000
10000000
,
00010000
00000000
00100000
01000000
00010000
00000000
00001000
00010000
,
00001000
00000000
00000010
00000100
00001000
00000001
00001000
00000010
,
00000200
00002300
00023000
00230000
,
01300000
00000000
00100000
10000000
00100000
10000000
01000000
00010000
,
00001000
00000000
00000010
00000001
00000010
00000001
00000100
00001000
,
00010000
00000000
00100000
10000000
01000000
00000000
00010000
01000000
,
00000000
10000000
00010000
00100000
00001000
00010000
00000100
00001000
,
00000001
00000000
00000000
00000100
00000100
00000100
00000001
00000010
,
00000100
00000000
00000000
00010000
00010000
00010000
00001000
00100000
,
00010000
01000000
00000000
10000000
01000000
00010000
00000000
01000000
,
00100000
00000000
00000000
00100000
00000000
00000000
10000000
00000000
00020000
00000000
00000000
00000000
00030000
00000000
00000000
00000000
,
00200000
00000000
00010000
00300000
00010000
01000000
00000000
00000000
,
00001000
00010000
00000000
00010000
00000000
00000000
00000010
00000000
,
00001000
00000100
00001000
00000100
00000010
00000000
00001000
00000010
,
00000002
00000203
00002300
00023000
,
00130000
00000000
00000000
00100000
10000000
00100000
00000000
10010000
,
00000000
10000000
01000000
10000000
00010000
00100000
01000000
00000000
,
01100000
00000000
00100000
00001000
00001000
00010000
00010000
00000200
,
00000000
00000310
00000100
00001000
00000010
00000000
00010000
00011000
,
00000000
00100000
00010000
01000000
00200000
00000000
10300000
00010000
,
01000000
00000000
00100000
01000000
00100000
00000000
00000000
00000000
10010000
00000000
00000000
00000000
10000000
00000000
01000000
00000000
,
00020000
00000000
00031000
00010000
00000000
00001000
00000010
00000100
,
00000010
00000001
00000100
00000001
00000010
00001000
00000010
00000001
,
00000200
00002300
00023000
02030000
,
03100000
00000000
01000000
10000000
00100000
10000000
01000000
10000000
,
00200000
00000000
00320000
00000000
00032000
00000000
00013000
00000100
,
00000000
00010000
00000010
00001000
00000100
00010000
00001000
00010000
,
00000100
00000000
00001000
00000100
00001000
00000000
00000100
00001000
00000002
00000000
00000000
00000000
00000103
00000000
00000010
00000000
,
00001000
00000100
00001100
00000000
00011000
00000000
00100000
00010000
,
02000000
00000000
03100000
10000000
00000000
01000000
00100000
01000000
,
10000000
00100000
10000000
00100000
00010000
00001000
00010000
00001000
,
00000200
00000302
00000023
00002030
,
00003000
00000010
00000001
00000100
00000001
00000010
00000000
00000110
,
00000000
00000100
00010000
00002000
00000000
00103000
00010000
01000000
,
10010000
00000000
00000000
00000000
10000000
00000000
00010000
10000000
00010000
00000000
00100000
00000000
00100000
00000000
01000000
00000000
,
10000000
01000000
00010000
00001000
00010000
00000000
00011000
00000000
,
00001000
00000000
00000010
00000000
00000001
00000000
00000100
00000000
00000001
00001000
00000001
00000000
00002000
00000000
00000000
00000000
,
00003200
00000000
00000300
00000000
,
00000010
00000001
00000000
00000100
00001000
00010000
00000000
01000000
,
00000000
10000000
00100000
01000000
00010000
00000000
01010000
00000000
,
00100000
10000000
00000000
01000000
00010000
00001000
00000000
00000100
,
00000000
00000001
00000010
00000100
00001100
00000000
00001010
00000000
,
00000100
00000001
00000000
00000010
00001000
00010000
00000000
00100000
,
00000000
10000000
01000000
00100000
00010000
00000000
01010000
00000000
,
10000000
01000000
00010000
00000000
00001000
00000100
00000001
00000010
,
00000000
00000000
00000001
00000000
00000100
00000000
00000010
00000100
00000010
00000000
00001000
00000000
00000100
00000000
00010000
00000000
,
00000000
00000000
00001000
00000000
01000000
00000000
00010000
01000000
00010000
00000000
10000000
00000000
01000000
00000000
00020000
00000000
,
00000000
00000000
00030000
00000000
;

//--------------- dance-double - forcednature x Talkion ----------------
#NOTEDATA:;
#STEPSTYPE:dance-double;
#DESCRIPTION:forcednature x Talkion;
#CREDIT:forcednature x Talkion;
#DIFFICULTY:Challenge;
#METER:15;
#RADARVALUES:0,0,0,0,0;
#NOTES:
00000000
00000000
00000000
00000000
,
00000000
00000000
00000000
00000000
,
00000000
00000000
00000000
00000000
,
00000000
00000000
00000000
00000000
,
00000000
00000000
00000000
00000000
,
00000000
00000000
00000000
00000000
,
00000000
00010000
00001000
00000100
00000010
00000100
00000000
00000102
,
00000000
00000013
00000100
00002000
00000000
00003010
00010000
00001000
,
00100000
00000000
00010000
00100000
00010000
00100000
00010000
00100000
01000000
10000000
01000000
10000000
00020000
00000000
02030000
00000000
,
03100000
00000000
00000000
00000000
01100000
00000000
00000000
00000000
01000000
00000000
00000000
00001000
00010000
00000000
00000000
00000000
,
00000010
00010000
00001000
00000100
00000010
00000100
00001000
00010000
,
00000010
00000100
00000001
00000010
00001000
00000000
00011000
00000000
,
00100000
00001000
00010000
01000000
00100000
01000000
00010000
00001000
,
00100000
00000000
01000000
00000000
10000000
00000000
00100000
00000000
00010000
00000000
00000000
00000000
00001000
00010000
00001000
00010000
,
00001000
00000100
00000010
00000100
00001000
00010000
00001000
01000000
,
00100000
00010000
00001000
00010000
01000000
00000000
01100000
00000000
,
00100000
01000000
00010000
00001000
00000010
00000100
00000010
00001000
,
00010000
00000000
01000000
00000000
00100000
00000000
01000000
00000000
20000000
00000000
30010000
00100000
00020000
00000000
01000000
00000000
,
00030000
10000000
10000000
00100000
01000000
00100000
10000000
00100000
,
00010000
00000000
00001000
00010000
00001000
00000000
00000100
00000000
00000010
00000000
00000100
00000000
00000001
00000000
00000010
00000000
,
00001001
00000000
00020100
00000000
00000010
00000000
00031000
02000000
,
00000000
03100000
01000000
00010000
00101000
00000000
00010100
00000000
,
00000000
00000001
00000001
00000010
00000100
00000010
00000001
00000010
,
00001000
00000000
00010000
00001000
00010000
00000000
01000000
00000000
00100000
00000000
01000000
00000000
10000000
00000000
00100000
00000000
,
10010000
00000000
10000000
01000000
00010000
00001000
00000100
00000001
,
00000010
00000000
00000000
00000000
00000101
00000000
00000000
00000000
00000100
00000000
00000010
00001000
00000010
00001000
00000100
00000000
,
00001100
00000000
00010000
00001000
00000010
00000100
00001000
00000001
,
00000100
00000000
00001000
00010000
00100000
01000000
00010000
10000000
,
01000000
00000000
00010000
00002000
00100000
00000000
00023000
00000010
,
00000000
00031000
00010000
00001000
00100000
00010000
01000000
00100000
,
10100000
00000000
10000000
01000000
00010000
00001000
00000100
00000001
,
00000011
00000000
00000001
00000100
00001000
00010000
01000000
10000000
,
10100000
10100000
00000000
01000000
00110000
00110000
00000000
00001000
,
00011000
00000000
00000000
00011000
00000000
00000000
00000100
00000000
00002020
00000000
00000000
00000000
00003030
00000000
00000000
00000000
,
00000001
00000100
00000002
00000000
00000013
00000001
00000000
00000100
,
00000010
00001000
00000000
00010000
00000000
01000000
00100000
10000000
,
00010000
00100000
00010000
00100000
01000000
10000000
01000000
00010000
,
00002000
00003020
00000032
00000203
,
00001300
00000000
00010000
00001000
00010000
01000000
00000000
01200000
,
00000000
00310000
10000000
00100000
01000000
00010000
00100000
00000000
,
10010000
00000000
10000000
01000000
00010000
00001000
00000100
00000001
,
00000010
00000001
00000010
00000000
00000200
00000000
00001000
00000000
00010300
00000000
00001000
00010000
00001000
00000000
00100000
00000000
,
00000000
00000000
00010000
00000000
20000000
00000000
01000000
00000000
30010000
10000000
00010000
00000000
10000000
00100000
10000000
00100000
,
10000000
00000000
00100000
00000000
00020000
00000000
00000000
00000000
00030010
00000000
00010000
00000000
00001000
00000000
00000010
00000100
,
00000010
00000001
00001000
00001100
00000000
00000001
00000001
00000100
,
00001000
00010000
00100000
01000000
00100000
00010000
00001000
00000100
,
00000110
00000000
00000000
00000000
00010010
00000000
00000000
00000000
00010000
00000000
00001000
00010000
00001000
00010000
00000100
00000000
,
00001100
00000000
00000000
00000000
00010000
00000000
00001000
00100000
00010000
00000000
01000000
00000000
00100000
00000000
01000000
00000000
,
10010000
00000000
00000000
00000000
00110000
00000000
00010000
00100000
00001000
00000000
00010000
00000000
00000100
00000000
00001000
00000000
,
00000000
00000000
00000010
00001000
00000010
00000000
00000100
00000000
00001000
00000000
00000100
00000000
00000001
00000000
00000100
00000000
,
00000010
00000000
00001000
00000010
00010000
00000000
00001000
00010000
00001000
00000000
00000010
00000000
00000100
00000000
00000010
00000000
,
00000001
00000000
00000100
00000000
00002000
00000000
00000000
00000000
01003000
00000000
00001000
00000000
00010000
00000000
00100000
01000000
,
00100000
10000000
00010000
01010000
00000000
10000000
10000000
01000000
,
00010000
00001000
00000010
00000100
00000010
00001000
00010000
01000000
,
01100000
00000000
00000000
00000000
10010000
00000000
00000000
00000000
00010000
00000000
00100000
00010000
00100000
00010000
10000000
00000000
,
01000000
00100000
01000000
00010000
00001000
00000100
00000010
00000210
,
00000000
00000301
00000010
00000200
00000000
00010300
00001000
00100000
,
00120000
00000000
00000000
00000000
01030000
00000000
00010000
10000000
00200000
00000000
01000000
00000000
01300000
00000000
00010000
00000000
,
00110000
00000000
00001000
00000000
00011000
00000000
00000100
00001000
00000100
00000000
00010000
00000000
00001020
00000000
00000000
00000000
,
00000130
00000001
00000010
00000000
00000100
00000000
00001000
00000010
00010000
00000000
00001000
00000000
01000000
00010000
01000000
00010000
,
00200000
00000000
00000000
00000000
00000000
00000000
00000000
00000000
01300000
10000000
01000000
10000000
00010000
00000000
10000000
01000000
,
00100000
00000000
00010000
00000000
01000000
00000000
00100000
00000000
00010000
00001000
00010000
00000000
00001000
00000000
00000100
00000000
,
00000010
00000100
00001000
00000000
00010000
00000000
00001000
00000000
00011000
00000000
00000000
00000000
00010010
00000000
00000000
00000000
,
00000010
00000000
00001000
00000000
00000100
00000000
00000010
00001000
00000010
00000000
00000100
00000000
00010000
00000000
00001000
00010000
,
00001000
00000000
00100000
00000000
00010000
00000000
01000000
00100000
01000000
00100000
00000000
00000000
10000000
01000000
00100000
00010000
,
01000000
00000000
00100000
00000000
00010000
00000000
00001000
00000000
01000000
00001000
00010000
00000000
00001000
00000000
00000100
00000000
,
00000010
00000100
00001000
00000000
00000100
00000000
00000001
00000000
00000101
00000000
00000000
00000000
00000011
00000000
00000000
00000000
,
00000110
00000110
00001000
00000000
00011000
00011000
00100000
00110000
,
00000000
00000000
00010000
01000000
00010000
00000000
10000000
00000000
00010000
01000000
00010000
10000000
00100000
00000000
01100000
00000000
,
00000000
00000000
01010000
00000000
00110000
00000000
00100000
00001000
00010000
00000000
00000010
00010000
00001000
00000000
00022000
00000000
,
00000000
00000000
00033000
00000000
;
