#VERSION:0.83;
#TITLE:強風オールバック;
#SUBTITLE:;
#ARTIST:ゆこぴ;
#TITLETRANSLIT:Kyoufuu all back;
#SUBTITLETRANSLIT:;
#ARTISTTRANSLIT:Yukopi;
#GENRE:;
#CREDIT:video/audio extraordiberry;
#MUSIC:Kyoufuu all back.ogg;
#BANNER:Kyoufuu all back.png;
#BACKGROUND:Kyoufuu all back-bg.png;
#CDTITLE:;
#SAMPLESTART:58.626;
#SAMPLELENGTH:15.000;
#SELECTABLE:YES;
#OFFSET:0.005;
#BPMS:0.000=135.000;
#STOPS:170.000=0.444;
#TIMESIGNATURES:0.000=4=4,
168.000=3=4,
171.000=4=4
;
#BGCHANGES:2.900=Kyoufuu all back.mp4=1.000=0=0=0=StretchNoLoop====,
99999.000=-nosongbg-=1.000=0=0=0=StretchNoLoop====
;
#FGCHANGES:;

//--------------- dance-single - forcednature ----------------
#NOTEDATA:;
#STEPSTYPE:dance-single;
#DESCRIPTION:forcednature;
#DIFFICULTY:Beginner;
#METER:1;
#RADARVALUES:0,0,0,0,0;
#CREDIT:forcednature;
#NOTES:
0000
0000
0000
0000
,
0000
0000
0000
0000
,
0000
0000
0000
0000
,
0000
0000
0000
0000
,
0000
0000
0000
0000
,
1000
0000
0000
0000
,
0000
0000
0000
0000
,
0000
0000
0000
0000
,
0000
0000
0000
0000
,
0100
0000
0000
0000
,
0000
0000
0000
0000
,
0010
0000
0000
0000
,
0000
0000
0000
0000
,
0010
0000
0000
0000
,
0000
0000
0000
0000
,
0100
0000
0000
0000
,
0000
0000
0000
0000
,
1000
0000
0000
0000
,
0000
0000
0000
0000
,
0000
0000
0000
0000
,
0000
0000
0000
0000
,
0001
0000
0000
0000
,
0000
0000
0000
0000
,
0000
0000
0000
0000
,
0000
0000
0000
0000
,
0100
0000
0000
0000
,
0000
0000
0000
0000
,
0000
0000
0000
0000
,
0000
0000
0000
0000
,
0010
0000
0000
0000
,
0000
0000
0000
0000
,
0000
0000
0000
0000
,
0000
0000
0000
0000
,
1000
0000
0000
0000
,
0000
0000
0000
0000
,
0000
0000
0000
0000
,
0000
0000
0000
0000
,
0001
0000
0000
0000
,
0000
0000
0000
0000
,
0000
0000
0000
0000
,
0000
0000
0000
0000
,
0010
0000
0000
0000
,
0000
0000
0000
0000
,
0000
0000
0000
0000
,
0000
0000
0000
0100
,
0000
0000
0000
0000
,
0000
0000
0000
0000
,
0000
0000
0000
0000
,
0000
0000
0000
1000
,
0000
0000
0000
0000
,
0000
0000
0001
0000
;

//--------------- dance-single - forcednature ----------------
#NOTEDATA:;
#STEPSTYPE:dance-single;
#DESCRIPTION:forcednature;
#DIFFICULTY:Easy;
#METER:3;
#RADARVALUES:0,0,0,0,0;
#CREDIT:forcednature;
#NOTES:
0000
0000
0000
0000
,
0000
0000
0000
0000
,
0000
0000
0000
0000
,
0000
0000
0000
0000
,
0000
0000
0000
0000
,
0001
0000
0000
0000
,
1000
0000
0000
0000
,
0010
0000
0010
0000
,
0010
0000
0000
0000
,
1001
0000
0000
0000
,
0000
0000
1000
0000
,
1001
0000
0000
0000
,
0000
0000
0100
0000
,
1001
0000
0000
0000
,
0000
0000
0010
0000
,
1001
0000
0000
0000
,
0001
0001
0001
0000
,
0100
0000
0000
0000
,
0010
0000
0000
0000
,
1000
0000
0000
0000
,
0100
0000
0000
0000
,
0010
0000
0000
0000
,
0001
0000
0000
0000
,
0100
0000
0000
0000
,
0001
0000
0000
0000
,
1000
0000
1000
0000
,
0010
0000
0000
0000
,
0100
0000
0100
0000
,
0001
0000
0000
0000
,
0010
0000
0010
0000
,
0100
0000
0000
0000
,
1000
1000
1000
0000
,
0001
0001
0001
0000
,
0100
0000
0010
0000
,
1000
0000
0000
0000
,
0100
0000
0010
0000
,
0001
0000
0000
0000
,
1000
0000
0010
0000
,
0100
0000
0000
0000
,
0001
0000
0001
0000
,
0010
0000
0000
0000
,
0100
0100
0100
0000
,
1000
0000
0001
0000
,
0000
0100
0000
0001
,
0000
0100
0000
0000
,
0000
0010
0000
1000
,
0000
0010
0000
0000
,
0000
1000
0000
0100
,
0000
1000
0000
0000
,
0000
0001
0000
0010
,
0000
0000
1001
0000
;

//--------------- dance-single - forcednature ----------------
#NOTEDATA:;
#STEPSTYPE:dance-single;
#DESCRIPTION:forcednature;
#DIFFICULTY:Medium;
#METER:6;
#RADARVALUES:0,0,0,0,0;
#CREDIT:forcednature;
#NOTES:
0000
0000
0000
0000
,
0000
0000
0000
0000
,
0000
0000
0000
0000
,
0000
0000
0000
0000
,
0000
0000
0000
0000
,
1000
1000
0001
0001
,
0100
0000
0010
0000
0000
0100
0100
0000
,
0001
1000
0001
1000
,
0010
0100
0110
0000
,
0001
0000
1000
0100
,
0010
0100
1000
0100
,
0110
0000
0001
0100
,
0010
0100
0001
0100
,
0110
0000
1000
0001
,
0010
0001
1000
0001
,
1001
0000
0001
1000
,
0010
0100
0001
0000
,
1001
0000
1000
0000
,
0100
0100
1000
0000
,
0000
0000
0010
0000
,
0100
0100
0001
0000
,
0010
0010
0001
0000
,
0100
0100
0010
0000
,
0000
0000
0000
1000
,
0100
0010
0001
0000
,
1001
0000
1000
0000
,
0010
0100
0001
0000
,
0010
0000
0001
0000
,
1000
0010
0100
0000
,
0001
0001
0010
0000
,
0100
1000
0001
0000
,
0100
0100
0100
0100
,
0010
1000
0002
0003
,
1000
0100
1000
0010
,
0100
0000
0001
0000
0000
0010
0010
0000
,
0001
0100
0010
1000
,
0100
1000
0001
0000
,
0100
0010
1000
0001
,
0010
0000
0100
0000
0000
1000
1000
0000
,
0010
0100
0001
0100
,
0010
1000
0001
0000
,
1001
1001
1001
0000
,
0010
0000
0000
0000
0010
0000
0000
0000
0200
0300
0000
0000
1001
0000
0000
0000
,
0000
1000
0100
0010
,
0100
1000
0100
1001
,
0000
0001
0100
0010
,
0100
0001
0100
1001
,
0000
1000
0010
0100
,
0010
1000
0010
1001
,
0000
0001
0010
0100
,
1000
0010
1001
0000
;

//--------------- dance-single - forcednature assist by extraordiberry ----------------
#NOTEDATA:;
#STEPSTYPE:dance-single;
#DESCRIPTION:forcednature assist by extraordiberry;
#DIFFICULTY:Hard;
#METER:11;
#RADARVALUES:0,0,0,0,0;
#CREDIT:forcednature assist by extraordiberry;
#NOTES:
0000
0000
0000
0000
,
0000
0000
0000
0000
,
0000
0000
0000
0000
,
0000
0000
0000
0000
,
0000
0000
0000
0000
,
1100
0000
0001
0010
0100
1000
0001
0000
,
0100
0010
1000
0001
0200
0010
0310
0000
,
1000
0000
0000
0100
0010
0000
0000
0100
1000
0000
0001
0000
0010
0000
0001
0000
,
0100
0000
0000
0100
0010
0000
1000
0000
0001
0000
0010
0000
0010
0000
0000
0000
,
1001
0000
1000
0010
1000
0100
0002
0000
,
0103
1000
0002
0000
1003
0100
0001
0100
,
1000
0000
0001
0100
0001
0010
2000
0000
,
3010
0001
2000
0000
3001
0010
1000
0010
,
0001
0000
1000
0100
1000
0010
0002
0000
,
0013
1000
0002
0000
1003
0010
0001
0010
,
1000
0000
0001
0010
0001
0100
2000
0000
,
3100
0000
0001
0000
1000
0000
0010
0000
0100
0000
0000
0001
1000
0000
0000
0000
,
1100
0000
0000
0001
0101
0000
0000
1000
,
0010
0100
0001
0010
0011
0000
1000
0000
,
0000
0000
1000
0000
0101
0000
0000
0010
,
1000
0001
0100
0010
1001
0000
0100
0000
,
0110
0000
1010
1000
0100
0000
1100
0000
,
0001
0010
0100
1000
0010
0000
0110
0000
,
0001
0101
0001
0110
,
1000
0000
1000
0000
0010
0000
0100
0000
0001
0000
0010
0001
0000
0001
0000
0000
,
1000
0000
0000
0100
0010
0000
0000
0000
0100
0000
1000
0000
0010
0000
0000
0000
,
0100
0001
0010
0001
1000
0000
1100
0000
,
0001
0000
0000
0100
0010
0000
0000
0000
0100
0000
0001
0000
0010
0000
0000
0000
,
0100
1000
0010
1000
0001
0000
0010
0000
,
0110
0000
0000
1000
0001
0000
0100
0000
0010
0000
1000
0000
0001
0000
0000
0000
,
0010
0100
1000
0010
0110
0000
1000
0000
,
0001
0010
1000
0010
0001
0010
1000
0010
,
0001
0000
0000
0100
0010
0000
1000
0000
0200
0000
0000
0000
0310
0000
0000
0000
,
1001
0000
0000
1000
0100
0000
0000
0010
0100
0000
1000
0000
0001
0000
0000
0000
,
0100
0010
1000
0001
0020
0100
0130
0000
,
0001
0000
0000
0100
0010
0000
1000
0000
0100
0000
0000
0000
1000
0000
0010
0000
,
0001
0010
1000
0001
0100
0000
0110
0000
,
1001
0000
1000
0010
0100
0001
0010
0000
,
0001
0100
1000
0100
0002
0010
0013
0000
,
1000
0000
0000
0010
0001
0000
0000
0010
1000
0000
0010
0000
0100
0000
0001
0000
,
0011
0000
0000
1000
0100
0000
1000
0000
0010
0000
0100
0000
0100
0000
0000
0000
,
0001
0000
0000
0001
0010
0000
0000
0010
0100
0000
1000
0000
0020
0000
0000
0000
,
0130
0000
0000
0001
1000
0000
0100
0000
0020
0030
0000
0000
1001
0000
0000
0000
,
1000
0010
1000
0100
0002
0000
1003
0010
,
0002
0000
1003
0100
0001
0100
1001
0000
,
0001
0010
0001
0100
2000
0000
3001
0010
,
2000
0000
3001
0100
1000
0100
1001
0000
,
1000
0100
1000
0010
0002
0000
1003
0100
,
0002
0000
1003
0010
0001
0010
1001
0000
,
0001
0100
0001
0010
2000
0000
3001
0100
,
1000
0010
0001
0000
0110
0000
0000
0000
;

//--------------- dance-double - forcednature ----------------
#NOTEDATA:;
#STEPSTYPE:dance-double;
#DESCRIPTION:forcednature;
#DIFFICULTY:Easy;
#METER:3;
#RADARVALUES:0,0,0,0,0;
#CREDIT:forcednature;
#NOTES:
00000000
00000000
00000000
00000000
,
00000000
00000000
00000000
00000000
,
00000000
00000000
00000000
00000000
,
00000000
00000000
00000000
00000000
,
00000000
00000000
00000000
00000000
,
00010000
00000000
00000000
00000000
,
00001000
00000000
00000000
00000000
,
00100000
00000000
00100000
00000000
,
01000000
00000000
00000000
00000000
,
10000000
00000000
00000000
00000000
,
00000000
00000000
00010000
00000000
,
01000000
00000000
00000000
00000000
,
00000000
00000000
00001000
00000000
,
00010000
00000000
00000000
00000000
,
00000000
00000000
00000010
00000000
,
00001000
00000000
00000000
00000000
,
00000001
00000001
00000001
00000000
,
00000100
00000000
00000000
00000000
,
00000001
00000000
00000000
00000000
,
00000010
00000000
00000000
00000000
,
00000100
00000000
00000000
00000000
,
00010000
00000000
00000000
00000000
,
00001000
00000000
00000000
00000000
,
00100000
00000000
00000000
00000000
,
00010000
00000000
00000000
00000000
,
10000000
00000000
10000000
00000000
,
00100000
00000000
00000000
00000000
,
01000000
00000000
01000000
00000000
,
00010000
00000000
00000000
00000000
,
00100000
00000000
00100000
00000000
,
00001000
00000000
00000000
00000000
,
00010000
00010000
00010000
00000000
,
00000100
00000000
00001000
00000000
,
00000010
00000000
00000100
00000000
,
00000001
00000000
00000000
00000000
,
00000010
00000000
00000100
00000000
,
00001000
00000000
00000000
00000000
,
00000100
00000000
00010000
00000000
,
00001000
00000000
00000000
00000000
,
00100000
00000000
00100000
00000000
,
00010000
00000000
00000000
00000000
,
01000000
01000000
01000000
00000000
,
00100000
00000000
00000000
00000000
,
00000000
10000000
00000000
00010000
,
00000000
00100000
00000000
00000000
,
00000000
00001000
00000000
00010000
,
00000000
00000100
00000000
00000000
,
00000000
00001000
00000000
00000010
,
00000000
00000100
00000000
00000000
,
00000000
00000001
00000000
00001000
,
00000000
00000000
00001001
00000000
;

//--------------- dance-double - forcednature ----------------
#NOTEDATA:;
#STEPSTYPE:dance-double;
#DESCRIPTION:forcednature;
#DIFFICULTY:Medium;
#METER:6;
#RADARVALUES:0,0,0,0,0;
#CREDIT:forcednature;
#NOTES:
00000000
00000000
00000000
00000000
,
00000000
00000000
00000000
00000000
,
00000000
00000000
00000000
00000000
,
00000000
00000000
00000000
00000000
,
00000000
00000000
00000000
00000000
,
00001000
00001000
00010000
00010000
,
00000010
00000000
00001000
00000000
00000000
00000001
00000001
00000000
,
00000100
00000001
00000010
00000001
,
00001000
00000010
00001010
00000000
,
00010000
00000000
00001000
00100000
,
00010000
00100000
01000000
10000000
,
00010000
00000000
00100000
00001000
,
00010000
00000100
00001000
00000010
,
00000100
00000000
00000001
00000010
,
00000001
00001000
00000100
00010000
,
00001000
00000000
01000000
00010000
,
10000000
00100000
01000000
00000000
,
10010000
00000000
10000000
00000000
,
01000000
01000000
00010000
00000000
,
00000000
00000000
00001000
00000000
,
00010000
00010000
00001000
00000000
,
00010000
00010000
00000100
00000000
,
00001000
00001000
00000010
00000000
,
00000000
00000000
00000000
00000100
,
00000001
00001000
00000010
00000000
,
00001001
00000000
00001000
00000000
,
00000100
00010000
00001000
00000000
,
00100000
00000000
00010000
00000000
,
01000000
00100000
10000000
00000000
,
00010000
00010000
00100000
00000000
,
00001000
00010000
00000100
00000000
,
00001000
00001000
00001000
00001000
,
00000010
00000100
00000002
00000003
,
00001000
00000100
00010000
00001000
,
00100000
00000000
00010000
00000000
00000000
10000000
10000000
00000000
,
00010000
01000000
00001000
00010000
,
00000010
00001000
00000001
00000000
,
00001000
00000100
00010000
00001000
,
00100000
00000000
00010000
00000000
00000000
10000000
10000000
00000000
,
00010000
01000000
00001000
00010000
,
00000010
00001000
00000001
00000000
,
00001001
00001001
00001001
00000000
,
00001000
00000000
00000000
00000000
00000100
00000000
00000000
00000000
00020000
00030000
00000000
00000000
00011000
00000000
00000000
00000000
,
00000000
01000000
00010000
00100000
,
00001000
00010000
00000010
00001000
,
00000000
00000100
00001000
00000010
,
00010000
00001000
00100000
00010000
,
00000000
01000000
00001000
00010000
,
00000010
00010000
00001000
00011000
,
00000000
00000100
00010000
00001000
,
00100000
00010000
10010000
00000000
;

//--------------- dance-double - forcednature assist by extraordiberry ----------------
#NOTEDATA:;
#STEPSTYPE:dance-double;
#DESCRIPTION:forcednature assist by extraordiberry;
#DIFFICULTY:Hard;
#METER:11;
#RADARVALUES:0,0,0,0,0;
#CREDIT:forcednature assist by extraordiberry;
#NOTES:
00000000
00000000
00000000
00000000
,
00000000
00000000
00000000
00000000
,
00000000
00000000
00000000
00000000
,
00000000
00000000
00000000
00000000
,
00000000
00000000
00000000
00000000
,
00011000
00000000
00010000
00100000
01000000
00010000
10000000
00000000
,
01000000
00010000
00001000
00100000
00020000
01000000
01030000
00000000
,
00001000
00000000
00000000
00010000
00000100
00000000
00000000
00010000
00001000
00000000
00000010
00000000
00000001
00000000
00000010
00000000
,
00000100
00000000
00000000
00000100
00010000
00000000
00001000
00000000
00000010
00000000
00000001
00000000
00000001
00000000
00000000
00000000
,
00001001
00000000
00001000
00000010
00000100
00001000
00020000
00000000
,
01030000
00010000
00002000
00000000
00003100
00001000
00010000
00100000
,
10000000
00000000
01000000
10000000
00100000
00010000
00002000
00000000
,
00003010
00001000
00020000
00000000
00130000
00010000
00001000
00000010
,
00000001
00000000
00000100
00000001
00000010
00001000
00020000
00000000
,
01030000
00010000
00002000
00000000
00003100
00001000
00010000
01000000
,
10000000
00000000
00100000
10000000
01000000
00010000
00001000
00000000
,
00000100
00000000
00001000
00000000
00010000
00000000
00100000
00000000
10000000
00000000
00000000
01000000
10000000
00000000
00000000
00000000
,
01100000
00000000
00000000
00010000
00110000
00000000
00000000
00001000
,
00010000
00000100
00001000
00000010
00000110
00000000
00000001
00000000
,
00000000
00000000
00000001
00000000
00001010
00000000
00000000
00010000
,
00001000
00100000
00010000
01000000
01100000
00000000
10000000
00000000
,
11000000
00000000
00010000
00100000
10000000
00000000
00100000
00000000
,
00001000
00010000
00000100
00000010
00001000
00000000
00011000
00000000
,
00100000
00110000
00001000
00011000
,
00010000
00000000
00100000
00000000
01000000
00000000
00010000
00000000
10000000
00000000
00100000
01000000
00000000
01000000
00000000
00000000
,
00010000
00000000
00000000
00100000
00001000
00000000
00000000
00000000
00010000
00000000
00000010
00000000
00001000
00000000
00000000
00000000
,
00000001
00000100
00001000
00010000
01000000
00000000
01100000
00000000
,
00100000
00000000
00000000
00010000
01000000
00000000
00000000
00000000
00100000
00000000
10000000
00000000
01000000
00000000
00000000
00000000
,
00010000
00001000
00000010
00000001
00000100
00000000
00000010
00000000
,
00000110
00000000
00000000
00001000
00000100
00000000
00010000
00000000
00001000
00000000
01000000
00000000
00010000
00000000
00000000
00000000
,
00100000
01000000
10000000
00100000
01100000
00000000
10000000
00000000
,
01000000
00010000
00001000
00010000
01000000
00010000
00001000
00010000
,
00000100
00000000
00000000
00001000
00000010
00000000
00000100
00000000
00000002
00000000
00000000
00000000
00000013
00000000
00000000
00000000
,
00001001
00000000
00000000
00000001
00000100
00000000
00000000
00001000
00000100
00000000
00000001
00000000
00001000
00000000
00000000
00000000
,
00000001
00000010
00001000
00010000
00000200
00001000
00001300
00000000
,
00000010
00000000
00000000
00010000
00001000
00000000
00100000
00000000
00010000
00000000
00000000
00000000
10000000
00000000
01000000
00000000
,
00010000
00001000
00100000
00010000
01000000
00000000
01100000
00000000
,
10010000
00000000
10000000
00100000
00010000
00001000
01000000
00000000
,
00010000
00100000
00001000
00010000
00000200
00000010
00000310
00000000
,
00000100
00000000
00000000
00010000
00001000
00000000
00000000
00010000
00000100
00000000
00001000
00000000
00000010
00000000
00000100
00000000
,
00000110
00000000
00000000
00001000
00000100
00000000
00010000
00000000
00001000
00000000
01000000
00000000
01000000
00000000
00000000
00000000
,
00100000
00000000
00000000
00100000
10000000
00000000
00000000
10000000
01000000
00000000
00010000
00000000
00002000
00000000
00000000
00000000
,
00103000
00000000
00000000
00001000
00010000
00000000
00000100
00000000
00000020
00000030
00000000
00000000
00001001
00000000
00000000
00000000
,
00001000
00000010
00010000
00001000
00000200
00000000
00001300
00010000
,
02000000
00000000
03010000
00001000
01000000
00010000
10010000
00000000
,
00010000
00100000
00001000
00010000
02000000
00000000
03010000
00001000
,
00000200
00000000
00001300
00010000
00000100
00001000
00001001
00000000
,
00001000
00000100
00010000
00001000
00000020
00000000
00001030
00010000
,
00200000
00000000
00310000
00001000
00100000
00010000
10010000
00000000
,
00010000
01000000
00001000
00010000
00200000
00000000
00310000
00001000
,
00000010
00000001
00000100
00000000
00001001
00000000
00000000
00000000
;
