#VERSION:0.83;
#TITLE:昏き甲鉄のヴェルガ;
#SUBTITLE:;
#ARTIST:arcane feat.rionos;
#TITLETRANSLIT:Kuraki koutetsu no Verga;
#SUBTITLETRANSLIT:;
#ARTISTTRANSLIT:;
#GENRE:FANTASIA;
#CREDIT:;
#MUSIC:Kuraki koutetsu no Verga.ogg;
#BANNER:Kuraki koutetsu no Verga.png;
#BACKGROUND:Kuraki koutetsu no Verga-bg.png;
#CDTITLE:./CDTitles/bm IIDX 30 RESIDENT.png;
#SAMPLESTART:66.147;
#SAMPLELENGTH:15.000;
#SELECTABLE:YES;
#OFFSET:0.362;
#BPMS:0.000=174.000;
#STOPS:;
#TIMESIGNATURES:0.000=4=4;
#BGCHANGES:0.000=../BGAs/30rd.mp4=1.000=0=0=0=StretchNoLoop====,
99999.000=-nosongbg-=1.000=0=0=0=StretchNoLoop====
;
#FGCHANGES:;

//--------------- dance-single - forcednature ----------------
#NOTEDATA:;
#STEPSTYPE:dance-single;
#DESCRIPTION:forcednature;
#DIFFICULTY:Beginner;
#METER:1;
#RADARVALUES:0,0,0,0,0;
#CREDIT:forcednature;
#NOTES:
0000
0000
0000
0000
,
0000
0000
0000
0000
,
0000
0000
0000
0000
,
0000
0000
0000
0000
,
0000
0000
0000
0000
,
0000
0000
0000
0000
,
0000
0000
0000
0000
,
0000
0000
0000
0000
,
0000
0000
0000
0000
,
1000
0000
0000
0000
,
0000
0000
0000
0000
,
0010
0000
0000
0000
,
0000
0000
0000
0000
,
0100
0000
0000
0000
,
0000
0000
0000
0000
,
0001
0000
0000
0000
,
0010
0000
0000
0000
,
1001
0000
0000
0000
,
0000
0000
0000
0000
,
1000
0000
0000
0000
,
0100
0000
0000
0000
,
1000
0000
0000
0000
,
0000
0000
0000
0000
,
0010
0000
0000
0000
,
0100
0000
0000
0000
,
1001
0000
0000
0000
,
0000
0000
0000
0000
,
0001
0000
0000
0000
,
0010
0000
0000
0000
,
0001
0000
0000
0000
,
0000
0000
0000
0000
,
0100
0000
0000
0000
,
0010
0000
0000
0000
,
1000
0000
0000
0000
,
1000
0000
0000
0000
,
0100
0000
0000
0000
,
0000
0000
0000
0000
,
1000
0000
0000
0000
,
0010
0000
0000
0000
,
1000
0000
0000
0000
,
0000
0000
0000
0000
,
1001
0000
0000
0000
,
0000
0000
0000
0000
,
0001
0000
0000
0000
,
0000
0000
0000
0000
,
0010
0000
0000
0000
,
0000
0000
0000
0000
,
0100
0000
0000
0010
,
0000
0000
0000
0000
,
1001
0000
0000
0000
,
0000
0000
0000
0000
,
1000
0000
0000
0000
,
0000
0000
0000
0000
,
0010
0000
0000
0000
,
0000
0000
0000
0000
,
0100
0000
0000
0000
,
0000
0000
0000
0000
,
1001
0000
0000
0000
,
0000
0000
0000
0000
,
0001
0000
0000
0000
,
0000
0000
0000
0000
,
0010
0000
0000
0000
,
0000
0000
0000
0000
,
0100
0000
0000
0000
,
0000
0000
0000
0000
,
1001
0000
0000
0000
,
0000
0000
0000
0000
,
0110
0000
0000
0000
,
0000
0000
0000
0000
,
1001
0000
0000
0000
,
0000
0000
0000
0000
,
0000
0000
0000
0000
,
0000
0000
0000
0000
,
1000
0000
0000
0000
,
0000
0000
0000
0000
,
0010
0000
0000
0000
,
0000
0000
0000
0000
,
1001
0000
0000
0000
,
0000
0000
0000
0000
,
0001
0000
0000
0000
,
0000
0000
0000
0000
,
0100
0000
0000
0000
,
0000
0000
0000
0000
,
0010
0000
0000
0000
,
0000
0000
0000
0000
,
2002
0000
0000
0000
,
0000
0000
0000
0000
,
0000
0000
0000
0000
,
0000
0000
0000
3003
;

//--------------- dance-single - forcednature ----------------
#NOTEDATA:;
#STEPSTYPE:dance-single;
#DESCRIPTION:forcednature;
#DIFFICULTY:Easy;
#METER:4;
#RADARVALUES:0,0,0,0,0;
#CREDIT:forcednature;
#NOTES:
0000
0000
0000
0000
,
0000
0000
0000
0000
,
0000
0000
0000
0000
,
0000
0000
0000
0000
,
0000
0000
0000
0000
,
0000
0000
0000
0000
,
0000
0000
0000
0000
,
0000
0000
0000
0000
,
0000
0000
0001
0001
,
1000
0000
0000
0000
,
0001
0000
0010
0000
,
0010
0000
0000
0000
,
0100
0000
1000
0000
,
1000
0000
0000
0000
,
0010
0000
0100
0000
,
0100
0000
0000
0000
,
1001
0000
0000
0000
,
0110
0000
0000
0000
,
0001
0000
0001
0000
,
1000
0000
0000
0000
,
0100
0000
1000
0000
,
0010
0000
0000
0000
,
0100
0000
0100
0000
,
0001
0000
0000
0000
,
0010
0000
0001
1000
,
0001
0000
0000
0000
,
1000
0000
0010
0000
,
0100
0000
0000
0000
,
0001
0000
1000
0000
,
0100
0000
0000
0000
,
0010
0000
0001
0000
,
1000
0000
0000
0000
,
0010
0000
1000
0001
,
1000
0000
1000
0000
,
1000
0000
0000
0000
,
0001
0000
0001
0000
,
0100
0000
0000
0000
,
0001
0000
0001
0000
,
1000
0000
0000
0000
,
0100
0000
0100
0000
,
0010
0000
0000
0000
,
0110
0000
0000
0000
,
0001
0000
0001
0000
,
1000
0000
1000
0000
,
0100
0000
0000
0000
,
1000
0000
0010
0000
,
0100
0000
0010
0000
,
0110
0000
0000
1001
,
0000
0000
0000
0000
,
0001
0000
0001
0000
,
0100
0001
0100
0000
,
0010
0000
0010
0000
,
0100
0010
0100
0000
,
0010
0000
0010
0000
,
1000
0000
0001
0000
,
1000
0000
1000
0000
,
0100
1000
0100
0000
,
0010
0000
0010
0000
,
0001
1000
0001
0000
,
0100
0000
0100
0000
,
0001
0100
0001
0000
,
1000
0000
0010
0000
,
1000
0000
0000
0000
,
0001
0000
0100
0000
,
0001
0000
0000
0000
,
1001
0000
0000
0000
,
1000
0100
0010
0000
,
1001
0000
0000
0000
,
0001
0100
0010
0000
,
0220
0000
0000
0000
,
0000
0000
0330
0000
,
0001
0000
0000
0000
,
0001
0000
0000
0000
,
1000
0000
0000
0000
,
1000
0000
0000
0000
,
0010
0000
0000
0000
,
0100
0000
0000
0000
,
1001
0000
0000
1000
,
0000
0000
0100
0000
,
1000
0000
0000
0010
,
0000
0000
0100
0000
,
0001
0000
0000
0010
,
0000
0000
0100
0000
,
0010
0000
0000
0001
,
0000
0000
0000
0000
0000
0000
0000
2002
,
0000
0000
0000
0000
,
0000
0000
0000
0000
,
0000
0000
0000
0000
,
0000
0000
0000
3003
;

//--------------- dance-single - forcednature ----------------
#NOTEDATA:;
#STEPSTYPE:dance-single;
#DESCRIPTION:forcednature;
#DIFFICULTY:Medium;
#METER:8;
#RADARVALUES:0,0,0,0,0;
#CREDIT:forcednature;
#NOTES:
0000
0000
0000
0000
,
0000
0000
0000
0000
,
0000
0000
0000
0000
,
0000
0000
0000
0000
,
0000
0000
0000
0000
,
0000
0000
0000
0000
,
0000
0000
0000
0000
,
0000
0000
0000
0000
,
0000
0000
1000
0001
,
1001
0000
0000
1000
0000
0000
0100
0000
,
0000
1000
0000
0000
0010
0000
0000
0110
,
0000
0000
0000
0100
0000
0000
0001
0000
,
0000
0010
0000
0000
0001
0000
0000
0000
,
1001
0000
0000
1000
0000
0000
0010
0000
,
0000
1000
0000
0000
0001
0000
0000
1001
,
0000
0000
0000
0001
0000
0000
0000
0110
,
0000
0000
0000
2002
0000
0000
3003
0000
,
1000
0100
1000
0010
,
0000
1000
0001
1000
,
0001
0100
0001
0010
,
0000
0001
1000
0100
,
0010
0100
1000
0001
,
0000
0100
0010
1000
,
0010
0100
0001
1000
,
0000
0001
0010
0000
,
1001
0000
1000
0100
,
1000
0010
1000
0001
,
1000
0000
0001
0100
,
0001
0010
0001
1000
,
1001
0000
0001
0010
,
0100
0010
0001
1000
,
0100
0000
1000
0010
,
0100
0001
0010
0000
,
2001
0000
0100
0000
,
0001
0000
3100
0000
,
0002
0000
0010
0000
,
1000
0000
0013
0000
,
2000
0010
3020
0100
,
0230
0302
1003
0000
,
2001
0000
0000
0001
0000
0000
3001
0000
,
0000
1000
0000
0100
1000
0000
0010
0000
,
0110
0000
0001
0001
,
0100
0100
0001
0010
,
0100
0000
0001
0001
,
0100
0100
1000
0001
,
1001
0000
1000
1000
,
0010
0010
0001
0010
,
1000
0000
0000
0001
0000
0000
1001
0000
,
0000
0010
0100
0220
,
0330
0000
0001
1000
0001
0000
1000
0000
,
0100
1000
0001
2002
,
3003
0000
0001
1000
0001
0000
0100
0000
,
0001
1000
0010
0100
,
0110
0000
0001
1000
,
0100
1000
0100
0000
0010
0000
0001
0000
,
1001
0000
1000
0010
,
0100
0010
0100
0000
0001
0000
2002
0000
,
3003
0001
1000
0100
,
0001
0100
1000
0220
,
0330
1000
0001
0010
,
1000
0000
0010
0000
0001
0000
1000
0001
,
2000
0000
3000
0000
0010
0000
0100
0010
,
0100
0000
0001
0000
1000
0000
0100
1000
,
0200
0300
0010
0001
,
1000
0001
1000
0000
0010
0000
0100
0000
,
0110
0000
0000
0001
0000
0000
0011
0000
,
0000
1000
0000
0000
0100
0000
0000
0000
,
0110
0000
0000
1000
0000
0000
1010
0000
,
0000
0001
0000
0000
1001
0000
0220
0000
,
0000
0000
0000
0000
,
0000
0000
0000
0000
0330
0000
0000
1000
,
0000
0000
1000
0000
0000
0100
0000
0000
,
0100
0000
0000
0000
0000
0000
1000
0010
,
0000
0000
0100
0000
0000
0100
0000
0000
,
0001
0000
0000
0010
0000
0000
0001
1000
,
0000
0000
0100
0000
0000
0110
0000
0000
,
1000
0001
0000
0100
0000
0000
0010
0000
,
1001
0000
0000
0001
0000
0010
0001
0000
,
0000
0100
0000
0001
0100
0000
0000
0110
,
0000
0000
1000
0000
0010
1000
0000
0000
,
0100
0000
1000
0100
0000
0000
0000
0110
,
0000
0000
1000
0000
0001
0100
0000
0000
,
0001
1000
0000
1000
0001
0000
0010
0200
,
0000
0000
1000
0000
0000
0310
0000
1001
,
0000
0000
0000
0000
0001
1000
0001
0200
,
0000
0000
0000
0000
,
0000
0000
0000
0000
0000
0000
0000
0300
,
0000
0010
1000
0000
0001
0000
0100
0000
,
0000
0010
1000
0000
0001
0000
0010
0001
;

//--------------- dance-single - forcednature ----------------
#NOTEDATA:;
#STEPSTYPE:dance-single;
#DESCRIPTION:forcednature;
#DIFFICULTY:Hard;
#METER:12;
#RADARVALUES:0,0,0,0,0;
#CREDIT:forcednature;
#NOTES:
0000
0000
0000
0000
,
0000
0000
0000
0000
,
0000
0000
0000
0000
,
0000
0000
0000
0000
,
0000
0000
0000
0000
,
0000
0000
0000
0000
,
0000
0000
0000
0000
,
0000
0000
0000
0000
,
0000
0000
0000
0000
0001
1000
0001
0000
,
0011
0000
1000
0100
0000
0010
0100
1000
,
0000
0001
0100
0010
1000
0010
0100
0001
,
0000
1000
0100
0010
0000
0100
1000
0001
,
0000
0000
0010
0000
0001
0000
1000
0000
0010
0000
0000
0010
0100
0000
0000
0000
,
1001
0000
0001
0100
0000
0001
0010
0100
,
0000
0010
0001
1000
0010
1000
0001
0010
,
0000
0100
1000
0001
0000
0100
0010
0110
,
0000
0000
0000
1001
0000
1000
0100
0000
,
0120
0000
0030
0001
0010
0000
0001
1000
,
0000
1100
0000
0001
1000
0010
1000
0001
,
0000
0100
0010
1000
0000
0100
1000
0001
,
0000
0010
1000
0010
0001
1000
0001
0000
,
0101
0000
1000
0010
0000
0110
0000
0101
,
0000
0001
0010
0100
1000
0000
0010
0000
,
0110
0000
0001
0100
1000
0000
0100
0001
,
2000
0000
3010
0020
0000
0130
0001
0000
,
0021
0000
0030
0001
1000
0000
0100
1000
,
0000
1010
0000
0010
0100
0001
1000
0010
,
0000
0100
0001
1000
0000
0100
0010
0001
,
0000
0100
1000
0100
0001
1000
0001
0000
,
1001
0000
0001
0010
0000
0110
0000
1100
,
0000
1000
0010
0000
0100
0001
0010
0002
,
0000
0103
0010
2000
0000
3100
0001
0100
,
2000
3020
0230
0302
,
0013
0000
0010
0001
0100
0000
0100
0010
,
1000
0000
1000
0100
0010
0000
0001
0000
,
1000
0000
1000
0010
0100
0000
0100
0001
,
1000
0000
1000
0100
0010
0000
0001
0000
,
2001
0010
3002
0100
,
0023
0000
0230
0000
1300
1000
0001
0000
,
1001
0000
1000
0010
0000
0001
0010
0000
,
0100
1000
0000
0100
0001
0010
0001
1000
,
0010
0000
0010
0100
0001
0000
0001
1000
,
0100
0000
0100
0010
0001
0000
0100
0000
,
0110
0000
0010
1000
0100
0000
0100
0010
,
0001
0000
0001
1000
0010
0000
0100
0000
,
1001
0000
0001
0010
0000
0100
0001
0000
,
0100
1000
0000
0010
0100
0001
1000
0000
,
1001
0000
0001
0010
0100
0010
0110
0000
,
0000
1100
1010
0210
,
0001
0000
0310
1000
0100
1000
0001
1000
,
0100
0011
0101
0120
,
1000
0000
0130
0001
0010
0001
1000
0001
,
0000
0010
0100
1000
0010
0100
0001
0010
,
0100
0000
0001
0100
0000
1100
0000
1010
,
0000
0010
0110
0000
0001
1000
0100
0000
,
0110
0000
0010
0001
0000
0100
1000
0000
,
0100
0001
0010
0001
1000
0000
1020
0000
,
0100
0000
1030
0001
0100
0001
0010
0001
,
1000
1100
0101
0021
,
0100
0000
0031
1000
0100
1000
0010
0100
,
0000
0001
0010
0001
1000
0010
0100
0000
,
0110
0000
0001
0010
0000
1000
0000
0010
,
0000
0001
1000
0100
1000
0001
0100
0000
,
0110
0000
0010
1000
0000
0100
0000
0110
,
0000
0010
0001
1000
0010
1000
0001
0000
,
0101
0000
0100
0110
0000
0010
1010
0000
,
1000
1100
0000
0001
0010
0000
0110
0000
,
1001
0000
1000
1010
0000
0010
0110
0000
,
0100
0101
0000
0001
0011
0000
1000
0000
,
2001
0000
0000
0100
0000
0000
0001
0000
,
0000
3100
0000
0000
1000
0000
0010
0200
,
0000
0000
0001
0000
0000
0010
0000
0000
,
0301
0000
0000
0100
0000
0001
1000
0001
,
0000
0100
0001
0000
0100
0010
0000
1000
,
0100
0000
1000
0010
0000
0100
0001
1000
,
0000
0100
1000
0000
0100
0001
0000
0100
,
1000
0010
0100
0001
0000
0011
0000
1000
,
0100
0010
0100
1000
0010
1000
0100
0010
,
0100
1000
0000
0010
0100
0000
0001
0010
,
0100
0010
0001
0100
0010
0100
0001
0010
,
0100
1000
0000
0010
0100
0000
0001
1000
,
0100
1000
0010
1000
0100
1000
0001
0100
,
0001
1000
1000
0001
0001
0100
0010
0210
,
0000
0000
0001
0000
0000
0301
0001
1000
,
0000
0000
0000
0000
0001
0010
0100
2000
,
0000
0000
0000
0000
,
0000
0000
0000
0000
0000
0000
0000
3000
,
0000
0001
0010
0001
0100
0010
1000
0100
,
1000
0001
0010
0001
0100
0010
1000
1001
;

//--------------- dance-single - ----------------
#NOTEDATA:;
#STEPSTYPE:dance-single;
#DESCRIPTION:forcednature;
#CREDIT:forcednature;
#DIFFICULTY:Challenge;
#METER:15;
#RADARVALUES:0,0,0,0,0;
#NOTES:
0000
0000
0000
0000
,
0000
0000
0000
0000
,
0000
0000
0000
0000
,
0000
0000
0000
0000
,
0000
0000
0000
0000
,
0000
1000
0001
0010
0100
1000
0001
0100
,
0000
0001
0010
0100
1000
0010
0100
0110
,
0000
0001
1000
0010
0100
0001
1000
0100
,
0000
1000
0010
0100
0001
1000
1001
0000
,
0001
0000
0010
0000
0001
0000
0100
0001
0100
0000
0010
0000
1000
0000
0001
0000
,
0000
0010
0100
1000
0010
0100
0010
1001
,
0000
0000
1000
0000
0010
0000
0100
0010
0100
0000
0001
0000
1000
0000
0010
0000
,
0000
0000
0100
0000
0001
0000
0010
0000
0100
1000
0100
1000
0100
0000
0000
0000
,
0010
0000
0001
0000
0100
0000
0010
0100
0010
0000
1000
0000
0001
0000
0010
0000
,
0000
0100
1000
0001
0100
0010
1000
1100
,
0000
0000
0100
0000
1000
0000
0001
0010
0001
0000
1000
0010
1000
0000
0100
0000
,
0000
1000
0010
0100
0001
0010
0100
0000
,
2001
0000
3010
0000
1000
0100
0001
0100
,
0000
1000
0010
0100
0001
0010
0100
0110
,
0000
0010
0001
0100
0000
0010
1000
0100
,
0000
0000
0001
0000
0100
0000
1000
0000
0001
1000
0001
1000
0001
0000
0000
0000
,
1002
0000
0103
0010
0000
1000
0001
0100
,
0000
0001
0010
0100
1000
0000
0010
1000
,
0001
0000
0011
0000
1010
0000
1000
0001
,
0000
0000
0101
0000
0000
0000
1000
0000
0010
0000
0100
0010
0100
0000
0000
0000
,
1002
0000
0013
0000
0001
0100
1000
0100
,
0000
0001
0010
0100
1000
0010
0100
0110
,
0000
0010
1000
0100
0000
0010
0001
0100
,
0000
0000
1000
0000
0100
0000
0001
0000
1000
0001
1000
0001
1000
0000
0000
0000
,
2001
0000
3100
0010
0000
0001
1000
0100
,
0000
0000
1000
0000
0010
0000
0100
0000
0001
0000
0010
0000
0100
0000
1000
0001
,
1000
0000
0001
0010
0000
0001
0100
1000
,
0000
0000
0100
0000
0001
0000
0010
0001
1000
0000
0010
1000
0001
0000
0000
0000
,
1001
0000
1000
0100
0010
0100
1000
0010
,
0100
1000
0100
0010
1000
0100
0010
0000
,
1001
0000
0001
0100
0010
0100
0001
0010
,
0100
0001
0100
0010
0001
0100
0010
0000
,
2001
0000
0000
0000
3010
0000
0100
0001
0200
0000
0000
0000
0310
0000
1000
0001
,
2000
0000
0000
0000
3100
0000
0010
0000
0001
0000
0100
0010
1000
0000
0000
0000
,
2002
0000
3003
0000
0001
0100
0002
0000
0003
0000
1000
0100
2000
0000
3000
0000
,
0010
0100
0020
0000
0030
0000
1000
0100
0010
0000
0001
0100
0010
0000
0000
0000
,
1001
0000
1000
0010
0001
0010
1000
0001
,
0010
1000
0010
0001
1000
0010
0100
0000
,
1001
0000
0001
0010
1000
0010
0001
1000
,
0010
0001
0010
1000
0001
0010
0100
0000
,
0110
0000
0000
0000
0010
0000
0001
0000
0100
0000
0010
0100
0010
0000
0000
0000
,
1000
0000
0100
0000
0010
0000
0100
1000
0100
0000
0010
0001
1000
0000
0000
0000
,
1001
0000
0000
0001
0100
0000
0010
0000
1000
0000
0001
0000
1001
0000
0000
0000
,
0000
1100
0011
2001
,
3010
0000
0100
0000
0001
0000
0010
0001
0010
0000
0100
0000
1000
0000
0001
0000
,
0100
1000
0100
0001
0010
0000
1002
0000
,
0103
0000
0010
0000
1000
0000
0100
1000
0100
0000
0010
0000
0001
0000
1000
0000
,
0010
0001
0010
1000
0100
0001
0100
1000
,
1100
0000
0000
0000
0001
0000
0010
0001
0010
0000
0001
0100
0001
0000
0200
0000
,
0000
0310
1000
0100
0010
0001
0100
0000
,
0110
0000
0000
0000
0010
1000
0002
0000
0003
0000
0010
0001
2000
0000
3000
0000
,
0100
0000
0010
0000
0001
0000
0100
0001
0100
0000
0010
1000
0020
0000
0000
0000
,
0130
0000
0001
0000
0010
0000
0100
0010
0100
0000
1000
0000
0001
0000
0100
0000
,
0010
1000
0100
0001
0100
0000
1100
0000
,
1000
0000
0010
0000
0100
0000
0001
0100
0001
0000
0010
0000
0100
0000
1000
0000
,
0010
0001
0010
1000
0100
0010
0001
0100
,
0101
0000
0000
0000
0100
0000
0010
1000
0010
0000
1000
0100
1000
0000
0002
0000
,
0000
0013
0100
1000
0010
0100
0001
1000
,
1100
0000
0000
0000
0100
0000
0010
0001
0010
0000
0001
0100
0001
0000
2000
0000
,
0000
3010
0100
0001
0010
0000
0011
0000
,
0001
0000
0100
0001
0100
0000
0010
0000
1000
0010
1000
0000
0001
0000
0010
0001
,
0010
0000
0100
0000
1000
0100
1000
0000
0010
0000
0000
0000
0110
0000
0000
0000
,
1000
0000
0010
1000
0010
0000
0100
0000
0001
0100
0001
0000
0010
0000
0100
0010
,
0100
1000
0001
0100
0110
0000
1001
0000
,
1200
0000
0000
0010
0000
0000
1000
0000
,
0000
0010
0000
0000
1300
0100
0010
0002
,
0000
0000
0100
0000
0000
1000
0000
0000
,
0100
0000
0000
1003
0010
0100
0001
0020
,
0000
0000
0100
0000
0000
0001
0000
0000
,
0100
0000
0000
0031
1000
0010
0100
0002
,
0000
0000
1000
0000
0000
0013
0000
0001
,
0100
0000
1000
0000
0000
0000
0100
0000
0001
0000
0010
0100
1000
0000
0010
0100
,
0002
0000
1003
0010
0001
0010
1000
0001
,
1000
0000
0100
0000
0001
0000
0100
0000
1000
0000
0010
0100
0001
0000
2000
0000
,
0000
3001
0010
1000
0010
0001
1000
0001
,
0100
0000
1000
0000
0100
0000
0001
0100
0001
0000
1000
0100
0010
0000
0002
0000
,
0000
1003
0010
0001
0010
1000
0001
1000
,
0100
0000
0001
0000
0100
0000
1000
0100
0010
0000
0001
0100
0010
0000
2002
0000
,
0000
0000
0000
0000
0000
0000
3003
0000
0001
0000
1000
0100
0010
0000
0001
0000
,
0000
0000
0000
0000
0100
0010
0100
0010
0100
0000
0001
0000
1000
0000
2002
0000
,
0000
0000
0000
0000
,
0000
0000
0000
0000
0000
0000
0000
3003
,
0000
0001
0010
0100
1000
0001
0100
1000
,
0100
0001
0010
0100
1000
0010
0110
1001
;

//--------------- dance-double - forcednature ----------------
#NOTEDATA:;
#STEPSTYPE:dance-double;
#DESCRIPTION:forcednature;
#DIFFICULTY:Easy;
#METER:4;
#RADARVALUES:0,0,0,0,0;
#CREDIT:forcednature;
#NOTES:
00000000
00000000
00000000
00000000
,
00000000
00000000
00000000
00000000
,
00000000
00000000
00000000
00000000
,
00000000
00000000
00000000
00000000
,
00000000
00000000
00000000
00000000
,
00000000
00000000
00000000
00000000
,
00000000
00000000
00000000
00000000
,
00000000
00000000
00000000
00000000
,
00000000
00000000
00010000
00010000
,
00001000
00000000
00000000
00000000
,
00100000
00000000
00010000
00000000
,
00100000
00000000
00000000
00000000
,
01000000
00000000
10000000
00000000
,
10000000
00000000
00000000
00000000
,
00100000
00000000
01000000
00000000
,
01000000
00000000
00000000
00000000
,
10010000
00000000
00000000
00000000
,
01100000
00000000
00000000
00000000
,
00010000
00000000
00010000
00000000
,
00100000
00000000
00000000
00000000
,
00001000
00000000
00010000
00000000
,
00001000
00000000
00000000
00000000
,
00010000
00000000
00010000
00000000
,
00000100
00000000
00000000
00000000
,
00001000
00000000
00000001
00001000
,
00000001
00000000
00000000
00000000
,
00000010
00000000
00000100
00000000
,
00000010
00000000
00000000
00000000
,
00000001
00000000
00001000
00000000
,
00000100
00000000
00000000
00000000
,
00010000
00000000
00001000
00000000
,
00010000
00000000
00000000
00000000
,
00001000
00000000
00100000
00010000
,
00100000
00000000
00100000
00000000
,
00010000
00000000
00000000
00000000
,
01000000
00000000
01000000
00000000
,
00010000
00000000
00000000
00000000
,
00100000
00000000
00100000
00000000
,
00001000
00000000
00000000
00000000
,
00010000
00000000
00010000
00000000
,
00000100
00000000
00000000
00000000
,
00011000
00000000
00000000
00000000
,
00000010
00000000
00000010
00000000
,
00001000
00000000
00001000
00000000
,
00000100
00000000
00000000
00000000
,
00010000
00000000
00001000
00000000
,
00100000
00000000
00001000
00000000
,
00011000
00000000
00000000
00011000
,
00000000
00000000
00000000
00000000
,
00000100
00000000
00000100
00000000
,
00001000
00000100
00001000
00000000
,
00000010
00000000
00000010
00000000
,
00001000
00000010
00001000
00000000
,
00000001
00000000
00000001
00000000
,
00000100
00000000
00000010
00000000
,
00001000
00000000
00001000
00000000
,
00000100
00001000
00000100
00000000
,
00010000
00000000
00010000
00000000
,
00001000
00010000
00001000
00000000
,
01000000
00000000
01000000
00000000
,
00010000
01000000
00010000
00000000
,
10000000
00000000
00100000
00000000
,
10000000
00000000
00000000
00000000
,
00010000
00000000
00100000
00000000
,
00010000
00000000
00000000
00000000
,
10010000
00000000
00000000
00000000
,
10000000
01000000
00100000
00000000
,
00001000
00000000
00000000
00000000
,
00010000
00001000
00010000
00000000
,
00022000
00000000
00000000
00000000
,
00000000
00000000
00033000
00000000
,
00000100
00000000
00000000
00000000
,
00000100
00000000
00000000
00000000
,
00001000
00000000
00000000
00000000
,
00000010
00000000
00000000
00000000
,
00000100
00000000
00000000
00000000
,
00000001
00000000
00000000
00000000
,
00001001
00000000
00000000
00001000
,
00000000
00000000
00000100
00000000
,
00010000
00000000
00000000
00001000
,
00000000
00000000
01000000
00000000
,
00010000
00000000
00000000
00100000
,
00000000
00000000
01000000
00000000
,
00100000
00000000
00000000
00010000
,
00000000
00000000
00000000
00000000
00000000
00000000
00000000
20020000
,
00000000
00000000
00000000
00000000
,
00000000
00000000
00000000
00000000
,
00000000
00000000
00000000
00000000
,
00000000
00000000
00000000
30030000
;

//--------------- dance-double - forcednature ----------------
#NOTEDATA:;
#STEPSTYPE:dance-double;
#DESCRIPTION:forcednature;
#DIFFICULTY:Medium;
#METER:8;
#RADARVALUES:0,0,0,0,0;
#CREDIT:forcednature;
#NOTES:
00000000
00000000
00000000
00000000
,
00000000
00000000
00000000
00000000
,
00000000
00000000
00000000
00000000
,
00000000
00000000
00000000
00000000
,
00000000
00000000
00000000
00000000
,
00000000
00000000
00000000
00000000
,
00000000
00000000
00000000
00000000
,
00000000
00000000
00000000
00000000
,
00000000
00000000
00001000
00010000
,
00011000
00000000
00000000
00000100
00000000
00000000
00001000
00000000
,
00000000
00000010
00000000
00000000
00010000
00000000
00000000
00011000
,
00000000
00000000
00000000
01000000
00000000
00000000
00010000
00000000
,
00000000
00100000
00000000
00000000
00001000
00000000
00010000
00000000
,
00011000
00000000
00000000
00000100
00000000
00000000
00001000
00000000
,
00000000
00000010
00000000
00000000
00010000
00000000
00000000
00011000
,
00000000
00000000
00000000
00100000
00000000
00000000
00000000
01100000
,
00000000
00000000
00000000
20020000
00000000
00000000
30030000
00000000
,
10000000
01000000
10000000
00100000
,
00000000
01000000
00010000
01000000
,
00001000
00010000
00000100
00010000
,
00000000
00000010
00001000
00000010
,
00000100
00000001
00001000
00000100
,
00000000
00010000
00001000
00100000
,
00001000
00010000
00000100
00010000
,
00000000
00001000
01000000
00000000
,
00011000
00000000
00100000
00010000
,
00100000
01000000
10000000
01000000
,
00100000
00000000
00001000
00010000
,
00000100
00010000
00000010
00001000
,
00000001
00000000
00000010
00000100
,
00010000
00001000
00100000
00010000
,
01000000
00000000
00100000
10000000
,
01000000
10000000
00010000
00000000
,
10020000
00000000
01000000
00000000
,
10000000
00000000
01030000
00000000
,
00200000
00000000
00010000
00000000
,
00001000
00000000
00310000
00000000
,
00002000
00000000
00023000
00000000
,
00030200
00002300
00003010
00000000
,
00000200
00000000
00000000
00000001
00000000
00000000
00000301
00000000
,
00000000
00001000
00000000
00000010
00001000
00000000
00000100
00000000
,
00011000
00000000
00100000
00100000
,
00010000
00010000
01000000
00010000
,
10000000
00000000
01000000
01000000
,
00100000
00100000
00001000
00010000
,
00011000
00000000
00000100
00000100
,
00001000
00001000
00000010
00000100
,
00000001
00000000
00000000
00001000
00000000
00000000
00001001
00000000
,
00000000
00000010
00000100
00000220
,
00000330
00000000
00001000
00000001
00001000
00000000
00000100
00000000
,
00010000
00001000
00010000
00022000
,
00033000
00000000
00100000
00010000
00100000
00000000
01000000
00000000
,
10000000
00100000
10000000
01000000
,
01100000
00000000
00100000
00001000
,
00010000
00001000
00010000
00000000
00000100
00000000
00001000
00000000
,
00001001
00000000
00000001
00000100
,
00000010
00000100
00000010
00000000
00001000
00000000
00002002
00000000
,
00003003
00001000
00000001
00000100
,
00001000
00010000
00001000
00022000
,
00033000
00100000
00010000
01000000
,
10000000
00000000
01000000
00000000
00010000
00000000
10000000
00010000
,
20000000
00000000
30000000
00000000
01000000
00000000
00100000
01000000
,
00100000
00000000
00001000
00000000
00010000
00000000
00001000
00010000
,
00002000
00003000
00010000
00000100
,
00001000
00000001
00001000
00000000
00000010
00000000
00000100
00000000
,
00000110
00000000
00000000
00000001
00000000
00000000
00001000
00000000
,
00000000
00000100
00000000
00000000
00010000
00000000
00000000
00000000
,
00011000
00000000
00000000
01000000
00000000
00000000
00010000
00000000
,
00000000
10000000
00000000
00000000
01000000
00000000
02200000
00000000
,
00000000
00000000
00000000
00000000
,
00000000
00000000
00000000
00000000
03300000
00000000
00000000
00100000
,
00000000
00000000
00100000
00000000
00000000
00001000
00000000
00000000
,
00001000
00000000
00000000
00000000
00000000
00000000
00010000
00000100
,
00000000
00000000
00001000
00000000
00000000
00001000
00000000
00000000
,
00000010
00000000
00000000
00000100
00000000
00000000
00000001
00001000
,
00000000
00000000
00000100
00000000
00000000
00011000
00000000
00000000
,
01000000
00010000
00000000
00100000
00000000
00000000
01000000
00000000
,
10010000
00000000
00000000
00010000
00000000
00100000
00010000
00000000
,
00000000
01000000
00000000
00001000
00010000
00000000
00000000
00011000
,
00000000
00000000
00000100
00000000
00001000
00000100
00000000
00000000
,
00001000
00000000
00000010
00001000
00000000
00000000
00000000
00000110
,
00000000
00000000
00000001
00000000
00000100
00000001
00000000
00000000
,
00001000
00000010
00000000
00000010
00001000
00000000
00000100
00020000
,
00000000
00000000
00001000
00000000
00000000
00030010
00000000
00011000
,
00000000
00000000
00000000
00000000
00100000
00010000
00100000
02000000
,
00000000
00000000
00000000
00000000
,
00000000
00000000
00000000
00000000
00000000
00000000
00000000
03000000
,
00000000
10000000
00100000
00000000
01000000
00000000
00010000
00000000
,
00000000
00100000
00001000
00000000
00010000
00000000
00000100
00001000
;

//--------------- dance-double - forcednature ----------------
#NOTEDATA:;
#STEPSTYPE:dance-double;
#DESCRIPTION:forcednature;
#DIFFICULTY:Hard;
#METER:12;
#RADARVALUES:0,0,0,0,0;
#CREDIT:forcednature;
#NOTES:
00000000
00000000
00000000
00000000
,
00000000
00000000
00000000
00000000
,
00000000
00000000
00000000
00000000
,
00000000
00000000
00000000
00000000
,
00000000
00000000
00000000
00000000
,
00000000
00000000
00000000
00000000
,
00000000
00000000
00000000
00000000
,
00000000
00000000
00000000
00000000
,
00000000
00000000
00000000
00000000
00010000
00001000
00010000
00000000
,
00011000
00000000
00000100
00001000
00000000
00000010
00001000
00000001
,
00000000
00000100
00000010
00001000
00000100
00010000
00000100
00001000
,
00000000
00000010
00010000
00001000
00000000
00100000
00010000
01000000
,
00000000
00000000
00100000
00000000
10000000
00000000
00010000
00000000
00100000
00000000
00000000
00100000
01000000
00000000
00000000
00000000
,
10010000
00000000
00010000
01000000
00000000
00001000
00010000
00001000
,
00000000
00010000
00000100
00001000
00000010
00001000
00000100
00000010
,
00000000
00000001
00000100
00001000
00000000
00010000
00001000
00011000
,
00000000
00000000
00000000
00101000
00000000
00100000
00010000
00000000
,
02010000
00000000
03000000
00100000
10000000
00000000
01000000
10000000
,
00000000
11000000
00000000
00010000
00100000
00001000
00010000
00001000
,
00000000
00010000
00000100
00000010
00000000
00000100
00001000
00000001
,
00000000
00000100
00000010
00000100
00001000
00010000
00001000
00000000
,
00011000
00000000
00100000
00010000
00000000
00110000
00000000
01010000
,
00000000
01000000
00100000
10000000
01000000
00000000
00010000
00000000
,
00011000
00000000
00001000
00000010
00000001
00000000
00000100
00000001
,
00002000
00000000
00003010
00000020
00000000
00000130
00000001
00000000
,
00002001
00000000
00003000
00000100
00010000
00000000
00001000
00010000
,
00000000
00011000
00000000
00100000
00010000
01000000
00010000
10000000
,
00000000
01000000
00010000
00001000
00000000
00100000
00010000
00100000
,
00000000
00001000
00010000
00000010
00001000
00000010
00001000
00000000
,
00001001
00000000
00000001
00000010
00000000
00000110
00000000
00001100
,
00000000
00001000
00000010
00000000
00010000
00001000
00100000
00020000
,
00000000
01030000
00100000
20000000
00000000
31000000
00010000
00001000
,
00200000
00320000
02030000
03002000
,
00013000
00000000
00010000
00000010
00001000
00000000
00001000
00000100
,
00000010
00000000
00000010
00000001
00000100
00000000
00001000
00000000
,
00010000
00000000
00010000
00100000
10000000
00000000
10000000
01000000
,
00100000
00000000
00100000
00001000
00010000
00000000
00000100
00000000
,
00002100
00000010
00003002
00000100
,
00000023
00000000
00002030
00000000
00013000
00010000
00001000
00000000
,
00011000
00000000
00010000
00100000
00000000
10000000
00100000
00000000
,
01000000
10000000
00000000
01000000
00010000
00100000
00001000
00010000
,
00000100
00000000
00000100
00001000
00000001
00000000
00000001
00000100
,
00001000
00000000
00001000
00010000
00100000
00000000
01000000
00000000
,
01100000
00000000
00100000
10000000
01000000
00000000
01000000
00010000
,
00001000
00000000
00001000
00000010
00000001
00000000
00000100
00000000
,
00001001
00000000
00001000
00000010
00000000
00000100
00001000
00000000
,
00010000
00100000
00000000
01000000
00010000
10000000
00100000
00000000
,
10010000
00000000
00010000
00100000
01000000
00010000
00001000
00000000
,
00000000
00011000
00010100
00002100
,
00000010
00000000
00003001
00000100
00000001
00000010
00000001
00001000
,
00000100
00001100
00010100
00012000
,
00100000
00000000
00013000
00001000
01000000
00001000
00010000
00001000
,
00000000
00100000
00010000
01000000
00100000
10000000
01000000
00010000
,
00001000
00000000
00100000
00010000
00000000
01010000
00000000
01001000
,
00000000
00001000
00010000
00000000
00000100
00001000
00000010
00000000
,
00000110
00000000
00000100
00001000
00000000
00000100
00000001
00000000
,
00000010
00000100
00001000
00000100
00010000
00000000
00021000
00000000
,
00000010
00000000
00031000
01000000
00010000
01000000
00100000
01000000
,
10000000
11000000
01010000
00210000
,
01000000
00000000
00310000
00100000
00001000
00010000
00000100
00010000
,
00000000
00001000
00000010
00000100
00001000
00000100
00000010
00000000
,
00000110
00000000
00000001
00000100
00000000
00001000
00000000
00010000
,
00000000
01000000
10000000
00010000
01000000
00010000
10000000
00000000
,
11000000
00000000
00010000
00100000
00000000
00001000
00000000
00011000
,
00000000
00010000
00000100
00001000
00000100
00010000
00000010
00000000
,
00001010
00000000
00001000
00001100
00000000
00000100
00010100
00000000
,
00010000
00011000
00000000
00001000
00100000
00000000
00010000
00000000
,
01010000
00000000
01000000
01100000
00000000
00100000
10100000
00000000
,
10000000
11000000
00000000
01000000
00100000
00000000
00001000
00000000
,
00012000
00000000
00000000
01000000
00000000
00000000
00010000
00000000
,
00000000
00103000
00000000
00000000
00001000
00000000
00010000
00000200
,
00000000
00000000
00001000
00000000
00000000
00000010
00000000
00000000
,
00001300
00000000
00000000
00000001
00000000
00000100
00000001
00000100
,
00000000
00001000
00000100
00000000
00001000
00010000
00000000
00100000
,
00010000
00000000
00100000
10000000
00000000
01000000
10000000
00010000
,
00000000
00100000
00001000
00000000
00010000
00001000
00000000
00010000
,
00000100
00001000
00000010
00010000
00000000
00011000
00000000
00001000
,
00000010
00000100
00000010
00001000
00010000
00001000
00000010
00000100
,
00000010
00001000
00000000
00001000
00010000
00000000
00100000
01000000
,
00100000
00010000
00001000
00010000
00100000
01000000
00100000
00010000
,
00001000
00010000
00000000
00000010
00001000
00000000
00000001
00000100
,
00001000
00000100
00001000
00010000
00001000
00010000
01000000
00010000
,
01000000
10000000
00100000
01000000
00010000
00100000
00001000
00021000
,
00000000
00000000
00000100
00000000
00000000
00031000
00001000
00000010
,
00000000
00000000
00000000
00000000
00000001
00000100
00001000
00020000
,
00000000
00000000
00000000
00000000
,
00000000
00000000
00000000
00000000
00000000
00000000
00000000
00030000
,
00000000
00000010
00000100
00001000
00010000
00000010
00000100
00000001
,
00001000
00000010
00000100
00001000
00010000
00100000
01000000
00010000
;

//--------------- dance-double - ----------------
#NOTEDATA:;
#STEPSTYPE:dance-double;
#DESCRIPTION:forcednature;
#CREDIT:forcednature;
#DIFFICULTY:Challenge;
#METER:15;
#RADARVALUES:0,0,0,0,0;
#NOTES:
00000000
00000000
00000000
00000000
,
00000000
00000000
00000000
00000000
,
00000000
00000000
00000000
00000000
,
00000000
00000000
00000000
00000000
,
00000000
00000000
00000000
00000000
,
00000000
00001000
00010000
00100000
01000000
00010000
10000000
01000000
,
00000000
00010000
00001000
00000010
00000100
00001000
00000001
00000010
,
00000000
00001000
00010000
01000000
00100000
00010000
10000000
01000000
,
00000000
00010000
00001000
00000100
00000010
00001000
00001001
00000000
,
00000001
00000000
00000010
00000000
00000001
00000000
00000100
00000001
00000100
00000000
00001000
00000000
00010000
00000000
00001000
00000000
,
00000000
00010000
01000000
10000000
00100000
01000000
00100000
10010000
,
00000000
00000000
10000000
00000000
00100000
00000000
01000000
00100000
01000000
00000000
00010000
00000000
00100000
00000000
01000000
00000000
,
00000000
00000000
00010000
00000000
00001000
00000000
00000100
00000000
00000010
00000100
00000010
00000100
00000001
00000000
00000000
00000000
,
00001000
00000000
00000100
00000000
00000010
00000000
00000100
00001000
00000100
00000000
00010000
00000000
00001000
00000000
00000010
00000000
,
00000000
00001000
00010000
00100000
01000000
00100000
10000000
10010000
,
00000000
00000000
00010000
00000000
00100000
00000000
01000000
10000000
01000000
00000000
10000000
00100000
10000000
00000000
00010000
00000000
,
00000000
00100000
01000000
00010000
00001000
00000010
00000100
00000000
,
00001002
00000000
00000013
00000000
00000001
00000100
00001000
00000100
,
00000000
00001000
00010000
00100000
10000000
00010000
01000000
01010000
,
00000000
00010000
00100000
01000000
00000000
00100000
00001000
00010000
,
00000000
00000000
00000100
00000000
00001000
00000000
00000010
00000000
00001000
00000001
00001000
00000001
00001000
00000000
00000000
00000000
,
00001002
00000000
00000103
00000010
00000000
00000100
00001000
00010000
,
00000000
00100000
01000000
00100000
10000000
00000000
01000000
00100000
,
00010000
00000000
00110000
00000000
10100000
00000000
10000000
00010000
,
00000000
00000000
01010000
00000000
00000000
00000000
01000000
00000000
00001000
00000000
00010000
00001000
00010000
00000000
00000000
00000000
,
00012000
00000000
00003010
00000000
00000100
00001000
00000001
00000100
,
00000000
00001000
00010000
00100000
01000000
00010000
10000000
10100000
,
00000000
00100000
01000000
10000000
00000000
01000000
00010000
01000000
,
00000000
00000000
00100000
00000000
10000000
00000000
01000000
00000000
00100000
00010000
00100000
00010000
00100000
00000000
00000000
00000000
,
00012000
00000000
00003010
00000100
00000000
00000010
00000001
00001000
,
00000000
00000000
00000010
00000000
00000100
00000000
00001000
00000000
00010000
00000000
00100000
00000000
01000000
00000000
00100000
10000000
,
00100000
00000000
01000000
00010000
00000000
00100000
01000000
00010000
,
00000000
00000000
00001000
00000000
00000010
00000000
00000001
00000010
00000001
00000000
00000100
00000010
00001000
00000000
00000000
00000000
,
00001001
00000000
00000001
00000100
00000001
00000100
00001000
00010000
,
01000000
10000000
01000000
00010000
00001000
00010000
00100000
00000000
,
10010000
00000000
10000000
01000000
10000000
01000000
00010000
00001000
,
00000100
00000001
00000100
00001000
00010000
00001000
00000010
00000000
,
00001002
00000000
00000000
00000000
00000013
00000000
00000100
00001000
00000200
00000000
00000000
00000000
00000310
00000000
00001000
00010000
,
00002000
00000000
00000000
00000000
01003000
00000000
00100000
00000000
10000000
00000000
01000000
00100000
00010000
00000000
00000000
00000000
,
20020000
00000000
30030000
00000000
00010000
01000000
00200000
00000000
00300000
00000000
10000000
01000000
00200000
00000000
00300000
00000000
,
00010000
01000000
00002000
00000000
00003000
00000000
00010000
00001000
00010000
00000000
00000010
00001000
00000100
00000000
00000000
00000000
,
00000110
00000000
00000010
00000001
00000100
00001000
00010000
01000000
,
10000000
00100000
10000000
01000000
00010000
00001000
01000000
00000000
,
01100000
00000000
00100000
10000000
01000000
00010000
00001000
00000100
,
00000001
00000010
00000001
00000100
00001000
00010000
00000100
00000000
,
00000110
00000000
00000000
00000000
00000010
00000000
00000001
00000000
00000100
00000000
00000010
00000100
00000010
00000000
00000000
00000000
,
00001000
00000000
00000100
00000000
00000010
00000000
00000100
00001000
00000100
00000000
00001000
00000010
00010000
00000000
00000000
00000000
,
00011000
00000000
00000000
00001000
00010000
00000000
00100000
00000000
01000000
00000000
00010000
00000000
01010000
00000000
00000000
00000000
,
00000000
00200000
01300000
20010000
,
31000000
00000000
00100000
00000000
00010000
00000000
01000000
00010000
01000000
00000000
00001000
00000000
00010000
00000000
00000010
00000000
,
00001000
00000100
00000001
00000100
00001000
00000000
00001020
00000000
,
00000130
00000000
00000001
00000000
00000010
00000000
00000100
00000010
00000100
00000000
00001000
00000000
00000010
00000000
00010000
00000000
,
00001000
00000010
00001000
00010000
00100000
00010000
00001000
01000000
,
00010000
00000000
00000000
00000000
00100000
00000000
01000000
00100000
00010000
00000000
01000000
00010000
01000000
00000000
00002000
00000000
,
00000000
00013000
00100000
10000000
00100000
01000000
00010000
00000000
,
01100000
00000000
00000000
00000000
01000000
00001000
00020000
00000000
00030000
00000000
00000100
00010000
00002000
00000000
00003000
00000000
,
00010000
00000000
00001000
00000000
00000010
00000000
00000100
00000010
00000001
00000000
00000100
00000010
00002000
00000000
00000000
00000000
,
00003001
00000000
00000100
00000000
00001000
00000000
00010000
00001000
00010000
00000000
00100000
00000000
01000000
00000000
00100000
00000000
,
10000000
01000000
00100000
00010000
01000000
00000000
10010000
00000000
,
10000000
00000000
01000000
00000000
00010000
00000000
00001000
00010000
00001000
00000000
00000010
00000000
00000100
00000000
00001000
00000000
,
00000001
00000010
00001000
00010000
00000010
00000100
00001000
00000000
,
00011000
00000000
00000000
00000000
00010000
00000000
00001000
00010000
00001000
00000000
00100000
00010000
00100000
00000000
00020000
00000000
,
00000000
01030000
00100000
10000000
01000000
00010000
00001000
00000000
,
00011000
00000000
00000000
00000000
00001000
00000000
00010000
00001000
00010000
00000000
00000010
00001000
00000010
00000000
00002000
00000000
,
00000000
00003100
00000010
00000001
00000100
00000000
00000110
00000000
,
00000001
00000000
00000100
00000001
00000100
00000000
00000010
00000000
00001000
00000010
00001000
00000000
00000100
00000000
00010000
00000100
,
00010000
00000000
00001000
00000000
00010000
00001000
00010000
00000000
00100000
00000000
00000000
00000000
01100000
00000000
00000000
00000000
,
10000000
00000000
01000000
10000000
01000000
00000000
00100000
00000000
00010000
00100000
00010000
00000000
01000000
00000000
00001000
01000000
,
00001000
00010000
00001000
00000010
00000100
00000000
00000110
00000000
,
00002001
00000000
00000000
00000100
00000000
00000000
00000001
00000000
,
00000000
00000100
00000000
00000000
00003001
00000010
00001000
00020000
,
00000000
00000000
00000100
00000000
00000000
00001000
00000000
00000000
,
00000010
00000000
00000000
00031000
00010000
00001000
01000000
00200000
,
00000000
00000000
10000000
00000000
00000000
01000000
00000000
00000000
,
00010000
00000000
00000000
01300000
00010000
10000000
01000000
00020000
,
00000000
00000000
00001000
00000000
00000000
00030010
00000000
00010000
,
00000100
00000000
00001000
00000000
00000000
00000000
00000001
00000000
00000100
00000000
00000010
00001000
00000001
00000000
00000010
00000001
,
00002000
00000000
00003001
00000010
00000100
00000010
00000100
00001000
,
00010000
00000000
00100000
00000000
01000000
00000000
00100000
00000000
01000000
00000000
10000000
00100000
01000000
00000000
00020000
00000000
,
00000000
10030000
00100000
01000000
00100000
01000000
00010000
00001000
,
00000010
00000000
00000100
00000000
00000010
00000000
00000100
00000000
00000001
00000000
00000010
00000100
00001000
00000000
00000002
00000000
,
00000000
00000103
00001000
00010000
00001000
00010000
00100000
10000000
,
01000000
00000000
00010000
00000000
00001000
00000000
00010000
00000000
00001000
00000000
00000010
00000100
00000010
00000000
00002002
00000000
,
00000000
00000000
00000000
00000000
00000000
00000000
00003003
00000000
00000001
00000000
00000100
00000010
00001000
00000000
00000100
00000000
,
00000000
00000000
00000000
00000000
00010000
00001000
00010000
00001000
00010000
00000000
00001000
00000000
00010000
00000000
02000000
00000000
,
00000000
00000000
00000000
00000000
,
00000000
00000000
00000000
00000000
00000000
00000000
00000000
03000000
,
00000000
10000000
01000000
00100000
00010000
01000000
00100000
00010000
,
00001000
00100000
00010000
00001000
00000100
00000010
00000110
00001001
;
