#VERSION:0.83;
#TITLE:君を壊したい;
#SUBTITLE:;
#ARTIST:新堂敦士;
#TITLETRANSLIT:Kimi wo kowashitai;
#SUBTITLETRANSLIT:;
#ARTISTTRANSLIT:Atsushi Shindo;
#GENRE:POWER FOLK 2;
#CREDIT:;
#MUSIC:Kimi wo kowashitai.ogg;
#BANNER:Kimi wo kowashitai.png;
#BACKGROUND:Kimi wo kowashitai-bg.png;
#CDTITLE:./CDTitles/pnm 4.png;
#SAMPLESTART:59.943;
#SAMPLELENGTH:15.000;
#SELECTABLE:YES;
#OFFSET:0.694;
#BPMS:0.000=133.007;
#STOPS:;
#TIMESIGNATURES:0.000=4=4;
#BGCHANGES:0.000=../BGAs/10di.mp4=1.000=0=0=0=StretchNoLoop====,
99999.000=-nosongbg-=1.000=0=0=0=StretchNoLoop====
;
#FGCHANGES:;

//--------------- dance-single - kaystar☆ + forcednature ----------------
#NOTEDATA:;
#STEPSTYPE:dance-single;
#DESCRIPTION:kaystar☆ + forcednature;
#DIFFICULTY:Beginner;
#METER:3;
#RADARVALUES:0,0,0,0,0;
#CREDIT:kaystar☆ + forcednature;
#NOTES:
0000
0000
0000
0000
,
0000
0000
0000
0000
,
0000
0000
0000
0000
,
0000
0000
0000
0000
,
1000
0000
0000
0000
,
0001
0000
0000
0000
,
0100
0000
0000
0000
,
0001
0000
0000
0000
,
1001
0000
0000
0000
,
1000
0000
0000
0000
,
0010
0000
0000
0000
,
1000
0000
1000
0000
,
0100
0000
0010
0000
,
0010
0000
0000
0000
,
1001
0000
0001
0000
,
0001
0000
0000
0000
,
0100
0000
0000
0000
,
0010
0000
0000
0000
,
1000
0000
0000
0000
,
0001
0000
0001
0000
,
0010
0000
0100
0000
,
0100
0000
0000
0000
,
1001
0000
0000
0000
,
1000
0000
1000
0000
,
0010
0000
0000
0000
,
0100
0000
0100
0000
,
0002
0000
0003
0000
,
0002
0000
0003
0000
,
0010
0000
0010
0000
,
0100
0000
0000
0000
,
1000
0000
0001
0000
,
0100
0000
0100
0000
,
0020
0000
0030
0000
,
1001
0000
0000
0000
,
0110
0000
1000
0000
,
0010
0000
0100
0000
,
0001
0000
0001
0000
,
0010
0000
0000
0000
,
0110
0000
0001
0000
,
0010
0000
0100
0000
,
1000
0000
1000
0000
,
0010
0000
0000
0000
,
1001
0000
0000
0000
,
0000
0110
0000
0000
,
1001
0000
0001
0000
,
0010
0000
0100
0000
,
0110
0000
1000
0000
,
1001
0000
0010
0000
,
0110
0000
0000
0000
,
0001
0000
1000
0000
,
1001
0000
0000
0000
,
0010
0000
0100
0000
,
0110
0000
0000
0000
,
1000
0000
0001
0000
,
1001
0000
0000
0000
;

//--------------- dance-single - kaystar☆ + forcednature ----------------
#NOTEDATA:;
#STEPSTYPE:dance-single;
#DESCRIPTION:kaystar☆ + forcednature;
#DIFFICULTY:Easy;
#METER:7;
#RADARVALUES:0,0,0,0,0;
#CREDIT:kaystar☆ + forcednature;
#NOTES:
0000
0000
0000
0000
,
0000
0000
0000
0000
,
0000
0000
0000
0000
,
0000
0000
0000
0000
,
1000
1000
0001
0100
,
0001
1000
0010
0000
,
0100
0100
0001
0010
,
0001
1000
0100
0000
,
0110
0000
0001
0000
,
0100
0100
0001
0000
,
1000
0000
0010
0000
,
1000
0100
1000
0010
,
0200
0300
0002
0003
,
0010
0000
0001
1000
,
1001
0000
0001
0010
,
0100
1000
0010
0000
,
0110
0000
0001
0010
,
0001
0000
0010
0100
,
1000
0000
0010
1000
,
0001
0100
0001
0100
,
0020
0030
2000
3000
,
0100
0000
1000
0001
,
1001
0000
1000
0010
,
0100
0001
0010
0000
,
0110
0000
1001
0000
,
1000
0010
0100
0000
,
1001
0000
0001
0001
,
0010
0001
1000
0000
,
0110
0000
1001
0000
,
0001
0100
0010
0000
,
1000
0001
1000
0000
,
0200
2300
3002
0023
,
0130
0000
0010
0001
,
0100
0000
0000
0010
0000
0000
0000
0110
0000
0000
0000
0000
0000
0000
0000
0000
,
1000
1001
0110
1000
,
0100
1001
0110
0001
,
0100
0010
1000
0010
,
0100
0010
0100
0000
0001
0000
0010
0000
,
0100
1001
0110
0001
,
0010
1001
0110
1000
,
0010
0000
1000
0000
0100
0000
1000
0001
,
2000
3020
0230
0302
,
0013
0010
0010
0000
,
0100
0100
0100
0000
,
1001
0001
0100
0010
,
1000
0001
1000
0000
0100
0000
0010
0000
,
0001
0110
1001
1000
,
0010
0100
0010
0000
1001
0000
1000
0000
,
0100
1000
0001
0010
,
0100
0010
0100
0000
1000
0000
0001
0000
,
1001
0000
1000
0010
,
0100
0000
0001
0000
1000
0001
1000
0000
,
1001
0000
0001
0010
,
0001
0000
1000
0000
0001
0000
0000
0000
0100
0000
0000
0000
0010
0000
0000
0110
;

//--------------- dance-single - kaystar☆ + forcednature ----------------
#NOTEDATA:;
#STEPSTYPE:dance-single;
#DESCRIPTION:kaystar☆ + forcednature;
#DIFFICULTY:Medium;
#METER:11;
#RADARVALUES:0,0,0,0,0;
#CREDIT:kaystar☆ + forcednature;
#NOTES:
0000
0000
0000
0000
,
0000
0000
0000
0000
,
0000
0000
0000
0000
,
0000
0000
0000
0000
,
0001
0001
0001
0000
0100
0010
1000
0000
,
0001
0010
0100
0000
0010
0000
1001
0000
,
1000
1000
0010
0010
1000
0000
0001
0100
,
0010
2000
0000
0000
3100
0000
0110
0000
,
1001
0000
0001
0100
0001
1000
0010
0000
,
1000
0000
0100
1000
0001
0010
0001
0000
,
1000
0010
0100
0000
0001
0010
0100
0000
,
0010
0001
1000
0010
1000
0001
0010
0001
,
0200
0000
0320
0000
1030
0002
0000
0203
,
0000
0300
0010
0000
1000
0001
0010
0000
,
0110
0000
0000
0000
1000
0000
0100
0000
1000
0000
0000
0010
0000
0000
0000
0000
,
0100
0001
0001
0100
0001
0100
0010
0000
,
1001
0000
1000
0100
1000
0001
0010
0000
,
0001
0100
0001
0000
1000
0100
0010
0000
,
0100
1000
1000
0001
0100
0001
1000
0000
,
0010
0100
0001
0010
0100
1000
0010
0100
,
0002
0000
0023
0000
0130
2000
0000
3020
,
0000
0130
0001
0000
0100
0010
1000
0000
,
1001
0000
0000
0000
0001
0000
0010
0000
0001
0000
0000
0100
0000
0000
0000
0000
,
0010
0000
1000
0000
1000
0000
0010
0000
0100
0000
0000
0001
0000
0000
0000
0000
,
0012
0000
1003
0100
2000
0000
3001
0100
,
0001
1000
0010
0100
0000
0002
0000
0013
,
0110
0000
0000
0000
1000
0000
0100
1000
0000
0000
0001
0000
0010
0000
0000
0000
,
0001
0000
0100
0000
0001
0000
0100
0001
0000
0000
1000
0000
0010
0000
0000
0000
,
1002
0000
1003
0100
0002
0000
0103
1000
,
0001
0010
0001
1000
0000
0100
2000
0000
,
3010
0100
0001
0000
0001
0100
1000
0000
,
0200
0000
0000
0000
0301
0000
0000
0010
0000
0000
0100
0000
1000
0000
0000
0000
,
0010
0000
0000
0100
0000
0100
0000
0001
0000
0000
0010
0000
0010
0000
0000
0000
,
0100
1000
0000
1000
0000
0010
0000
2002
0000
0000
3003
0000
0000
0000
0000
0000
,
1000
0000
0100
0000
1100
0000
0000
1001
0000
0000
0001
0000
0010
0000
0100
0000
,
1000
0000
0001
0000
0101
0000
0000
1001
0000
0000
1000
0000
0010
0000
0100
0000
,
0001
0010
1000
0010
0001
0000
1000
0100
,
0010
0001
0100
1000
0100
0001
0010
0100
,
1000
0000
0001
0000
0011
0000
0000
1001
0000
0000
1000
0000
0100
0000
0010
0000
,
0001
0000
1000
0000
1010
0000
0000
1001
0000
0000
0001
0000
0100
0000
0010
0000
,
1000
0100
0001
0100
1000
0002
0000
0013
,
0011
0101
1010
1100
,
2002
3003
0000
0000
,
0000
0000
2002
0000
3003
0001
0100
0010
,
1000
0100
0001
0100
1000
0001
0010
0001
,
1000
0010
0100
0001
0010
1000
0010
0001
,
1000
0000
0100
0000
0110
0000
0000
1001
0000
0000
0001
0000
0010
0000
0001
0000
,
0100
0000
0100
0000
0110
0000
0000
1001
0000
0000
0001
0000
0010
0000
0100
0000
,
1000
0001
0100
1000
0100
0002
0000
0003
,
1000
0100
0010
0001
0100
0000
0110
0000
,
0010
1000
0001
0000
0010
0001
1000
0000
,
0100
1000
0001
0000
0100
0001
1000
0001
,
1000
0010
0100
0010
1000
0100
0001
0100
,
1000
0000
0001
0000
0010
0000
0001
0000
0100
0000
1000
0000
0100
0000
0001
2000
,
0000
3000
0000
0000
0000
0000
0000
0000
;

//--------------- dance-single - kaystar☆ + forcednature ----------------
#NOTEDATA:;
#STEPSTYPE:dance-single;
#DESCRIPTION:kaystar☆ + forcednature;
#DIFFICULTY:Hard;
#METER:14;
#RADARVALUES:0,0,0,0,0;
#CREDIT:kaystar☆ + forcednature;
#NOTES:
0000
0000
0000
0000
,
0000
0000
0000
0000
,
0000
0000
0000
0000
,
0000
0000
0000
0000
,
0001
0000
0100
0001
0100
0000
0001
0000
1000
0010
0000
1000
0000
0100
0000
0000
,
1000
0000
1000
0000
0001
0010
0000
0010
0000
0000
0001
0000
0100
0000
0010
0000
,
1000
0001
1000
0000
0001
1000
0001
0000
0100
0010
0000
1000
0000
0100
1000
0000
,
0001
0200
0000
0301
0010
0100
1000
0000
,
1001
0000
0000
0001
0100
0000
1000
0000
0100
0000
0001
0000
0010
0000
0000
0000
,
1001
0000
0000
1000
0100
0000
0001
0000
0100
0000
1000
0000
0010
0000
0000
0000
,
1000
0000
0001
0100
0001
0000
1000
0100
0000
0100
0010
0000
0001
0000
1000
0000
,
0010
1000
0001
0000
0001
0000
0100
0001
1000
0000
1000
0000
0100
1000
0100
0000
,
0020
0000
0001
0000
0230
0000
1000
0000
0310
0001
1000
0000
0010
0000
0210
0000
,
0000
0000
0301
0000
0100
0000
0010
1000
0000
0001
0100
0000
0001
0010
0000
0100
,
1000
0000
0001
0000
0001
0000
1000
0000
0010
0100
0000
0001
0000
1000
0100
1000
,
0100
0000
1000
0001
0100
0000
0001
0010
0001
0010
0000
0100
1000
0000
0001
0000
,
1001
0000
0000
1000
0010
0000
0001
0000
0010
0000
1000
0000
0100
0000
0000
0000
,
1001
0000
0000
0001
0010
0000
1000
0000
0010
0000
0001
0000
0100
0000
0000
0000
,
0110
0000
1000
0000
1000
0000
0010
0100
0000
0010
0100
0000
0001
0000
1000
0000
,
0100
0010
0001
0000
0001
0000
0100
0010
1000
0000
1000
0000
0100
0010
0001
0000
,
0200
0000
0001
0000
0320
0000
1000
0000
0130
0001
1000
0000
0100
0000
0120
0000
,
0000
0000
0031
0000
0010
0000
0100
1000
0000
0001
0100
0000
0010
1000
0000
0001
,
0010
0000
0001
0000
0001
0000
1000
0000
0100
1000
0000
1000
0000
0001
0100
0001
,
0100
0000
0001
1000
0100
0000
1000
0010
1000
0010
0100
0000
0001
0000
0010
0000
,
0210
0000
1300
0010
0210
0000
0301
0100
,
0010
1000
0001
0020
0000
1030
0010
0100
,
1100
0000
0000
0000
0001
0100
0000
1000
0000
0100
0001
0100
0001
1000
0000
0000
,
0010
0000
0010
0000
1000
0100
0000
0001
0000
0100
1000
0100
1000
0001
0000
0000
,
0201
0000
0310
1000
1200
0000
0310
0001
,
1000
0010
0100
0001
0000
0010
0100
1000
,
0001
0100
2000
0000
3100
0010
1010
0000
,
1000
0000
0000
1000
0100
0000
0000
0100
0010
0000
0001
0000
0200
0000
0000
0300
,
0010
0100
0000
0001
0000
0001
0000
0010
0000
0001
1000
0100
1000
0001
0000
0100
,
0010
1000
0000
1000
0000
1000
0000
0220
0000
0000
0330
0000
0000
0000
0000
0000
,
1000
0000
0001
0000
0101
0000
0000
0100
0010
0000
1000
0000
0100
1000
0100
0000
,
1000
0000
0001
0000
0010
0000
0000
0010
0001
0000
0100
0000
0010
1000
0010
1000
,
0000
0100
0001
0100
1000
0010
0100
0001
,
0010
0000
0010
0000
0001
1000
0000
0001
1000
0000
0010
0000
0100
0000
0001
0000
,
1000
0000
0000
0000
1100
0000
0000
0100
0010
0000
0001
0000
0100
0001
0100
0000
,
0001
0000
1000
0000
0010
0000
0000
0010
0100
0000
0001
0000
0010
0001
0010
0001
,
0000
0000
1001
0000
1000
0000
0001
0100
0000
0100
2000
0000
0000
0000
3100
0000
,
1100
0101
0011
1100
,
2002
3003
0001
0000
0001
0000
1000
0000
,
1000
0000
0000
0000
2002
0000
3003
0000
0001
0100
0000
0010
1000
0001
1000
0010
,
0000
0000
1000
0000
0001
0000
0010
1000
0000
0010
0100
0000
1000
0000
0001
0000
,
0100
0000
1000
0000
0100
0010
0000
0100
0001
0000
1000
0000
0100
0000
0010
0000
,
0001
0000
0100
0000
0110
0000
0000
0001
1000
0000
0100
0000
0010
0001
0010
0001
,
1000
0000
1010
0000
0101
0000
0000
0000
0001
0000
0010
0000
0100
1000
0100
1000
,
0000
0000
1001
0000
0001
0000
1000
0010
0000
0010
0002
0000
0000
0000
0013
0000
,
1000
0100
0010
0001
1000
0000
2002
3003
,
0001
0010
0000
0010
0100
0000
1000
0010
0000
0010
0100
0000
0001
0000
0010
0000
,
0001
0100
0000
0100
0010
0000
1000
0000
0100
0010
0100
0010
0001
1000
0001
1000
,
0100
0000
1000
0000
1010
0000
0010
0100
0000
0001
0010
0000
0011
0000
0001
1000
,
0000
0010
0100
0000
0110
0000
0010
0001
0000
0010
1000
0000
0001
0010
0100
1000
;

//--------------- dance-double - kaystar☆ + forcednature ----------------
#NOTEDATA:;
#STEPSTYPE:dance-double;
#DESCRIPTION:kaystar☆ + forcednature;
#DIFFICULTY:Easy;
#METER:7;
#RADARVALUES:0,0,0,0,0;
#CREDIT:kaystar☆ + forcednature;
#NOTES:
00000000
00000000
00000000
00000000
,
00000000
00000000
00000000
00000000
,
00000000
00000000
00000000
00000000
,
00000000
00000000
00000000
00000000
,
00001000
00001000
00010000
00000100
,
00001000
00000100
00001000
00000000
,
00000001
00000010
00000100
00000010
,
00000001
00001000
00000100
00000000
,
00011000
00000000
00100000
00000000
,
00010000
00010000
00100000
00000000
,
01000000
00000000
10000000
00000000
,
00100000
01000000
00100000
01000000
,
00020000
00030000
00200000
00300000
,
00001000
00000000
00010000
00001000
,
00011000
00000000
00000100
00001000
,
00000010
00000100
00000001
00000000
,
00001001
00000000
00001000
00000100
,
00010000
00000000
00001000
00100000
,
00010000
00000000
01000000
00100000
,
10000000
00010000
01000000
00100000
,
20000000
30000000
02000000
03000000
,
00100000
00000000
00001000
00010000
,
00011000
00000000
00000100
00001000
,
00000010
00000100
00000001
00000000
,
00000110
00000000
00001001
00000000
,
00001000
00000100
00010000
00000000
,
00011000
00000000
00001000
00001000
,
00100000
00010000
00100000
00000000
,
01100000
00000000
10010000
00000000
,
00010000
01000000
00001000
00000000
,
00010000
00001000
00010000
00000000
,
00000020
00002030
00003002
00000203
,
00000310
00000000
00001000
00001000
,
00000100
00000000
00000000
00000100
00000000
00000000
00000000
00011000
00000000
00000000
00000000
00000000
00000000
00000000
00000000
00000000
,
00100000
00010000
01100000
10000000
,
00010000
01000000
00011000
00001000
,
00010000
00000100
00001000
00000010
,
00000100
00000010
00000100
00000000
00000001
00000000
00000010
00000000
,
00000100
00010000
00011000
00000010
,
00001000
00000100
00000110
00001000
,
00000010
00000000
00010000
00000000
00001000
00000000
00100000
00010000
,
00200000
02300000
23000000
30020000
,
00130000
00100000
00100000
00000000
,
00001000
00010000
00011000
00000000
,
00000100
00001000
00000010
00001000
,
00000001
00001000
00000001
00000000
00000010
00000000
00000100
00000000
,
00010000
00001000
00011000
00100000
,
00010000
10000000
00010000
00000000
10010000
00000000
10000000
00000000
,
00100000
01000000
00010000
00100000
,
00001000
00010000
00001000
00000000
00010000
00000000
00000100
00000000
,
00011000
00000000
00000010
00001000
,
00000001
00000000
00000100
00000000
00000010
00000100
00000010
00000000
,
00001001
00000000
00001000
00000100
,
00010000
00000000
00000000
00000000
00001000
00000000
00000000
00000000
00100000
00000000
00000000
00000000
00010000
00000000
00000000
01100000
;

//--------------- dance-double - kaystar☆ + forcednature ----------------
#NOTEDATA:;
#STEPSTYPE:dance-double;
#DESCRIPTION:kaystar☆ + forcednature;
#DIFFICULTY:Medium;
#METER:11;
#RADARVALUES:0,0,0,0,0;
#CREDIT:kaystar☆ + forcednature;
#NOTES:
00000000
00000000
00000000
00000000
,
00000000
00000000
00000000
00000000
,
00000000
00000000
00000000
00000000
,
00000000
00000000
00000000
00000000
,
00010000
00010000
00010000
00000000
00001000
00100000
00010000
00000000
,
10000000
00010000
01000000
00010000
10000000
01000000
00200000
00000000
,
00301000
00001000
00001000
00000000
00010000
00000010
00001000
00000000
,
00000001
00000200
00000000
00001300
00010000
00000010
00001000
00000100
,
00010000
00000000
00011000
00000000
00001000
01000000
00010000
00000000
,
10010000
00000000
10000000
00000000
01000000
00010000
00001000
00000000
,
00011000
00000000
00010000
00000010
00001000
00000000
00000001
00000000
,
00000010
00000100
00001000
00000010
00000100
00001000
00010000
00000000
,
00002000
01000000
00010000
00100000
,
00013000
00000000
00001000
01000000
00010000
10000000
00010000
00100000
,
00001000
00000000
00010000
00010000
00010000
00000000
00001000
00000000
,
00010000
00000010
00001000
00000001
00001000
00000100
00010000
00000000
,
00001000
00000000
00011000
00000000
00010000
00000010
00001000
00000000
,
00001001
00000000
00000001
00000000
00000010
00001000
00010000
00000000
,
00011000
00000000
00001000
01000000
00010000
00000000
10000000
00000000
,
01000000
00100000
00010000
01000000
00100000
00010000
00001000
00000000
,
00020000
00000010
00001000
00000100
,
00031000
00000000
00010000
00000010
00001000
00000001
00000100
00000010
,
00010000
00000000
00001000
00001000
00001000
00000000
00010000
00000000
,
00001000
00100000
00010000
10000000
01000000
00100000
00001000
00000000
,
00020000
00000100
00032000
01000000
,
00013000
00000000
00000010
00002000
00000000
00003002
00000000
00000013
,
00001001
00000000
00001000
00000010
00010000
00001000
01000000
00000000
,
00001000
00000000
00100000
00001000
00010000
00000100
00010000
00000000
,
00002000
00100000
00023000
00000010
,
00031000
00000000
01000000
00020000
00000000
20030000
00000000
31000000
,
00100000
00010000
02000000
00000000
03100000
10000000
01000000
00000000
,
00020000
00000000
00032000
00000000
00103000
00001000
00011000
00000000
,
00000100
00000000
00000000
00001000
00000000
00001000
00000000
00000010
00000000
00000000
00000100
00000000
00000001
00000000
00000000
00000000
,
00000010
00000100
00000000
00000100
00000000
00010000
00000000
00002000
00000000
00000000
00003000
00000000
00000000
00000000
00000000
00000000
,
00100000
00000000
00010000
00000000
01000000
00000000
00000000
00011000
00000000
00000000
00000100
00000000
00001000
00000000
00000000
00000000
,
00000010
00000000
00001000
00000000
00000100
00000000
00000000
00011000
00000000
00000000
01000000
00000000
00010000
00000000
00000000
00000000
,
00100000
01000000
00010000
00000000
00001000
00000010
00000100
00000000
,
00001000
00000001
00000100
00001000
00010000
00000000
00000100
00001000
,
00000010
00000000
00000100
00000000
00001000
00000000
00000000
00011000
00000000
00000000
01000000
00000000
00010000
00000000
00000000
00000000
,
00100000
00000000
01000000
00000000
00010000
00000000
00000000
00011000
00000000
00000000
00000100
00000000
00001000
00000000
00000000
00000000
,
00000010
00000100
00001000
00000000
00010000
00100000
01000000
00000000
,
00020000
20030000
32000000
03010000
,
00022000
00033000
00000000
00000000
,
00000000
00000000
00000220
00000000
00000330
00000001
00000001
00000100
,
00001000
00000000
00010000
00001000
00010000
00100000
10000000
00000000
,
01000000
00010000
00001000
00100000
00010000
00000000
00100000
00001000
,
00010000
00000000
00000100
00000000
00000100
00000000
00000000
00011000
00000000
00000000
00100000
00000000
00001000
00000000
00000000
00000000
,
01000000
00000000
01000000
00000000
01000000
00000000
00000000
00011000
00000000
00000000
00000010
00000000
00001000
00000000
00000001
00000000
,
00000100
00000000
00001000
00010000
00001000
00100000
00010000
00000000
,
10000000
01000000
00010000
00001000
00100000
00000000
00110000
00000000
,
00001000
00010000
00000010
00000000
00001000
00000010
00010000
00000000
,
00001000
00000010
00000001
00000000
00000100
00000001
00000100
00000001
,
00001000
00000010
00010000
00000000
00001000
01000000
00010000
00000000
,
00100000
00000000
01000000
00000000
00010000
00000000
00001000
00000000
00100000
00000000
00010000
00000000
10000000
00000000
00000000
20200000
,
00000000
30300000
00000000
00000000
00000000
00000000
00000000
00000000
;

//--------------- dance-double - kaystar☆ + forcednature ----------------
#NOTEDATA:;
#STEPSTYPE:dance-double;
#DESCRIPTION:kaystar☆ + forcednature;
#DIFFICULTY:Hard;
#METER:14;
#RADARVALUES:0,0,0,0,0;
#CREDIT:kaystar☆ + forcednature;
#NOTES:
00000000
00000000
00000000
00000000
,
00000000
00000000
00000000
00000000
,
00000000
00000000
00000000
00000000
,
00000000
00000000
00000000
00000000
,
00011000
00000000
00000000
00001000
01000000
00000000
00010000
00000000
10000000
01000000
00000000
10000000
00000000
00010000
00000000
00000000
,
10000000
00000000
10000000
00000000
00100000
01000000
00000000
01000000
00000000
00000000
00001000
00000000
00010000
00000000
00001000
00000000
,
00100000
00000000
00000000
00001000
00010000
00000000
00000010
00000000
00001000
00000100
00000000
00001000
00000000
00000001
00000000
00000000
,
00000100
00000020
00000000
00001030
00000001
00000010
00000100
00010000
,
00011000
00000000
00000000
00100000
00010000
00000000
10000000
00000000
01000000
00000000
00010000
00000000
00001000
00000000
00000000
00000000
,
00011000
00000000
00000000
00010000
00000010
00000000
00001000
00000000
00000001
00000000
00000100
00000000
00001000
00000000
00000000
00000000
,
00010000
00000000
00001000
00000000
01000000
00000000
00000000
00010000
00000000
00010000
00100000
00000000
00001000
00000000
00010000
00000000
,
00000100
00001000
00000100
00000000
00010000
00000000
00000100
00001000
00000100
00000000
00010000
00000000
00011000
00000000
00000000
00000000
,
00002000
00003200
00000302
00000023
,
00001030
00000000
00000000
00000000
00010000
00000000
00001000
00010000
00000000
00000000
01000000
00000000
00010000
00001000
00000000
00000000
,
00011000
00000000
00010000
00000010
00010000
00000000
00001000
00000000
00010000
00001000
00000000
01000000
00000000
00000000
00001000
00000000
,
00010000
00000100
00010000
00000100
00001000
00000000
00000001
00001000
00000001
00001000
00000010
00000000
00010000
00000000
00001000
00000000
,
00011000
00000000
00000000
00000100
00001000
00000000
00000001
00000000
00000010
00000000
00001000
00000000
00010000
00000000
00000000
00000000
,
00011000
00000000
00000000
00001000
01000000
00000000
00010000
00000000
10000000
00000000
00100000
00000000
00010000
00000000
00000000
00000000
,
00001000
00000000
00010000
00000000
00000010
00000000
00000000
00001000
00000000
00001000
00000100
00000000
00010000
00000000
00001000
00000000
,
00100000
00010000
00100000
00000000
00001000
00000000
00100000
00010000
00100000
00000000
00001000
00000000
00011000
00000000
00000000
00000000
,
00020000
00230000
20300000
32000000
,
03010000
00000000
00000000
00000000
00001000
00000000
00010000
00001000
00000000
00000000
00000010
00000000
00001000
00010000
00000000
00000000
,
00011000
00000000
00001000
00100000
00001000
00000000
00010000
00000000
00001000
00010000
00000000
00000100
00000000
00000000
00010000
00000000
,
00001000
01000000
00001000
01000000
00010000
00000000
10000000
00010000
10000000
00010000
00100000
00000000
00001000
00000000
00011000
00000000
,
00020000
00000000
00030100
00010000
00002000
00000000
01003000
00010000
,
10000000
01000000
00010000
00002000
00000000
00003020
00000000
00000031
,
00001000
00000000
00000010
00000000
00000010
00000000
00010000
00001000
00000000
01000000
00010000
01000000
00001000
00010000
00000000
00000000
,
00001000
00000000
00100000
00000000
00100000
00000000
00001000
00010000
00000000
00000100
00001000
00000100
00010000
00001000
00000000
00000000
,
00012000
00000000
00103000
00001000
00020000
00000000
00030010
00001000
,
00000001
00000010
00001000
00020000
00000000
00030200
00000000
00001300
,
00000001
00000100
00002000
00000000
00013000
01000000
10000000
00000000
,
00010000
00000000
00000000
00010000
00100000
00000000
00000000
00100000
00001000
00000000
00010000
00000000
00011000
00000000
00000000
00000000
,
00000010
00010000
00000000
00001000
00000000
00001000
00000000
00000010
00000000
00000100
00001000
00000001
00000010
00000001
00000000
00000000
,
00000100
00001000
00000000
00010000
00000000
00010000
00000000
00022000
00000000
00000000
00033000
00000000
00000000
00000000
00000000
00000000
,
00001000
00000000
00000010
00000000
00000110
00000000
00000000
00001000
00000001
00000000
00000100
00000000
00001000
00010000
00001000
00000000
,
00010000
00000000
00100000
00000000
01100000
00000000
00000000
00010000
10000000
00000000
01000000
00000000
00010000
00000000
00001000
00010000
,
00000000
00001000
00000010
00000001
00000100
00001000
00000100
00000001
,
00000010
00000000
00001000
00000000
00010000
01000000
00000000
02000000
00000000
00000000
13000000
00000000
00100000
00000000
00010000
00000000
,
00001000
00000000
00000100
00000000
00000110
00000000
00000000
00001000
00000001
00000000
00000100
00000000
00001000
00010000
00001000
00000000
,
00010000
00000000
01000000
00000000
01100000
00000000
00000000
00010000
10000000
00000000
01000000
00000000
00010000
00000000
00001000
00010000
,
00000000
00000000
00001100
00000000
00000001
00000000
00000010
00001000
00000000
00001000
00010000
00000000
00001000
00000000
00000100
00000000
,
00000020
00002030
00203000
20300000
,
30010000
01000000
00001000
00000000
00010000
00000000
00000010
00000000
,
00001000
00000000
00000100
00000000
00010000
00000000
00000000
00001000
00100000
00000000
00010000
00000000
10000000
00010000
10000000
00100000
,
00000000
00000000
00010000
00000000
00001000
00000000
01000000
00010000
00000000
00010000
00100000
00000000
01000000
00000000
00010000
00000000
,
00001000
00000000
00000010
00000000
00000100
00001000
00000000
00001000
00000010
00000000
00001000
00000000
00010000
00000000
01000000
00000000
,
00100000
00000000
10100000
00000000
10010000
00000000
00000000
00010000
00100000
00000000
00001000
00000000
00010000
00001000
00010000
00000000
,
00000100
00000000
00001100
00000000
00001001
00000000
00000000
00000000
00000001
00000000
00000100
00000000
00001000
00000000
00010000
00001000
,
00000000
00000000
01010000
00000000
10000000
00000000
00100000
00010000
00000000
00010000
00001000
00000000
00010000
00000000
01000000
00000000
,
00000000
02100000
03020000
00032000
00003020
00000030
00000110
00000000
,
00000010
00000001
00000000
00001000
00000010
00000000
00010000
00001000
00000000
00001000
01000000
00000000
00010000
00000000
00100000
00000000
,
01000000
10000000
00000000
00010000
01000000
00000000
00001000
00000000
00100000
00001000
00100000
00001000
00010000
00000100
00010000
00000100
,
00001000
00000000
00000001
00000000
00000101
00000000
00000100
00000001
00000000
00000010
00001000
00000000
00011000
00000000
00010000
01000000
,
00000000
10000000
00100000
00000000
10100000
00000000
00100000
00010000
00000000
00001000
00000100
00000000
00000010
00001000
00000001
00000010
;
