#VERSION:0.83;
#TITLE:君のハートにロックオン;
#SUBTITLE:;
#ARTIST:Dr.Honda;
#TITLETRANSLIT:Kimi no heart ni lock-on;
#SUBTITLETRANSLIT:;
#ARTISTTRANSLIT:;
#GENRE:トレンディーフュージョン;
#CREDIT:;
#MUSIC:Kimi no heart ni lock-on.ogg;
#BANNER:Kimi no heart ni lock-on.png;
#BACKGROUND:Kimi no heart ni lock-on-bg.png;
#CDTITLE:./CDTitles/bm IIDX 19 Lincle.png;
#SAMPLESTART:8.184;
#SAMPLELENGTH:15.000;
#SELECTABLE:YES;
#OFFSET:1.043;
#BPMS:0.000=260.000;
#STOPS:;
#TIMESIGNATURES:0.000=4=4;
#BGCHANGES:0.000=Kimi no heart ni lock-on.mp4=1.000=0=0=0=StretchNoLoop====,
99999.000=-nosongbg-=1.000=0=0=0=StretchNoLoop====
;
#FGCHANGES:;

//--------------- dance-single - forcednature ----------------
#NOTEDATA:;
#STEPSTYPE:dance-single;
#DESCRIPTION:forcednature;
#DIFFICULTY:Beginner;
#METER:4;
#RADARVALUES:0,0,0,0,0;
#CREDIT:forcednature;
#NOTES:
0000
0000
0000
0000
,
0000
0000
0000
0000
,
0000
0000
0000
0000
,
0000
0000
0000
0000
,
0000
0000
0000
0000
,
0000
0000
0000
0000
,
0001
0000
0000
0000
,
0000
0000
0000
0000
,
1000
0000
0000
0000
,
1000
0000
0000
0000
,
0010
0000
0000
0000
,
0010
0000
0000
0000
,
0100
0000
0000
0000
,
0001
0000
0000
0000
,
0100
0000
0000
0000
,
0100
0000
0000
0000
,
0010
0000
0000
0000
,
1000
0000
0000
0000
,
0001
0000
0010
0000
,
0001
0000
0010
0000
,
0100
0000
1000
0000
,
0100
0000
1000
0000
,
0001
0000
0100
0000
,
0001
0000
0100
0000
,
0010
0000
1000
0000
,
0010
0000
1000
0000
,
0002
0000
0000
0000
,
0000
0000
0000
0000
,
0000
0000
0000
0000
,
0000
0000
0000
0000
,
0000
0000
0000
0000
,
0000
0000
0000
0000
,
0000
0000
0000
0000
,
0003
0000
0000
0000
,
1000
0000
0000
0000
,
1000
0000
0000
0000
,
0100
0000
0000
0000
,
0000
0000
0000
0000
,
1000
0000
0010
0000
,
1000
0000
0010
0000
,
0100
0000
0000
0000
,
0001
0000
0000
0000
,
1001
0000
0000
0000
,
1000
0000
0100
0000
,
1000
0000
0000
0000
,
0010
0000
0100
0000
,
0001
0000
0010
0000
,
0001
0000
0010
0000
,
0200
0000
0000
0300
,
1000
0000
0000
0000
,
2002
0000
0000
0000
,
0000
0000
0000
0000
,
0000
0000
0000
0000
,
0000
0000
0000
0000
,
0000
0000
0000
0000
,
0000
0000
0000
0000
,
0000
0000
0000
0000
,
3003
0000
0000
0000
,
0001
0000
0001
0000
,
0100
0000
0001
0000
,
0010
0000
0100
0000
,
1000
0000
0100
0000
,
1000
0000
1000
0000
,
0010
0000
1000
0000
,
0200
0000
0000
0000
,
0000
0000
0300
0000
,
1001
0000
0000
0000
,
0000
0000
0000
0000
,
0001
0000
0000
0000
,
0000
0000
0000
0000
,
0100
0000
0000
0000
,
0000
0000
0000
0000
,
0010
0000
0000
0000
,
0000
0000
0000
0000
,
2000
0000
0000
0000
,
3000
0000
0000
0000
,
0200
0000
0000
0000
,
0300
0000
0000
0000
,
0020
0000
0000
0000
,
0030
0000
0000
0000
,
0002
0000
0003
0000
,
2000
0000
3000
0000
,
0001
0000
0001
0000
,
0100
0000
0001
0000
,
0001
0000
0001
0000
,
0100
0000
0001
0000
,
1000
0000
0100
0000
,
0010
0000
0001
0000
,
1000
0000
0100
0000
,
0010
0000
0001
0000
,
1000
0000
1000
0000
,
0010
0000
1000
0000
,
1000
0000
1000
0000
,
0010
0000
1000
0000
,
0001
0000
0010
0000
,
0100
0000
1000
0000
,
0020
0000
0030
0000
,
0200
0000
0300
0000
,
1001
0000
0000
0000
,
0001
0000
0000
0000
,
0100
0000
0001
0000
,
0100
0000
0000
0000
,
0010
0000
0000
0000
,
1000
0000
0000
0000
,
0100
0000
1000
0000
,
0100
0000
0000
0000
,
0010
0000
0010
0000
,
0001
0000
0000
0000
,
0100
0000
0100
0000
,
0010
0000
0000
0000
,
1000
0000
1000
0000
,
0100
0000
0000
0000
,
0010
0000
0001
0000
,
1000
0000
0010
0000
,
0200
0000
0000
0000
,
0000
0000
0000
0000
,
0000
0000
0000
0000
,
0000
0000
0000
0000
,
0000
0000
0000
0000
,
0000
0000
0000
0000
,
0000
0000
0000
0000
,
0300
0000
0000
0000
,
0001
0000
0001
0000
,
1000
0000
0000
0000
,
0100
0000
0100
0000
,
1000
0000
0000
0000
,
0010
0000
0100
0000
,
0001
0000
1000
0000
,
0100
0000
0010
0000
,
0001
0000
2000
0000
,
0000
0000
0000
0000
,
0000
0000
0000
0000
,
0000
0000
0000
0000
,
0000
0000
0000
0000
,
0000
0000
0000
0000
,
3000
0000
0000
0000
;

//--------------- dance-single - forcednature ----------------
#NOTEDATA:;
#STEPSTYPE:dance-single;
#DESCRIPTION:forcednature;
#DIFFICULTY:Easy;
#METER:8;
#RADARVALUES:0,0,0,0,0;
#CREDIT:forcednature;
#NOTES:
0000
0000
0000
0000
,
0000
0000
0000
0000
,
0000
0000
0000
0000
,
0000
0000
0000
0000
,
0000
0000
0000
0000
,
0000
0000
0000
0000
,
0001
0000
0001
1000
,
0001
0000
0100
0000
,
0002
0003
0020
0030
,
0200
0300
2000
3000
,
0001
0100
0001
0000
,
0100
0001
0100
0000
,
0010
1000
0001
0000
,
0010
0001
1000
0000
,
0100
1000
0100
0000
,
1000
0100
1000
0000
,
0010
1000
0001
0000
,
0010
0001
1000
0000
,
0010
0100
0010
0100
,
0001
1000
0001
1000
,
0100
0010
0100
0010
,
0001
1000
0001
1000
,
0010
0100
0010
0100
,
0001
1000
0001
1000
,
0100
0010
0001
0010
,
0100
1000
0001
0100
,
0020
0000
0000
0000
,
0000
0000
0000
0000
,
0000
0000
0000
0000
,
0000
0000
0030
0000
,
2000
0000
0000
0000
,
0000
0000
0000
0000
,
0000
0000
0000
0000
,
0000
0000
3000
0000
,
1001
0000
0001
0000
,
0010
0001
0010
0000
,
0100
1000
0100
1000
,
0010
0000
0100
0000
,
1001
0000
1000
0000
,
0010
1000
0010
0000
,
0200
0300
0002
0003
,
0020
0030
0100
1000
,
0001
0001
0100
0001
,
1000
1000
0100
1000
,
0001
0010
0100
1000
,
0100
0010
0001
0000
,
1000
1000
0010
1000
,
0001
0001
0010
0001
,
0200
0000
0310
1000
,
0002
0000
0003
0000
,
2002
0000
0000
0000
,
0000
0000
0000
0000
,
0000
0000
0000
0000
,
0000
0000
0000
0000
,
0000
0000
0000
0000
,
0000
0000
0000
0000
,
0000
0000
0000
0000
,
0000
0000
3003
0000
,
1000
1000
0010
0000
,
1000
1000
0001
0000
,
1000
0100
0010
0001
,
0010
0100
1000
0000
,
0001
0001
0010
0000
,
0001
0001
1000
0000
,
0001
0100
0010
1000
,
0100
0010
0001
0000
,
1001
0000
0000
0000
,
0001
0000
0000
0000
,
1000
0000
0010
0000
,
0100
0000
0000
0000
,
0001
0000
0000
0000
,
0010
0000
0000
0000
,
0100
0000
1000
0000
,
0001
0000
0000
0000
,
0200
0000
0320
0000
,
2030
0000
3020
0000
,
0230
0000
0302
0000
,
0203
0000
0320
0000
,
2030
0000
3200
0000
,
2300
0000
3002
0000
,
0023
0000
0032
0000
,
0203
0000
0310
0000
,
0110
0000
1010
0000
,
0100
0010
0100
0000
,
0110
0000
0101
0000
,
0100
0010
0100
0000
,
0010
1000
0010
1000
,
0100
0010
0100
0010
,
0001
0100
0001
1000
,
0100
1000
0001
0000
,
0010
0010
0001
0010
,
0001
0100
0001
0001
,
0100
0010
0100
0100
,
0010
1000
0100
0000
,
0010
0001
1000
0010
,
1000
0001
0010
0100
,
2000
0000
3001
0100
,
0020
0000
0030
0000
,
1001
0000
1000
0010
,
0100
0010
1000
0100
,
0010
0001
0100
0010
,
0100
0001
0010
0100
,
1001
0000
0001
0010
,
0001
1000
0010
0100
,
0001
0010
0100
1000
,
0010
0100
0001
1000
,
1001
0000
0001
0100
,
0001
0010
0100
1000
,
0001
0100
0001
1000
,
0100
0010
0001
0100
,
1001
0000
1000
0010
,
1000
0001
0010
0100
,
1000
1000
0001
0001
,
0100
0100
0010
0010
,
0220
0000
0000
0000
,
0000
0000
0000
0000
,
0000
0000
0000
0000
,
0000
0000
0000
0000
,
0000
0000
0000
0000
,
0000
0000
0000
0000
,
0000
0000
0000
0000
,
0000
0000
0330
0000
,
0001
1000
0001
0000
,
1000
0010
1000
0000
,
0001
0010
0100
1000
,
0010
0100
0001
0000
,
1000
0100
0010
0001
,
1000
0010
0100
0001
,
0020
0030
0200
0300
,
2000
3000
0010
2002
,
0000
0000
0000
0000
,
0000
0000
0000
0000
,
0000
0000
0000
0000
,
0000
0000
0000
0000
,
0000
0000
0000
0000
,
3003
0000
0000
0000
;

//--------------- dance-single - forcednature ----------------
#NOTEDATA:;
#STEPSTYPE:dance-single;
#DESCRIPTION:forcednature;
#DIFFICULTY:Medium;
#METER:12;
#RADARVALUES:0,0,0,0,0;
#CREDIT:forcednature;
#NOTES:
0000
0000
0000
0000
,
0000
0000
0000
0000
,
0000
0000
0000
0000
,
0000
0000
0000
0000
,
0000
0000
0000
0000
,
0000
0000
0000
0000
,
1000
0000
0000
1000
0000
0000
0001
0000
,
0100
0001
0100
0000
,
0002
0003
0020
0030
,
0200
0300
2000
3000
,
0001
0100
0001
0100
,
1000
0100
1000
0100
,
0001
0010
0100
1000
,
0010
0100
0002
0003
,
1000
0100
1000
0100
,
0001
0100
0001
0100
,
1000
0010
0100
0001
,
0010
0100
2000
3000
,
0001
0100
0001
0000
0100
0001
0100
0000
,
0010
1000
0010
0000
1000
0010
1000
0000
,
0001
0010
0001
0000
1000
0010
1000
0000
,
0001
0100
0001
0000
1000
0100
1000
0000
,
0100
0010
0100
0000
0010
0100
0010
0000
,
0001
1000
0001
0000
1000
0001
1000
0000
,
0010
0100
0001
0000
0100
0010
1000
0000
,
0100
0010
0001
0000
0010
0100
1000
0000
,
2002
0000
0000
0000
,
0000
0000
0000
0000
,
0000
0000
0000
0000
,
0000
0000
0000
0000
,
0000
0000
0000
0000
,
0000
0000
0000
0000
,
0000
0000
0000
0000
,
0000
0000
3003
0000
,
1000
0010
0001
0010
,
1000
0100
0001
0100
,
1000
0000
0010
0000
0100
0010
0100
0000
,
0001
0100
0001
0000
0010
0000
0100
0000
,
1000
0001
0010
1000
,
0001
0100
1000
0001
,
0100
0000
0000
0010
1000
0000
0000
0100
,
1000
0001
0010
0100
,
0110
0010
0001
0100
,
0110
0010
1000
0100
,
0001
0000
0100
0000
1000
0100
1000
0000
,
0010
1000
0010
0000
0100
0000
0001
0000
,
1001
1000
0100
0010
,
1001
0001
0100
0010
,
1000
0000
1000
0001
0000
0001
0010
0000
,
0200
0000
0000
0000
1300
0001
1000
0000
,
0002
0000
0000
0000
,
0000
0000
0000
0003
,
0200
0000
0000
0300
,
0020
0000
0000
0030
,
2000
0000
0000
0000
,
0000
0000
0000
3000
,
0002
0000
0000
0003
,
0020
0000
0000
0030
,
0110
0100
1000
0010
,
0110
0100
0001
0010
,
0001
0000
1000
0010
1000
0000
0001
0010
,
0001
1000
0010
0100
,
1001
1000
0100
0010
,
1001
0001
0100
0010
,
0220
0000
0000
0000
,
0330
1000
0010
0100
,
0002
0000
0000
0013
,
0020
0000
0000
0031
,
0200
0000
0320
0000
,
2030
0000
3000
0001
,
0020
0000
0030
0100
,
2000
0000
3020
0000
,
0230
0000
0301
1000
,
0002
0000
0000
0003
,
2001
0000
0010
0000
,
3002
0000
0010
0000
,
2003
0000
0100
0000
,
3002
0000
0100
0000
,
2003
0010
0000
3010
,
2000
0001
0000
3001
,
1000
0100
0010
0001
,
0100
0010
0100
0000
0002
0000
0003
0000
,
1001
1010
1001
0000
,
0001
0010
0100
0000
1000
0000
0001
0000
,
1001
0011
1001
0000
,
1000
0010
0100
0000
0001
0000
0010
0000
,
0110
1100
0110
0000
,
0001
1000
0010
0000
0100
0000
0001
0000
,
0011
1010
0011
0000
,
0001
0100
0010
0000
1000
0000
0100
0000
,
0010
0001
0010
0000
0001
0100
0001
0000
,
1000
0100
1000
0000
0010
1000
0010
0000
,
0100
0001
0100
0000
0010
1000
0010
0000
,
1000
0100
0010
0000
0001
0010
0100
0000
,
1000
0010
1000
0010
1000
0000
0010
0000
,
0100
0001
0100
0001
0100
0000
0001
0000
,
0020
0000
0000
0000
0000
0030
0100
1000
,
0020
0000
0130
0001
,
1001
0000
1000
0000
0010
0000
0100
0010
,
0100
0001
0010
0000
,
0100
0000
1000
0100
0000
0100
0000
1000
,
0010
0100
0001
0000
,
1001
1000
0010
0100
,
0001
0010
0000
0010
0000
0000
0001
0000
,
0100
0000
0000
0010
0000
0000
1000
0000
0001
0000
1000
0000
,
0002
0000
0013
0100
,
0110
0000
0010
0001
0100
0000
0010
1000
,
0100
0000
1000
0001
1000
0001
0100
0000
,
0010
0000
1000
0100
0010
0000
0001
0100
,
0010
0000
1000
0001
1000
0001
0010
0000
,
0110
0000
0100
1000
0010
0000
0100
0001
,
1000
0000
0100
0010
0000
0001
0010
0000
,
0001
0100
0001
0000
1000
0100
1000
0000
,
0010
0100
0001
1000
0010
0100
0001
1000
,
0200
0000
0000
0000
,
0000
0000
0000
0000
,
0000
0000
0000
0000
,
0000
0000
0000
0000
,
0000
0000
0000
0000
,
0000
0000
0000
0000
,
0000
0000
0000
0000
,
0000
0000
0300
0000
,
1001
0000
1000
0000
0010
1000
0010
0000
,
0100
0000
0001
0000
0010
0001
0010
0000
,
0100
1000
0010
0100
,
0001
0010
0100
1000
,
0001
0100
0001
0100
0001
0100
0001
0000
,
1000
0100
1000
0100
1000
0100
1000
0000
,
0020
0130
0002
1003
,
0100
0000
0010
0001
0000
0100
0000
2002
,
0000
0000
0000
0000
,
0000
0000
0000
0000
,
0000
0000
0000
0000
,
0000
0000
0000
0000
,
0000
0000
0000
0000
,
3003
0000
0000
0000
;

//--------------- dance-single - forcednature ----------------
#NOTEDATA:;
#STEPSTYPE:dance-single;
#DESCRIPTION:forcednature;
#DIFFICULTY:Hard;
#METER:15;
#RADARVALUES:0,0,0,0,0;
#CREDIT:forcednature;
#NOTES:
0000
0000
0000
0000
,
0000
0000
0000
0000
,
0000
0000
0000
0000
,
0000
0000
0000
0000
,
0000
0000
0000
0000
,
0000
0000
0000
0000
,
0001
0001
1000
0001
,
1000
0001
1000
0000
0010
0000
0100
0000
,
0002
0013
0020
0130
,
0200
1300
2002
3003
,
0001
0100
0001
0000
1000
0100
1000
0000
,
0001
0010
0001
0000
1000
0010
1000
0000
,
0100
0010
0001
0000
0010
0100
1000
0000
,
0010
0100
0001
0000
0020
0000
0030
0000
,
0001
1000
0010
0000
1000
0001
0010
0000
,
0100
1000
0001
0000
0100
0001
1000
0000
,
0100
0010
0001
0000
0100
0010
1000
0000
,
0010
0100
0001
0000
0020
0000
0030
0000
,
0100
1000
0100
1000
0010
1000
0010
1000
,
0100
0010
0001
0100
0010
1000
0100
0010
,
0001
0100
0001
0100
0001
0010
0001
0010
,
0100
1000
0010
0100
0001
0010
0100
1000
,
0001
0100
0001
0100
1000
0100
1000
0100
,
0001
1000
0100
0010
0100
1000
0001
0010
,
1000
0010
1000
0010
0001
0010
0001
0100
,
0010
1000
0100
1000
0001
0010
0100
1000
,
0002
0000
0000
0003
,
0200
0000
0000
0300
,
0010
0000
0000
0010
0000
0000
2000
0000
,
0000
3001
0020
0030
,
0200
0000
0000
0300
,
2000
0000
0000
3000
,
0010
0000
0000
0010
0000
0000
0200
0000
,
0000
0302
0023
0030
,
0110
0000
0001
0000
0010
0100
1000
0000
,
0010
0000
1000
0000
0100
0010
0001
0000
,
0100
0000
0010
0000
1000
0100
1000
0000
,
0001
0100
0001
0000
1000
0010
1000
0000
,
0001
0010
0100
0010
0001
1000
0010
1000
,
0001
0010
0100
1000
0100
0010
0001
1000
,
0020
0000
0000
0030
0200
0000
0000
0300
,
0002
0000
0000
0003
1000
0001
1000
0000
,
1001
0000
0011
0000
0001
0100
0001
0000
,
1001
0000
1010
0000
1000
0100
1000
0000
,
1010
0000
0110
0000
0100
0001
0100
0000
,
0001
0010
0001
0000
1000
0010
1000
0000
,
0100
0010
0001
0010
0100
1000
0001
0100
,
0010
0100
0001
1000
0100
0010
0001
1000
,
0020
0000
0000
0130
0000
0000
0010
1000
,
0002
0000
0000
0000
1003
0100
0010
0001
,
2000
0000
0000
0000
,
0000
0000
0000
0000
,
3020
0000
0000
0000
,
0230
0000
0000
0000
,
0302
0000
0000
0000
,
0000
0000
0000
0000
,
0023
0000
0000
0000
,
0230
0000
1300
0001
,
1001
0000
1000
0100
0010
0100
1000
0000
,
0001
0000
1000
0010
0100
0010
1000
0000
,
0001
0000
0100
1000
0100
0000
0001
0100
,
0001
0000
0010
0100
1000
0001
0010
0000
,
0100
1000
0010
1000
0100
0010
0001
0000
,
0100
0001
0010
0001
0100
0010
1000
0000
,
1002
0000
0023
0230
,
2300
3002
0203
0310
,
2002
0000
0000
0000
3003
0000
0010
1000
,
0020
0000
0030
0100
,
0001
0000
0010
0001
0000
1000
0000
0010
,
0200
0000
0000
0000
0300
0000
0010
1000
,
0020
0000
0000
0000
0030
0000
0100
0001
,
0100
0001
0000
0010
0000
0000
0100
0010
,
0001
0000
0000
1000
0000
0000
0001
0000
0010
0000
0100
0000
,
2000
0000
0000
0000
3000
0000
0010
1000
,
0020
0000
0100
0000
0030
0000
0100
0001
,
0200
0001
0300
0001
,
0010
0000
0100
1000
0000
0100
0000
1000
,
0020
0000
0100
0000
0030
0000
0100
0010
,
0200
0000
0001
0000
0300
0000
0001
1000
,
0001
0000
0000
0010
0000
0000
0100
0010
,
0001
1000
0020
0000
1030
0001
0020
0000
,
0130
1000
0020
0000
0130
0001
0010
0000
,
0110
1100
0011
0110
,
0100
1000
0001
0100
0001
1000
0100
0000
,
0110
1001
0101
1010
,
0010
1000
0001
0010
0001
1000
0010
0000
,
0101
1100
1001
0101
,
1000
0100
0010
0001
0100
0010
1000
0000
,
1100
0101
1001
1100
,
0001
0100
0010
1000
0100
0010
0001
0000
,
1000
0010
1000
0010
0100
0010
1000
0001
,
0010
0100
0010
0100
1000
0100
0010
0001
,
1000
0010
1000
0010
0100
0001
0100
0001
,
0010
0100
1000
0001
0100
0010
1000
0000
,
0001
0010
0001
0010
1000
0010
0001
0010
,
0001
0100
0001
0100
1000
0100
0001
0100
,
0020
0000
1030
2000
0000
3100
0010
0001
,
0200
0000
0000
0300
0010
0100
0010
0000
,
1002
0000
1000
0000
0103
0000
0001
1000
,
0020
0100
1030
1010
,
0110
0000
0100
0001
0000
0010
0000
0100
,
2000
0000
0010
0000
3001
0000
1000
0100
,
0020
0000
0001
0000
0130
0000
0010
0001
,
0100
0010
0000
1010
0000
0000
1000
0001
,
1000
0000
0000
0010
0000
0000
0100
0000
0001
0000
0010
0000
,
0200
1000
0310
0110
,
0100
1000
0100
1000
0001
0010
0001
0010
,
0100
1000
0001
0010
0100
0010
0001
1000
,
0010
0100
0010
0100
0001
1000
0001
1000
,
0010
0100
0001
1000
0100
0010
0001
1000
,
0010
0100
0010
1000
0001
0010
0001
1000
,
0100
1000
0001
0100
0001
1000
0010
0100
,
0001
0010
0100
0010
0001
1000
0100
1000
,
0001
0100
1000
0100
0001
0010
0100
0010
,
2002
0000
0000
0000
,
0000
0000
0000
0000
,
0000
0000
0000
0000
,
0000
0000
0000
0000
,
0000
0000
0000
0000
,
0000
0000
0000
0000
,
0000
0000
0000
0000
,
0000
0000
3003
0000
,
1100
0000
1010
0000
0010
0100
0001
0000
,
0101
0000
0011
0000
0010
0100
1000
0000
,
1100
0000
0101
0000
0001
0010
0100
0000
,
0010
0001
1000
0000
0010
0100
0001
0000
,
1000
0100
1000
0100
1000
0010
0100
0001
,
0010
0100
1000
0100
0001
0100
1000
0001
,
0020
0000
0031
0100
0002
0000
1003
0100
,
2000
0000
3010
0100
0001
0010
0100
2002
,
0000
0000
0000
0000
,
0000
0000
0000
0000
,
0000
0000
0000
0000
,
0000
0000
0000
0000
,
0000
0000
0000
0000
,
3003
0000
0000
0000
;

//--------------- dance-single - forcednature ----------------
#NOTEDATA:;
#STEPSTYPE:dance-single;
#DESCRIPTION:forcednature;
#DIFFICULTY:Challenge;
#METER:18;
#RADARVALUES:0,0,0,0,0;
#CREDIT:forcednature;
#NOTES:
0000
0000
0000
0000
,
0000
0000
0000
0000
,
0000
0000
0000
0000
,
0000
0000
0000
0000
,
0000
0000
0000
0000
,
0000
0000
0000
0000
,
1000
1000
0001
1000
,
0010
1000
0010
0000
0100
0000
0010
1000
,
0002
0013
2000
3010
,
0001
0100
0010
0000
2002
0000
3003
0000
,
1000
0010
0100
0010
1000
0001
0100
0010
,
1000
0001
0010
0100
1000
0001
0010
0001
,
1000
0010
0100
0001
1000
0100
0010
0001
,
1000
0010
0100
0010
2000
0000
0001
0000
,
3100
0010
0001
0010
0100
0010
0001
1000
,
0010
0100
0001
0100
0010
1000
0001
0100
,
0010
1000
0001
0010
0001
1000
0001
0010
,
0100
1000
0001
0100
0002
0000
1000
0000
,
1003
0100
0010
0001
0010
0100
1000
0001
0010
0100
0010
0001
,
1000
0010
0100
0001
0100
0010
1000
0001
0100
0010
0100
0001
,
1000
0100
1000
0001
0010
0001
1000
0100
0010
0100
1000
0001
,
0010
0001
1000
0010
0100
0001
0010
0100
1000
0100
0010
0100
,
1000
0001
0100
0010
1000
0001
0100
0010
0100
0001
1000
0010
,
0100
0001
0010
0100
1000
0100
1000
0001
0010
0100
0010
0001
,
1000
0010
0100
0001
1000
0010
0100
0001
0010
0001
1000
0010
,
0100
0001
0010
0100
0010
0001
1000
0100
0010
0001
0100
0010
,
2000
0000
0000
0010
0000
0010
0000
0000
,
3020
0000
0000
0100
0000
0100
0000
0000
,
0230
0000
0000
0302
0000
0000
0023
0000
,
0000
0230
2300
3000
,
0002
0000
0000
0100
0000
0100
0000
0000
,
0203
0000
0000
0010
0000
0010
0000
0000
,
0320
0000
0000
2030
0000
0000
3200
0000
,
0000
0320
0031
1000
,
1001
0000
0001
0100
0010
0100
0001
1000
,
0010
0100
0001
0010
0001
0100
0010
1000
,
0100
0000
0010
0001
1000
0010
1000
0001
,
0010
0100
1000
0001
0100
0010
0100
0001
,
1000
0100
0010
0100
1000
0001
0010
0100
1000
0100
0010
0001
,
1000
0010
0100
0010
1000
0001
0100
0010
1000
0010
0100
0001
,
2000
0000
0000
3001
0010
0100
0020
0000
0000
0031
1000
0100
,
2000
0000
0000
0000
0000
0000
3010
0000
0000
0100
0000
0000
0001
0000
1000
0000
0001
0000
0010
0000
0100
0000
1000
0000
,
0001
0000
0001
0100
0010
0100
1000
0100
,
0001
0000
0001
0010
0100
0010
1000
0010
,
0001
0000
0001
0100
0010
1000
0100
0010
,
0001
0100
1000
0100
0001
0010
0100
1000
,
0010
0100
0010
1000
0001
1000
0100
0010
0001
0010
0100
1000
,
0001
0100
0010
0100
0001
1000
0100
0010
0001
0100
0010
1000
,
0001
0010
0001
2000
0000
3100
0010
0001
,
0200
0000
0000
0000
0000
0000
0301
1000
0001
0100
0010
1000
,
0002
0000
0000
0000
,
0000
0000
0000
0003
,
0020
0000
0000
0030
,
0200
0000
0000
0300
,
2000
0000
0000
0000
,
0000
0000
0000
3000
,
0020
0000
0000
0030
,
0200
0000
0000
0000
0000
0000
0000
0000
0301
0000
0000
0000
1000
0001
1000
0001
,
1000
0010
0100
0001
0100
0010
1000
0100
,
0000
0001
0100
1000
0001
0010
0100
1000
,
0002
0000
0000
1003
0100
0010
0200
0000
0000
1300
0001
0010
,
0001
0100
0010
1000
0001
0010
0100
1000
,
0000
0010
0001
0010
1000
0100
1000
0010
,
0100
0001
0100
1000
0100
0001
1000
0010
,
0220
0000
0000
0330
0001
0100
0010
1000
,
0100
0010
0001
0100
0010
0000
1000
0000
,
2002
0000
0000
0000
0003
0000
3001
0010
,
0200
0000
0000
2300
,
3020
0000
0130
0001
0000
0010
0000
0001
,
2000
0000
0000
0000
0000
3000
0010
0100
,
0002
0000
0000
0000
0000
0000
0000
0000
0000
0000
0003
0100
0010
0000
1000
0000
,
0010
0000
0200
0000
0000
0000
0302
0000
0000
0000
0003
0000
1000
0000
0100
1000
,
0200
0000
0000
0320
0000
0000
0031
0000
0100
0000
0010
0000
,
2000
0000
0000
0000
0000
3000
0001
1000
,
1002
0000
0010
0000
0000
0000
0013
0001
,
0200
0010
0000
0320
,
2030
0000
3100
0010
0000
0001
0000
0100
,
0020
0000
1000
0000
0000
0000
1030
0001
,
0020
0000
0100
0000
0000
0000
0130
1000
,
0002
0000
0000
0203
0000
0300
0010
1000
,
0001
0010
0100
1000
0001
0100
0010
1000
,
0100
0010
0100
0000
0010
0000
0001
0000
1000
0001
1000
0000
0010
0000
0100
0000
,
0001
0000
0001
0010
0100
0010
1000
0010
,
0001
0010
1000
0010
0100
0001
0100
1000
,
0001
0000
0001
0100
0010
0100
1000
0100
,
0001
0100
1000
0001
0010
0100
0001
0100
,
1000
0000
0000
0000
0000
0000
1000
0000
0000
0100
0000
0000
0001
0000
0010
0000
0100
0000
1000
0000
0000
0100
0000
0000
,
0001
0000
0000
0000
0000
0000
0001
0000
0000
0100
0000
0000
1000
0000
0010
0000
0100
0000
0001
0000
0000
1000
0000
0000
,
0002
0000
0000
1003
0010
0100
0020
0000
0000
1030
0001
0100
,
0001
1000
0100
1000
0010
0100
0002
0000
,
1003
0100
1000
0100
0001
0100
1000
0100
,
0001
1000
0010
0001
0100
0010
1000
0100
,
0010
0001
0100
1000
0100
0001
0010
1000
,
0001
0100
1000
0010
0100
0001
0010
0100
,
1000
0010
1000
0001
0010
0001
1000
0100
0010
0001
0010
0100
,
1000
0001
0100
0010
1000
0001
1000
0100
0001
0100
1000
0001
,
0010
0010
0100
0110
0000
0001
0001
1000
,
2001
0000
0000
3001
0010
0100
0010
0100
1000
0100
0010
0001
,
1000
0010
1000
0010
0110
0000
0001
0100
,
0001
0010
0001
0010
0110
0000
1100
0000
,
1000
0010
0100
1000
0100
0010
1000
0001
,
2001
0000
0100
0000
0001
0000
3010
0100
,
0110
0000
0000
0000
1010
0000
0000
0000
1100
0000
0000
0001
1000
0000
0001
0000
,
0010
0000
0100
0000
0000
0000
0011
0000
0000
0000
0010
0000
0001
0000
1000
0001
,
1000
0000
0000
1010
0000
0000
0020
0000
0230
0000
0302
0000
,
0013
0001
0010
0001
0200
0000
0320
0000
,
1030
0010
1000
0100
0010
1000
0010
0100
,
1000
0000
0000
0010
0000
0000
0001
0000
0000
0010
0000
0000
1000
0000
0010
0000
1000
0000
0010
0000
0100
0000
0001
0000
,
1000
0100
0001
1000
0010
0001
0100
0010
,
1000
0000
0000
0100
0000
0000
0010
0000
0000
0001
0000
0000
0100
0000
0010
0000
0100
0000
0010
0000
1000
0000
0001
0000
,
0010
0000
0000
0100
0000
0000
1000
0000
0000
0001
0000
0000
0100
0000
0001
0000
0100
0000
0010
0000
1000
0000
0010
0000
,
0100
0000
0000
0001
0000
0000
0010
0000
0000
0100
0000
0000
1000
0000
0001
0000
0010
0000
0001
0000
1000
0000
0100
0000
,
1000
0001
0100
0010
0100
0001
1000
0100
0010
0100
1000
0001
,
0100
0010
1000
0100
0010
0001
0100
1000
0001
0010
1000
0001
,
0200
0000
0000
0000
,
0000
0000
0000
0000
,
0000
0000
0000
0000
,
0000
0000
0000
0300
,
0020
0000
0000
1000
0000
1000
0000
0000
,
2030
0000
0000
0100
0000
0100
0000
0000
,
3200
0000
0000
0320
0000
0000
0032
0000
,
0000
0203
0301
1000
,
1001
0000
0000
0001
0000
0000
0010
0000
0000
0001
0000
0000
0100
0000
0000
0010
0000
0000
1000
0000
0100
0000
1000
0000
,
0100
0000
0000
1000
0000
0000
0010
0000
0000
0100
0000
0000
0001
0000
0000
0010
0000
0000
0001
0000
0100
0000
0001
0000
,
0100
0000
0000
0010
0000
0000
1000
0000
0000
0001
0000
0000
0010
0000
0000
0100
0000
0000
1000
0000
0001
0000
1000
0000
,
0001
0100
0010
1000
0001
0010
0100
1000
,
0010
0100
0001
0100
0010
1000
0100
0010
0001
0100
0010
1000
,
0100
1000
0001
0100
0001
1000
0010
0001
1000
0100
0001
1000
,
0020
0000
0000
1030
0100
0010
0200
0000
0000
1300
0001
0010
,
0002
0000
0000
0013
0100
1000
0001
0100
1000
0100
0001
0020
,
0000
0000
0000
0000
,
0000
0000
0000
0000
,
0000
0000
0000
0000
,
0000
0000
0000
0000
,
0000
0000
0000
0000
,
0030
0000
0000
0000
;

//--------------- dance-double - forcednature ----------------
#NOTEDATA:;
#STEPSTYPE:dance-double;
#DESCRIPTION:forcednature;
#DIFFICULTY:Easy;
#METER:9;
#RADARVALUES:0,0,0,0,0;
#CREDIT:forcednature;
#NOTES:
00000000
00000000
00000000
00000000
,
00000000
00000000
00000000
00000000
,
00000000
00000000
00000000
00000000
,
00000000
00000000
00000000
00000000
,
00000000
00000000
00000000
00000000
,
00000000
00000000
00000000
00000000
,
00010000
00000000
00010000
00001000
,
00010000
00000000
00001000
00000000
,
00200000
00300000
00020000
00030000
,
20000000
30000000
02000000
03000000
,
00100000
01000000
00100000
00000000
,
00010000
01000000
00010000
00000000
,
01000000
00001000
00010000
00000000
,
00001000
00010000
00000100
00000000
,
00001000
00000010
00001000
00000000
,
00000001
00000010
00000001
00000000
,
00000100
00000010
00001000
00000000
,
00000100
00010000
00001000
00000000
,
00010000
00001000
00010000
00001000
,
00100000
00010000
00100000
00010000
,
10000000
00100000
10000000
00100000
,
01000000
00010000
01000000
00010000
,
00100000
00001000
00100000
00001000
,
00010000
00000100
00010000
00000100
,
00001000
00000010
00000100
00000001
,
00000100
00000010
00001000
00000100
,
00020000
00000000
00000000
00000000
,
00000000
00000000
00000000
00000000
,
00000000
00000000
00000000
00000000
,
00000000
00000000
00030000
00000000
,
00002000
00000000
00000000
00000000
,
00000000
00000000
00000000
00000000
,
00000000
00000000
00000000
00000000
,
00000000
00000000
00003000
00000000
,
00011000
00000000
00010000
00000000
,
00100000
00000000
10000000
00000000
,
01000000
10000000
01000000
10000000
,
00100000
00000000
01000000
00000000
,
10010000
00000000
00010000
00000000
,
00100000
00010000
00100000
00000000
,
00002000
00003000
00020000
00030000
,
00000200
00000300
00001000
00000010
,
00000100
00000100
00000001
00000100
,
00000001
00000001
00000010
00000001
,
00001000
00000010
00010000
00001000
,
01000000
00010000
00100000
00000000
,
01000000
01000000
10000000
01000000
,
00100000
00100000
00010000
00100000
,
00002000
00000000
00013000
00000100
,
00002000
00000000
00003000
00000000
,
00002002
00000000
00000000
00000000
,
00000000
00000000
00000000
00000000
,
00000000
00000000
00000000
00000000
,
00000000
00000000
00000000
00000000
,
00000000
00000000
00000000
00000000
,
00000000
00000000
00000000
00000000
,
00000000
00000000
00000000
00000000
,
00000000
00000000
00003003
00000000
,
00000001
00000010
00000001
00000000
,
00001000
00000010
00001000
00000000
,
00000100
00010000
00001000
00010000
,
00001000
00100000
00010000
00000000
,
10000000
00100000
10000000
00000000
,
00010000
00100000
00010000
00000000
,
10000000
00100000
01000000
00001000
,
00010000
00001000
00010000
00000000
,
00011000
00000000
00000000
00000000
,
00001000
00000000
00000000
00000000
,
00010000
00000000
00000100
00000000
,
00001000
00000000
00000000
00000000
,
00000010
00000000
00000000
00000000
,
00001000
00000000
00000000
00000000
,
00000010
00000000
00000100
00000000
,
00000001
00000000
00000000
00000000
,
00000020
00000000
00000230
00000000
,
00002300
00000000
00003200
00000000
,
00020300
00000000
00032000
00000000
,
02003000
00000000
03020000
00000000
,
02030000
00000000
03200000
00000000
,
20300000
00000000
30020000
00000000
,
00230000
00000000
02300000
00000000
,
23000000
00000000
31000000
00000000
,
01100000
00000000
00100000
00000000
,
00010000
00100000
00001000
00000000
,
00011000
00000000
00010000
00000000
,
00000100
00001000
00000100
00000000
,
00000010
00000001
00000010
00000001
,
00000100
00000001
00000100
00000000
,
00000010
00001000
00000010
00010000
,
00001000
00010000
00001000
00000000
,
00100000
00100000
00010000
00000000
,
01000000
01000000
00010000
00000000
,
00100000
00001000
00010000
00001000
,
00010000
00000100
00001000
00000000
,
00000010
00000010
00001000
00000000
,
00000100
00000100
00001000
00000000
,
00000002
00000000
00000103
00000010
,
00002000
00000000
00003000
00000000
,
00001001
00000000
00001000
00000100
,
00010000
00001000
00010000
00001000
,
00100000
00000000
00010000
01000000
,
00100000
10000000
01000000
00100000
,
00010000
00000000
01000000
00001000
,
00010000
00001000
00010000
00000010
,
00001000
00000000
00000001
00000010
,
00000100
00000000
00010000
00001000
,
00011000
00000000
01000000
00010000
,
00100000
01000000
10000000
00100000
,
01000000
00000000
00010000
00100000
,
00001000
00010000
00001000
00010000
,
00000100
00000000
00001000
00000010
,
00001000
00000001
00000010
00000100
,
00001000
00001000
00000010
00000010
,
00010000
00010000
00001000
00001000
,
00022000
00000000
00000000
00000000
,
00000000
00000000
00000000
00000000
,
00000000
00000000
00000000
00000000
,
00000000
00000000
00000000
00000000
,
00000000
00000000
00000000
00000000
,
00000000
00000000
00000000
00000000
,
00000000
00000000
00000000
00000000
,
00000000
00000000
00033000
00000000
,
00010000
00001000
00010000
00000000
,
00001000
00000000
00100000
00000000
,
00010000
00100000
01000000
00000000
,
10000000
00100000
01000000
00000000
,
00001000
00010000
00001000
00000000
,
00010000
00000000
00000100
00000000
,
00002000
00003000
00000020
00000030
,
00000200
00000300
00000001
00000020
,
00000000
00000000
00000000
00000000
,
00000000
00000000
00000000
00000000
,
00000000
00000000
00000000
00000000
,
00000000
00000000
00000000
00000000
,
00000000
00000000
00000000
00000000
,
00000030
00000000
00000000
00000000
;

//--------------- dance-double - forcednature ----------------
#NOTEDATA:;
#STEPSTYPE:dance-double;
#DESCRIPTION:forcednature;
#DIFFICULTY:Medium;
#METER:12;
#RADARVALUES:0,0,0,0,0;
#CREDIT:forcednature;
#NOTES:
00000000
00000000
00000000
00000000
,
00000000
00000000
00000000
00000000
,
00000000
00000000
00000000
00000000
,
00000000
00000000
00000000
00000000
,
00000000
00000000
00000000
00000000
,
00000000
00000000
00000000
00000000
,
00001000
00000000
00000000
00001000
00000000
00000000
00010000
00000000
,
00001000
00010000
00001000
00000000
,
00200000
00300000
00020000
00030000
,
02000000
03000000
00200000
00300000
,
10000000
01000000
10000000
01000000
,
00100000
00010000
00100000
00010000
,
01000000
00001000
00010000
00000010
,
00001000
00000001
00000020
00000030
,
00000001
00000100
00000001
00000100
,
00000010
00001000
00000010
00001000
,
00000100
00010000
00001000
01000000
,
00010000
00100000
02000000
03000000
,
10000000
01000000
10000000
00000000
01000000
00000000
00100000
00000000
,
00010000
00100000
00010000
00000000
00100000
00000000
00001000
00000000
,
00010000
00001000
00010000
00000000
00000010
00000000
00001000
00000000
,
00000100
00000010
00000001
00000100
,
00001000
00010000
00001000
00000000
00010000
00000000
00001000
00000000
,
00100000
00010000
00100000
00000000
00010000
00000000
10000000
00000000
,
00100000
01000000
00010000
00000000
01000000
00000000
00001000
00000000
,
00010000
00001000
00010000
00000000
00000100
00000000
00001000
00000000
,
00002002
00000000
00000000
00000000
,
00000000
00000000
00000000
00000000
,
00000000
00000000
00000000
00000000
,
00000000
00000000
00000000
00000000
,
00000000
00000000
00000000
00000000
,
00000000
00000000
00000000
00000000
,
00000000
00000000
00000000
00000000
,
00000000
00000000
00003003
00000000
,
00000001
00000100
00001000
00000000
,
00010000
00100000
10000000
00000000
,
01000000
00000000
00100000
00000000
00010000
00100000
00010000
00000000
,
00100000
00001000
00100000
00000000
00010000
00000000
00000000
00000000
,
10000000
01000000
00010000
00000000
,
00001000
00000010
00000001
00000000
,
00000100
00000000
00000000
00000010
00000100
00000000
00000000
00000001
,
00001000
00000001
00000010
00001000
,
00011000
00100000
00010000
01000000
,
01100000
00010000
10000000
01000000
,
00010000
00000000
00001000
00000000
00010000
00001000
00010000
00000000
,
00000100
00001000
00000100
00000000
00001000
00000000
00000010
00000000
,
00000110
00000001
00000100
00001000
,
00011000
01000000
00010000
00100000
,
01000000
00000000
01000000
00100000
00000000
00100000
01000000
00000000
,
20000000
00000000
30010000
00100000
,
00002000
00000000
00000000
00000000
,
00000000
00000000
00000000
00003000
,
00020000
00000000
00000000
00030000
,
00000020
00000000
00000000
00000030
,
00002000
00000000
00000000
00000000
,
00000000
00000000
00000000
00003000
,
00000002
00000000
00000000
00000003
,
00000020
00000000
00000000
00000030
,
00000110
00000100
00010000
00001000
,
00011000
00100000
00010000
01000000
,
00100000
00000000
10000000
00100000
10000000
00000000
00010000
00100000
,
00010000
01000000
00001000
00010000
,
00011000
00000100
00001000
00000010
,
00000110
00000100
00000001
00000010
,
00002002
00000000
00000000
00000000
,
00003003
00000001
00000100
00001000
,
00020000
00000000
00000000
00130000
,
00200000
00000000
00000000
10300000
,
02000000
00000000
03200000
00000000
,
00302000
00000000
00003000
00010000
,
00000200
00000000
00000300
00001000
,
00000020
00000000
00000230
00000000
,
00000302
00000000
00001003
00000001
,
00002000
00000000
00000000
00003000
,
00000200
00000000
00001000
00000000
,
00020300
00000000
00001000
00000000
,
00030020
00000000
00001000
00000000
,
00000230
00000000
00000001
00000000
,
00000320
00001000
00000000
00001030
,
00020000
00001000
00000000
00031000
,
00100000
00010000
01000000
00100000
,
10000000
00100000
10000000
00000000
00020000
00000000
00030000
00000000
,
00110000
00110000
00110000
00000000
,
00001000
00010000
00001000
00000000
00010000
00000000
00000010
00000000
,
00001010
00001010
00001010
00000000
,
00001000
00000001
00000010
00000000
00000100
00000000
00010000
00000000
,
00011000
00011000
00011000
00000000
,
00001000
00010000
00001000
00000000
01000000
00000000
00010000
00000000
,
10010000
10010000
10010000
00000000
,
10000000
01000000
00100000
00000000
00010000
00000000
01000000
00000000
,
00001000
00010000
00001000
00000000
00010000
00000000
00000100
00000000
,
00001000
00000010
00001000
00000000
00000010
00000000
00000100
00000000
,
00000001
00001000
00000001
00000000
00001000
00000000
00000100
00000000
,
00010000
00001000
00100000
00010000
,
01000000
00010000
01000000
00000000
00100000
00000000
10000000
00000000
,
01000000
10000000
01000000
00000000
00100000
00000000
00001000
00000000
,
00020000
00000000
00000000
00000000
00000000
00030000
00000100
00000000
,
00002000
00000000
00003010
00000100
,
00000110
00000000
00000000
00000000
00000010
00000000
00001000
00000010
,
00001000
00000001
00000010
00000000
,
00000100
00000000
00010000
00000000
00001000
00000000
00010000
00001000
,
00010000
00001000
00100000
00000000
,
00010000
01000000
01000000
00010000
,
00100000
01000000
00000000
01000000
00000000
00000000
10000000
00000000
,
01000000
00000000
00000000
00010000
00000000
00000000
00001000
00000000
00010000
00000000
00001000
00000000
,
00020000
00000000
00030010
00001000
,
00000100
00000000
00000010
00000100
00000010
00000000
00000001
00000000
,
00000100
00000000
00000010
00001000
00000010
00000000
00010000
00000000
,
00001000
00000000
01000000
00010000
01000000
00000000
00100000
10000000
,
00100000
10000000
00010000
00100000
,
00001000
00000000
00010000
00001000
00010000
00000000
00000100
00000000
,
00001000
00000000
00000010
00001000
00000010
00000000
00000100
00000000
,
00000001
00000010
00001000
00010000
,
01000000
00000000
10000000
00010000
10000000
00010000
10000000
00000000
,
00200000
00000000
00000000
00000000
,
00000000
00000000
00000000
00000000
,
00000000
00000000
00000000
00000000
,
00000000
00000000
00000000
00000000
,
00000000
00000000
00000000
00000000
,
00000000
00000000
00000000
00000000
,
00000000
00000000
00000000
00000000
,
00000000
00000000
00300000
00000000
,
01100000
00000000
01000000
00000000
00010000
01000000
00010000
00000000
,
00100000
00000000
00001000
00000000
00010000
00001000
00010000
00000000
,
00000010
00000100
00001000
00000100
,
00000001
00000010
00001000
00010000
,
00001000
00010000
00001000
00010000
00001000
00000000
01000000
00000000
,
00010000
10000000
00010000
10000000
00010000
00000000
00100000
00000000
,
02000000
13000000
02000000
03010000
,
00001000
00000000
00000010
00000000
00000001
00000000
00000100
00000020
,
00000000
00000000
00000000
00000000
,
00000000
00000000
00000000
00000000
,
00000000
00000000
00000000
00000000
,
00000000
00000000
00000000
00000000
,
00000000
00000000
00000000
00000000
,
00000030
00000000
00000000
00000000
;

//--------------- dance-double - forcednature ----------------
#NOTEDATA:;
#STEPSTYPE:dance-double;
#DESCRIPTION:forcednature;
#DIFFICULTY:Hard;
#METER:15;
#RADARVALUES:0,0,0,0,0;
#CREDIT:forcednature;
#NOTES:
00000000
00000000
00000000
00000000
,
00000000
00000000
00000000
00000000
,
00000000
00000000
00000000
00000000
,
00000000
00000000
00000000
00000000
,
00000000
00000000
00000000
00000000
,
00000000
00000000
00000000
00000000
,
00001000
00001000
00010000
00001000
,
00100000
00010000
00100000
00000000
01000000
00000000
00100000
00000000
,
00002000
00013000
00020000
00030100
,
00000200
00001300
00002002
00003003
,
00000001
00000100
00000001
00000000
00001000
00000100
00001000
00000000
,
00000010
00000100
00001000
00000000
00010000
00000000
00100000
00000000
,
10000000
01000000
10000000
00000000
00010000
01000000
00010000
00000000
,
00100000
01000000
00010000
00000000
00002000
00000000
00003000
00000000
,
00010000
00000010
00010000
00000000
00001000
00100000
00001000
00000000
,
00010000
00000100
00001000
00000000
00000001
00000000
00000100
00000000
,
00001000
00010000
00001000
00000000
01000000
00010000
01000000
00000000
,
00100000
10000000
01000000
00000000
00020000
00000000
00030000
00000000
,
01000000
10000000
01000000
10000000
00100000
10000000
00100000
10000000
,
01000000
00010000
00001000
00000000
00000010
00000000
00000001
00000000
,
00000100
00000001
00000100
00000001
00000010
00000001
00000010
00000001
,
00000100
00001000
00010000
00100000
10000000
00000000
00010000
00000000
,
00010000
01000000
00010000
01000000
10000000
01000000
10000000
01000000
,
00010000
00100000
00001000
00000000
00010000
00000000
00000010
00000000
,
00001000
00000100
00001000
00000100
00000001
00000100
00000001
00000100
,
00001000
00000000
00000010
00000000
00010000
00001000
00010000
00000000
,
00022000
00000000
00000000
00033000
,
02000000
00000000
00000000
03000000
,
00010000
00000000
00000000
00010000
00000000
00000000
00200000
00000000
,
00000000
01300000
10000000
00000000
,
00020000
00000000
00000000
00030000
,
02000000
00000000
00000000
03000000
,
00001000
00000000
00000000
00001000
00000000
00000000
00020000
00000000
,
00000000
00030020
00002030
00003000
,
00001001
00000000
00000001
00000000
00000010
00000100
00000010
00000000
,
00000001
00000000
00000100
00000000
00000010
00000100
00000010
00000000
,
00001000
00000000
00000100
00000000
00010000
00001000
00010000
00000000
,
00001000
00100000
00001000
00000000
00100000
00000000
00010000
00000000
,
01000000
00100000
10000000
01000000
00100000
00010000
01000000
00000000
,
00001000
00010000
00000010
00001000
00000001
00000010
00000001
00000000
,
00002000
00000000
00000000
00003000
00000200
00000000
00000000
00000300
,
00020000
00000000
00000000
00030000
00001000
00010000
00001000
00000000
,
00011000
00000000
00101000
00000000
00100000
00010000
00100000
00000000
,
00110000
00000000
01010000
00000000
01000000
00100000
01000000
00000000
,
01100000
00000000
10100000
00000000
10000000
01000000
00100000
00000000
,
00010000
00100000
01000000
00000000
00100000
00001000
00010000
00000000
,
00000100
00001000
00000100
00001000
00000001
00000100
00000010
00010000
,
00001000
00010000
00001000
01000000
00010000
00100000
01000000
10000000
,
00200000
00000000
00000000
01300000
00000000
00000000
00010000
00100000
,
00002000
00000000
00000000
00000000
00013000
00000100
00001000
00000010
,
00000200
00000000
00000000
00000000
,
00000000
00000000
00000000
00000000
,
00000302
00000000
00000000
00000000
,
00000023
00000000
00000000
00000000
,
00000230
00000000
00000000
00000000
,
00000000
00000000
00000000
00000000
,
00020300
00000000
00000000
00000000
,
00032000
00000000
00103000
00010000
,
10010000
00000000
10000000
01000000
00100000
00000000
00010000
00100000
,
00000000
00001000
00010000
00001000
00010000
00000000
00000010
00000000
,
00001000
00000000
00000001
00000010
00000100
00000000
00000010
00000100
,
00001000
00000000
00000010
00010000
00001000
00000000
00010000
00000000
,
00100000
00000000
01000000
00010000
10000000
00000000
01000000
00000000
,
00100000
00000000
00001000
00010000
00000100
00000000
00001000
00000000
,
00002002
00003003
00000001
00000100
,
00001000
00010000
01000000
10000000
,
20200000
00000000
00000000
00000000
30300000
00000000
00010000
01000000
,
00020000
00000000
00030000
00100000
,
00001000
00000000
00010000
00001000
00000000
00010000
00000000
00000100
,
00002000
00000000
00000000
00000000
00003000
00000000
00000010
00001000
,
00000020
00000000
00000000
00000000
00000030
00000000
00000100
00000001
,
00000100
00000010
00000000
00001000
00000000
00000000
00000100
00010000
,
00001000
00000000
00000000
00010000
00000000
00000000
00001000
00000000
00100000
00000000
00010000
00000000
,
02000000
00000000
00000000
00000000
03000000
00000000
00100000
10000000
,
00200000
00000000
00000000
00000000
01300000
00000000
00010000
01000000
,
00020000
00000000
00130000
00001000
,
00010000
00000000
00000100
00001000
00000000
00000100
00000000
00000010
,
00000002
00000000
00000000
00000000
00000103
00000000
00000010
00000100
,
00000020
00000000
00000000
00000000
00001030
00000000
00000100
00001000
,
00000100
00000000
00000000
00010000
00000000
00000000
00001000
00000000
,
00100000
00010000
00200000
00000000
01300000
10000000
02000000
00000000
,
03100000
00001000
00020000
00000000
00030010
00001000
00000100
00000000
,
00000110
00000011
00000101
00000110
,
00000010
00001000
00000100
00000000
00010000
00001000
01000000
00000000
,
01100000
10100000
11000000
01100000
,
00100000
00001000
00010000
00000000
00000100
00001000
00000010
00000000
,
00001010
00001100
00001001
00000011
,
00000010
00000100
00010000
00000000
00001000
01000000
00010000
00000000
,
01010000
01100000
10100000
01100000
,
01000000
00010000
01000000
00010000
00100000
00001000
00010000
00000000
,
00000100
00001000
00000100
00001000
00000010
00000100
00000001
00000000
,
00000010
00000001
00000010
00000001
00000100
00000010
00001000
00000000
,
00000001
00000100
00001000
00000000
00010000
01000000
10000000
00000000
,
00100000
01000000
00100000
01000000
00010000
10000000
01000000
00000000
,
00100000
00010000
00100000
00010000
10000000
00100000
01000000
00000000
,
00001000
00010000
00001000
00010000
00000010
00001000
00000001
00000000
,
00000020
00000000
00000030
00000200
00000000
00000300
00000010
00001000
,
00020000
00000000
00000000
00030000
00001000
00010000
00001000
00000000
,
00022000
00000000
00033000
00000000
01000000
00000000
00010000
10000000
,
00200000
01300000
00100000
10100000
,
11000000
00000000
01000000
00100000
00000000
01000000
00000000
00010000
,
00002000
00000000
00013000
00000000
00001000
00000000
00000010
00000001
,
00000020
00000000
00000130
00000000
00000010
00000000
00000001
00000100
,
00000010
00001000
00000000
00001010
00000000
00000000
00010000
00001000
,
00010000
00000000
00000000
00100000
00000000
00000000
01000000
00000000
00010000
00000000
10000000
00000000
,
02000000
03100000
01000000
01100000
,
00100000
00001000
00100000
00001000
00010000
00000100
00010000
00000100
,
00001000
00000010
00000100
00000001
00000010
00000100
00001000
00000000
,
00000001
00000100
00000001
00000100
00001000
00010000
00001000
00010000
,
00100000
01000000
00010000
00100000
01000000
10000000
00100000
00000000
,
10000000
01000000
10000000
01000000
00010000
00001000
00010000
00001000
,
00000010
00000100
00001000
00000010
00000100
00000001
00000010
00000000
,
00000100
00010000
00000100
00010000
00001000
00100000
00001000
00100000
,
00010000
01000000
00100000
10000000
01000000
00100000
00001000
00010000
,
00000200
00000000
00000000
00000000
,
00000000
00000000
00000000
00000000
,
00000000
00000000
00000000
00000000
,
00000000
00000000
00000000
00000000
,
00000000
00000000
00000000
00000000
,
00000000
00000000
00000000
00000000
,
00000000
00000000
00000000
00000000
,
00000000
00000000
00000300
00000000
,
00000110
00000000
00000011
00000000
00000001
00000100
00000010
00000000
,
00001010
00000000
00001100
00000000
00000100
00010000
00001000
00000000
,
00011000
00000000
00101000
00000000
00100000
00010000
01000000
00000000
,
00100000
10000000
00010000
00000000
10000000
01000000
00010000
00000000
,
00001000
00100000
00001000
00100000
00010000
01000000
00001000
00010000
,
00000010
00001000
00000010
00001000
00000001
00000010
00000100
00001000
,
00000002
00000000
00000103
00000010
00000200
00000000
00001300
00010000
,
00002000
00000000
00013000
00100000
10000000
00100000
01000000
00020000
,
00000000
00000000
00000000
00000000
,
00000000
00000000
00000000
00000000
,
00000000
00000000
00000000
00000000
,
00000000
00000000
00000000
00000000
,
00000000
00000000
00000000
00000000
,
00030000
00000000
00000000
00000000
;

//--------------- dance-double - forcednature ----------------
#NOTEDATA:;
#STEPSTYPE:dance-double;
#DESCRIPTION:forcednature;
#DIFFICULTY:Challenge;
#METER:18;
#RADARVALUES:0,0,0,0,0;
#CREDIT:forcednature;
#NOTES:
00000000
00000000
00000000
00000000
,
00000000
00000000
00000000
00000000
,
00000000
00000000
00000000
00000000
,
00000000
00000000
00000000
00000000
,
00000000
00000000
00000000
00000000
,
00000000
00000000
00000000
00000000
,
00001000
00001000
00010000
00001000
,
00100000
00010000
00100000
00000000
01000000
00000000
00100000
00001000
,
00020000
00000010
00032000
00100000
,
00013000
00001000
00010000
00000000
00022000
00000000
00033000
00000000
,
00001000
00000010
00000001
00000000
00000010
00000100
00001000
00000000
,
00000001
00000100
00000010
00001000
00000100
00010000
00001000
00000000
,
00010000
00100000
10000000
00000000
00100000
01000000
00010000
00000000
,
10000000
01000000
00100000
00001000
00020000
00000000
00000000
00030000
,
00001000
00000010
00000001
00000000
00000010
00000100
00001000
00000000
,
00000001
00000100
00000010
00001000
00000100
00010000
00001000
00000000
,
00010000
00100000
10000000
00000000
00100000
01000000
00010000
00000000
,
10000000
01000000
00100000
00001000
00020000
00000000
00000000
00000000
,
00030100
00000000
00001000
00000000
00000100
00000000
00001000
00000000
00000000
00000010
00000000
00000000
00000100
00000000
00000001
00000000
00000100
00000000
00000010
00000000
00000000
00001000
00000000
00000000
,
00000100
00000000
00001000
00000000
00000100
00000000
00010000
00000000
00000000
00001000
00000000
00000000
00100000
00000000
00010000
00000000
00100000
00000000
01000000
00000000
00000000
10000000
00000000
00000000
,
00100000
01000000
00100000
01000000
00010000
01000000
00010000
00100000
00001000
00010000
00001000
00010000
,
00000010
00001000
00000010
00000100
00000001
00000010
00000200
00000000
00000000
00001000
00000000
00000000
,
00010300
00000000
00001000
00000000
00010000
00000000
00001000
00000000
00000000
00100000
00000000
00000000
00010000
00000000
01000000
00000000
00100000
00000000
01000000
00000000
00000000
00100000
00000000
00000000
,
10000000
00000000
01000000
00000000
10000000
00000000
00010000
00000000
00000000
00100000
00000000
00000000
00001000
00000000
00010000
00000000
00001000
00000000
00010000
00000000
00000000
00000100
00000000
00000000
,
00001000
00000010
00000100
00000010
00000100
00000001
00001000
00000100
00010000
00001000
00010000
00001000
,
00100000
00010000
00100000
01000000
10000000
00010000
01000000
00001000
00010000
00001000
00100000
00001000
,
00020000
00000000
00000000
00031000
00000000
00000010
00000000
00000000
,
00000002
00000000
00000000
00000013
00000000
00001000
00000000
00000000
,
00020000
00000000
00000000
02030000
00000000
00000000
23000000
00000000
,
00000000
30200000
02300000
03000000
,
00020000
00000000
00000000
00130000
00000000
10000000
00000000
00000000
,
00200000
00000000
00000000
00301000
00000000
00010000
00000000
00000000
,
00000200
00000000
00000000
00002300
00000000
00000000
00003020
00000000
,
00000000
00000230
00000301
00001000
,
00001001
00000000
00000001
00000100
00000010
00000100
00001000
00010000
,
00001000
00000000
00010000
00100000
10000000
00100000
01000000
00010000
,
10000000
00000000
01000000
00100000
01000000
00010000
00001000
00100000
,
00001000
00010000
00000100
00010000
00001000
00000010
00000001
00000010
,
00000100
00000000
00000000
00001000
00000100
00010000
00001000
00010000
00001000
00100000
00010000
10000000
,
01000000
00000000
00000000
10000000
00100000
10000000
00010000
01000000
00001000
00010000
00001000
00010000
,
00000020
00000000
00000000
00001030
00000001
00001000
00000002
00000000
00000000
00000013
00000100
00000010
,
00000200
00000000
00000000
00000000
00000000
00000000
00010300
00000000
00000000
00001000
00000000
00000000
00100000
00000000
00010000
00000000
00100000
00000000
01000000
00000000
10000000
00000000
01000000
00000000
,
00100000
00000000
01000000
00010000
00001000
00010000
01000000
00100000
,
00010000
00000000
01000000
00001000
00010000
00100000
00010000
00001000
,
01000000
00000000
00001000
00010000
00000100
00001000
00000001
00000010
,
00000001
00000100
00001000
00000100
00000001
00000010
00000100
00010000
,
00001000
00000000
00000000
00100000
00010000
00100000
00001000
00010000
00000010
00001000
00000010
00000100
,
00000001
00000000
00000000
00000010
00000100
00001000
00000100
00010000
00001000
00100000
00010000
00100000
,
01000000
10000000
01000000
20000000
00000000
30100000
01000000
00001000
,
00020000
00000000
00000000
00000000
00000000
00000000
00031000
00010000
00001000
00010000
00000010
00001000
,
00000200
00000000
00000000
00000000
,
00000000
00000000
00000000
00000300
,
00000020
00000000
00000000
00000030
,
00000002
00000000
00000000
00000003
,
00000200
00000000
00000000
00000000
,
00000000
00000000
00000000
00000300
,
00002000
00000000
00000000
00003000
,
00020000
00000000
00000000
00000000
00000000
00000000
00000000
00000000
00030000
00000000
00000000
00000000
00001000
00010000
00001000
00010000
,
00001000
00010000
00001000
00100000
00010000
00100000
01000000
10000000
,
00000000
00100000
01000000
00100000
00010000
00001000
00010000
00000100
,
00002000
00000000
00000000
00003010
00000100
00000010
00000200
00000000
00000000
00001300
00010000
00001000
,
00010000
00001000
01000000
00010000
00100000
01000000
10000000
00100000
,
00000000
10000000
01000000
00100000
01000000
00010000
00001000
00100000
,
00001000
00010000
00000100
00010000
00001000
00000010
00000001
00000010
,
00000200
00000000
00000000
00000300
00001000
00000100
00000010
00000001
,
00000100
00000010
00010000
00001000
01000000
00000000
00100000
00000000
,
20020000
00000000
00000000
00000000
00030000
00000000
30100000
01000000
,
00200000
00000000
00000000
00320000
,
00032000
00000000
00003100
00000010
00000000
00000100
00000000
00000001
,
00000020
00000000
00000000
00000000
00000000
00000030
00000100
00001000
,
00000002
00000000
00000000
00000000
00000000
00000000
00000000
00000000
00000000
00000000
00000003
00001000
00000001
00000000
00000100
00000000
,
00000010
00000000
00002000
00000000
00000000
00000000
00023000
00000000
00000000
00000000
00030000
00000000
01000000
00000000
00010000
01000000
,
00020000
00000000
00000000
00230000
00000000
00000000
01300000
00000000
10000000
00000000
01000000
00000000
,
00020000
00000000
00000000
00000000
00000000
00000000
00031000
00010000
,
00021000
00000000
00000000
00000000
00031000
00000000
00010000
00001000
,
00000020
00000000
00000130
00000020
,
00000032
00000000
00000103
00001000
00000000
00010000
00000000
00100000
,
20000000
00000000
00000000
00000000
30100000
00000000
01000000
00010000
,
00200000
00000000
00000000
00000000
01300000
00000000
00100000
00001000
,
00020000
00000000
00000000
00030020
00000000
00000000
00000130
00000001
,
00000010
00000100
00010000
00001000
00100000
01000000
10000000
00010000
,
01000000
00100000
00010000
00001000
00000100
00000001
00000100
00001000
,
00010000
00000000
00010000
00100000
00010000
00100000
10000000
00100000
,
01000000
00010000
00100000
01000000
00100000
00000000
00101000
00000000
,
00011000
00000000
00010000
00000100
00010000
00000100
00010000
00001000
,
00000010
00000100
00000010
00000001
00000100
00000000
00000110
00000000
,
00001010
00000000
00000000
00000000
00000000
00000000
00001000
00000000
00000000
00000100
00000000
00000000
00010000
00000000
00001000
00000000
00010000
00000000
00001000
00000000
00000000
00100000
00000000
00000000
,
00010000
00000000
00000000
00000000
00000000
00000000
01000000
00000000
00000000
00100000
00000000
00000000
10000000
00000000
01000000
00000000
00100000
00000000
00010000
00000000
00000000
01000000
00000000
00000000
,
00002000
00000000
00000000
00013000
00001000
00010000
00000200
00000000
00000000
00001300
00000100
00001000
,
00000001
00000100
00000010
00001000
00000100
00000000
00011000
00000000
,
00100000
00010000
00100000
00010000
10000000
00100000
01000000
00010000
,
00100000
01000000
00100000
00001000
00010000
00000100
00000010
00000100
,
00001000
00000010
00001000
00000010
00000100
00000001
00000100
00001000
,
00010000
00100000
10000000
00100000
01000000
00010000
00100000
01000000
,
00100000
00010000
00100000
00010000
00100000
00010000
01000000
00010000
00100000
00001000
00010000
00000100
,
00010000
00001000
00010000
00001000
00010000
00001000
00000010
00000100
00001000
00000100
00000010
00000001
,
00002000
00000000
00000000
00003000
00000001
00000100
00001000
00010000
,
00022000
00000000
00000000
00033000
,
00001000
00100000
00010000
00000000
00110000
00000000
10000000
00100000
,
10000000
00010000
00100000
00000000
00011000
00000000
00000100
00001000
,
00000010
00000100
00000001
00000100
00000000
00000010
00000100
00001000
,
00020000
00000000
00000010
00000000
00031000
00000000
00010000
00001000
,
00100000
00000000
00110000
00000000
00100000
00010000
10000000
00100000
,
01000000
00000000
00100000
00000000
00000000
00000000
01100000
00000000
00000000
00000000
01000000
00000000
00001000
00000000
00010000
00001000
,
00010000
00000000
00000000
00011000
00000000
00000000
00002000
00000000
00003020
00000000
00000032
00000000
,
00000013
00000000
00000110
00000000
00000200
00000000
00001300
00000001
,
00000100
00001000
00000100
00001000
00010000
00001000
00010000
00100000
,
10000000
00000000
00000000
01000000
00000000
00000000
00100000
00000000
00000000
00010000
00000000
00000000
01000000
00000000
00010000
00000000
01000000
00000000
00001000
00000000
00010000
00000000
00001000
00000000
,
00010000
00000100
00001000
00000100
00010000
00001000
00010000
00000010
,
00000100
00000000
00000000
00000001
00000000
00000000
00000010
00000000
00000000
00000100
00000000
00000000
00010000
00000000
00001000
00000000
00010000
00000000
00001000
00000000
00100000
00000000
00010000
00000000
,
10000000
00100000
01000000
00010000
00100000
01000000
00100000
00001000
,
00010000
00000010
00000100
00001000
00010000
00000010
00001000
00000001
,
00000010
00000001
00000010
00000100
00001000
00000100
00010000
00001000
00010000
00100000
01000000
00100000
,
10000000
00010000
10000000
01000000
00100000
00010000
01000000
00001000
00010000
00000100
00001000
00000001
,
00000020
00000000
00000000
00000000
,
00000000
00000000
00000000
00000000
,
00000000
00000000
00000000
00000000
,
00000000
00000000
00000000
00000030
,
00000002
00000000
00000000
00000103
00000000
00001000
00000000
00000000
,
00020000
00000000
00000000
00130000
00000000
10000000
00000000
00000000
,
02000000
00000000
00000000
03200000
00000000
00000000
00302000
00000000
,
00000000
00023000
00030100
00001000
,
00001001
00000000
00000001
00000100
00000010
00000100
00001000
00010000
,
00001000
00000000
00100000
00010000
01000000
00010000
00100000
01000000
,
10000000
00000000
01000000
00010000
00001000
00010000
00001000
00000010
,
00000001
00000100
00000010
00001000
00000100
00000010
00000100
00010000
,
00001000
00000000
00000000
00100000
00010000
00100000
00001000
00010000
00001000
01000000
00100000
10000000
,
01000000
00100000
00010000
01000000
00001000
00010000
00000010
00001000
00000001
00000010
00000100
00001000
,
00000002
00000000
00000000
00000103
00000010
00001000
00000020
00000000
00000000
00010030
00001000
00100000
,
00002000
00000000
00000000
00013000
00001000
01000000
00010000
00100000
01000000
10000000
01000000
00020000
,
00000000
00000000
00000000
00000000
,
00000000
00000000
00000000
00000000
,
00000000
00000000
00000000
00000000
,
00000000
00000000
00000000
00000000
,
00000000
00000000
00000000
00000000
,
00030000
00000000
00000000
00000000
;
