#VERSION:0.83;
#TITLE:神っぽいな;
#SUBTITLE:;
#ARTIST:ピノキオピー;
#TITLETRANSLIT:Kamippoina;
#SUBTITLETRANSLIT:;
#ARTISTTRANSLIT:PinocchioP;
#GENRE:;
#CREDIT:video/audio extraordiberry;
#MUSIC:Kamippoina.ogg;
#BANNER:Kamippoina.png;
#BACKGROUND:Kamippoina-bg.png;
#CDTITLE:;
#SAMPLESTART:52.157;
#SAMPLELENGTH:15.000;
#SELECTABLE:YES;
#OFFSET:0.001;
#BPMS:0.000=142.000
,114.000=71.000
,116.000=142.000
;
#STOPS:16.000=0.845;
#TIMESIGNATURES:0.000=4=4,
16.000=2=4,
18.000=4=4,
114.000=2=4,
116.000=4=4
;
#BGCHANGES:2.000=Kamippoina.mp4=1.000=0=0=0=StretchNoLoop====,
99999.000=-nosongbg-=1.000=0=0=0=StretchNoLoop====
;
#FGCHANGES:;

//--------------- dance-single - forcednature ----------------
#NOTEDATA:;
#STEPSTYPE:dance-single;
#DESCRIPTION:forcednature;
#DIFFICULTY:Beginner;
#METER:2;
#RADARVALUES:0,0,0,0,0;
#CREDIT:forcednature;
#NOTES:
0000
0000
0000
0000
,
0000
0000
0000
0000
,
0000
0000
0000
0000
,
0000
0000
0000
0000
,
0000
0000
0001
0000
,
0000
0000
0000
0000
,
0000
0000
1000
0000
,
0000
0000
0000
0000
,
0000
0000
0010
0000
,
0000
0000
0000
0000
,
0000
0000
1000
0000
,
0000
0000
0000
0000
,
0000
0000
0100
0000
,
0000
0000
0100
0000
,
0000
0000
1000
0000
,
0000
0000
0001
0000
,
0000
0000
0010
0000
,
0000
0000
0010
0000
,
0000
0000
0001
0000
,
0000
0000
1000
0000
,
0000
0000
0010
0000
,
0000
0000
0000
0000
,
0000
0000
0100
0000
,
0100
0000
0001
0000
,
0000
0000
0010
0000
,
0000
0000
0000
0000
,
0000
0000
0100
0000
,
0100
0000
1000
0000
,
0000
0000
0002
0000
,
0003
0000
0000
0000
,
1000
0000
0000
0000
,
1000
0000
0000
0000
,
0010
0000
0000
0000
,
0100
0000
0000
0000
,
0001
0000
0000
0000
,
0001
0000
0000
0000
,
0010
0000
0000
0000
,
0100
0000
0100
0000
,
1000
0000
0000
0000
,
0001
0000
0000
0000
,
0100
0000
0100
0000
,
0001
0000
0100
0000
,
0001
0000
0000
0000
,
1000
0000
0000
0000
,
0100
0000
0100
0000
,
1000
0000
1000
0000
,
0010
0000
0000
0000
,
0100
0000
0000
0000
,
0001
0000
0000
0000
,
1000
0000
1000
0000
,
0100
0000
0000
0000
,
0010
0000
0000
0000
,
0001
0000
0000
0000
,
1001
0000
0000
0000
,
1000
0000
0000
0000
,
0000
0000
0000
0000
,
0001
0000
0000
0000
,
0000
0000
0000
0000
,
0100
0000
0000
0000
,
0000
0000
0000
0000
,
0010
0000
0000
0000
,
1000
0000
0000
0001
;

//--------------- dance-single - forcednature ----------------
#NOTEDATA:;
#STEPSTYPE:dance-single;
#DESCRIPTION:forcednature;
#DIFFICULTY:Easy;
#METER:5;
#RADARVALUES:0,0,0,0,0;
#CREDIT:forcednature;
#NOTES:
0000
0000
0000
0000
,
0000
0000
0000
0000
,
0000
0000
0000
0000
,
0000
0000
0000
0000
,
0000
0000
1000
0000
,
0100
0000
0020
0000
,
0030
0000
0001
0000
,
0100
0000
0020
0000
,
0030
0000
1000
1000
,
0001
0001
0020
0000
,
0030
0000
0001
0001
,
1000
1000
0020
0000
,
0030
0010
0000
0100
,
0001
0010
0000
0100
,
1000
0010
0000
0100
,
0001
0010
0000
0110
,
0000
1001
0000
0100
,
1000
0010
0000
0100
,
0001
0010
0000
0100
,
1000
0010
0200
0000
,
0000
0000
0300
0000
0001
0000
0000
0001
,
0000
0000
0000
0000
0001
0000
0000
0001
,
0000
0000
1000
0100
,
0000
0100
0000
1000
,
0000
0000
0010
0000
1000
0000
0000
1000
,
0000
0000
0000
0000
1000
0000
0000
1000
,
0000
0000
0001
0100
,
0000
0100
0001
0000
,
0010
0000
2002
0000
,
3003
0000
0000
0000
,
1000
0100
1000
0010
,
1000
0100
1000
0000
,
0001
0010
0100
1000
,
0100
0010
0001
0000
,
0001
0100
0001
0010
,
0001
0100
0001
0000
,
1000
0010
0100
0001
,
1000
1000
1001
0000
,
0001
0010
0010
0001
,
0100
0100
0001
1000
,
0100
0010
0100
1000
,
0100
0010
0100
0000
,
1000
0010
0010
1000
,
0100
0100
1000
0001
,
0100
0010
0100
0001
,
1001
1001
0100
0010
,
0000
1000
0100
1001
,
0000
0001
0100
1001
,
0000
1000
0100
1001
,
0000
0110
0000
1001
,
0000
0001
0100
1001
,
0000
1000
0100
1001
,
0000
0001
0100
1001
,
0020
0000
0000
0030
,
1000
0000
0100
0000
,
0020
0000
0030
0000
,
0001
0000
0100
0000
,
0020
0000
0030
0000
,
1000
0000
0001
0000
,
0020
0000
0030
0000
,
0001
0000
1000
0000
,
0100
0000
0000
0000
0000
1000
0001
0000
;

//--------------- dance-single - forcednature ----------------
#NOTEDATA:;
#STEPSTYPE:dance-single;
#DESCRIPTION:forcednature;
#DIFFICULTY:Medium;
#METER:9;
#RADARVALUES:0,0,0,0,0;
#CREDIT:forcednature;
#NOTES:
0000
0000
0000
0000
,
0000
0000
0000
0000
,
0000
0000
0000
0000
,
0000
0000
0000
0000
,
0000
0000
0001
0001
,
0100
0000
0000
0000
0100
0000
0000
0000
0010
0000
0000
1000
0000
0000
0020
0000
,
0000
0030
0000
0000
1000
0000
1000
0000
,
0100
0000
0000
0000
0100
0000
0000
0000
0010
0000
0000
0001
0000
0000
2000
0000
,
0000
3000
0010
0010
,
0100
0000
0000
0000
0100
0000
0000
0000
0001
0000
0000
1000
0000
0000
0002
0000
,
0000
0003
0000
0000
0010
0000
0010
0000
,
0100
0000
0000
0000
0100
0000
0000
0000
1000
0000
0000
1000
0000
0000
0001
0000
,
0000
0100
0001
0000
0000
1000
0010
0000
,
0100
0000
0110
0000
0000
0001
0010
0000
,
0100
0000
0110
0000
0000
1000
0100
0000
,
1000
0000
1001
0000
0000
0002
0000
0023
,
0000
2030
0000
3010
0000
0001
0100
0000
,
0010
0000
0101
0000
0000
1000
0100
0000
,
0010
0000
1100
0000
0000
0001
0010
0000
,
0100
1001
1000
0000
,
0010
0000
0110
0000
0000
0001
0100
0000
,
0100
0001
0000
0000
1000
0000
1000
0100
,
0000
0100
1000
0000
0010
0000
0110
0000
,
0001
1001
0100
0110
,
1000
0000
1001
0000
0000
1000
0100
0000
,
0100
1000
0000
0000
0001
0000
0001
0100
,
0000
0100
0001
0000
0010
0000
1001
0000
,
0100
1001
2000
3200
,
0320
0032
0203
0000
,
0300
0000
0000
0000
0000
0000
0000
0010
,
1000
0010
1000
0100
1000
0100
0000
0010
,
0001
0010
0001
0100
0002
0000
0003
1000
,
0010
0110
0001
1001
,
1000
0010
0100
0000
0002
0000
0003
0010
,
0001
0010
0001
0100
0001
0100
0000
0010
,
1000
0010
1000
0100
2000
0000
3000
0010
,
0100
0001
0010
0001
,
1001
0000
0110
0000
1001
0000
0000
0001
,
1000
0100
1000
0001
1000
0100
1000
0000
,
0001
0100
0001
1000
0001
0100
0001
0000
,
0010
0001
0200
0000
1300
0000
0100
0000
,
0010
1000
0200
0000
0302
0000
0003
0100
,
1000
0001
1000
0100
1000
0001
1000
0000
,
0001
0010
0001
1000
0001
0010
0001
0000
,
0100
0010
1000
1100
,
0101
0000
1100
0000
0001
0001
1000
0001
,
0000
0010
0001
0000
0100
0000
0110
0000
,
0000
0010
1000
0000
0100
0000
0110
0000
,
0000
1000
0001
0000
0100
0000
0110
0000
,
0000
0002
0000
0203
0000
2300
0000
3100
,
0000
0001
0010
0000
0100
0000
1001
0000
,
0000
1000
0010
0000
0100
0000
1001
0000
,
0000
0001
0010
0000
0100
0000
1001
0000
,
0001
0000
0000
0100
0000
0000
0020
0000
0000
0000
0000
0000
0030
0000
0000
0000
,
1000
1000
0100
0100
,
1000
0000
0000
0001
0000
0000
0020
0000
0000
0000
0030
0000
0000
0000
0000
0000
,
0001
0001
0100
0100
,
0001
0000
0000
1000
0000
0000
0020
0000
0000
0000
0000
0000
0030
0000
0000
0000
,
0100
0100
0001
0001
,
0010
0000
0000
0001
0000
0000
2000
0000
0000
0000
3000
0000
0000
0000
0000
0000
,
0100
0100
1000
1000
,
0010
0000
0000
0100
0000
0000
0010
0000
0000
0000
1000
0000
0001
0000
0000
0000
;

//--------------- dance-single - forcednature ----------------
#NOTEDATA:;
#STEPSTYPE:dance-single;
#DESCRIPTION:forcednature;
#DIFFICULTY:Hard;
#METER:13;
#RADARVALUES:0,0,0,0,0;
#CREDIT:forcednature;
#NOTES:
0000
0000
0000
0000
,
0000
0000
0000
0000
,
0000
0000
0000
0000
,
0000
0000
0000
0000
,
0000
0000
0000
0000
0000
0000
0000
0000
1000
0000
0000
1000
0000
0000
0100
0000
,
1000
0000
0000
0001
0000
0000
0010
0000
0001
0000
0000
1000
0000
0000
0020
0000
,
0000
0000
0030
0000
0000
0000
0000
0000
1000
0000
0000
1000
0000
0000
0100
0000
,
1000
0000
0000
0001
0000
0000
0100
0000
0010
0000
0000
1000
0000
0000
0002
0000
,
0000
0000
0000
0000
0003
0000
0000
0000
0100
0000
0000
0100
0000
0000
0010
0000
,
1000
0000
0000
0001
0000
0000
0010
0000
0100
0000
1000
0000
0001
0000
0020
0000
,
0000
0000
0030
0000
0000
0000
0000
0000
0100
0000
0000
1000
0000
0000
0001
0000
,
0100
0000
0000
0100
0000
0000
0010
0000
1000
0000
0000
0001
0000
0000
0001
0000
,
0000
0000
0010
0000
0110
0000
0000
0000
0000
0000
1000
0000
0100
1000
0000
0001
,
0000
0001
0000
0010
0100
0000
0110
0000
0000
0000
0001
0000
0100
0001
0000
1000
,
0000
1000
0000
0010
0100
0000
0110
0000
0000
0000
0001
0000
0010
0001
0000
1000
,
0000
1000
0000
0100
0010
0000
0110
0000
0000
0000
2100
0000
0000
0000
3010
0000
,
0000
0000
0102
0000
0000
0000
0013
0000
0000
0000
0001
0000
1000
0100
0000
0010
,
0000
0010
0000
0100
1000
0000
1010
0000
0000
0000
1000
0000
0001
0100
0000
0010
,
0000
0010
0000
0100
0001
0000
0011
0000
0000
0000
1000
0000
0001
0010
0000
0100
,
0000
0100
0000
0010
0001
0000
0200
0000
0320
0000
0000
2030
0000
0000
3002
0000
,
0000
0013
0110
0000
0001
0100
1000
0001
,
0010
1000
0010
0100
0001
0100
1000
0001
,
0010
0000
1000
0000
0001
0000
0000
0000
1000
0000
0000
0100
0010
0000
0000
0000
,
0001
0100
0010
1000
0200
0000
0001
0000
,
1300
0000
0100
0000
1000
0001
1000
0001
1000
0000
0100
0000
0001
0000
1000
0000
,
0010
0001
0010
0100
1000
0100
0001
1000
,
0010
0001
1000
0001
0200
0000
0310
1000
,
1000
0000
0100
0000
1000
0000
0001
0000
0010
0000
0000
0010
0100
0000
0000
0100
,
0010
0000
0000
0001
0100
0000
0000
0010
2000
0000
0000
0000
0000
0000
0000
0000
,
3000
0000
0000
0000
0000
0000
0001
0100
,
1000
0000
0100
0001
0100
0000
0001
0000
0010
0000
0010
0000
0001
0000
0100
0000
,
1000
0000
0100
0001
0100
0000
0001
0000
0020
0000
0000
0000
0030
0000
0100
0000
,
1000
0010
0001
0010
1000
0100
0001
0100
,
1000
0010
0100
0001
2000
0000
3000
0100
,
0001
0000
0100
1000
0100
0000
1000
0000
0010
0000
0010
0000
1000
0000
0100
0000
,
0001
0000
0100
1000
0100
0000
1000
0000
0020
0000
0000
0000
0030
0000
0100
0000
,
0001
0010
1000
0010
0001
0100
1000
0100
,
0101
0000
0011
0000
2002
0000
3003
0001
,
0100
0000
0010
0100
0010
0100
0000
0010
0000
1000
0010
0000
1000
0000
0100
0000
,
1000
0000
0001
0000
0010
0001
0010
0001
0010
0000
0100
0000
1000
0000
0010
0000
,
0001
0000
0010
1000
0010
0000
1000
0000
0100
0000
0100
0000
1000
0000
0010
0000
,
0001
0000
0010
1000
0010
0000
1000
0000
0200
0000
0000
0000
1300
0000
0001
1000
,
0001
0000
0010
0000
0001
0100
0001
0100
0000
0010
0000
0010
1000
0000
0100
0000
,
1000
0001
1000
0001
1000
0000
0010
0000
0100
0010
0100
0000
0001
0000
0010
0000
,
1000
0000
0010
0001
0010
0000
0001
0000
0100
0000
1000
0000
0100
0000
0001
0010
,
0001
0000
1000
0010
1000
0000
0001
0010
0001
1000
0001
1000
0100
0000
0010
0000
,
0000
0000
0001
0000
0100
1000
0000
0100
0000
0100
0000
0001
0010
0000
0011
0000
,
0000
0000
1000
0000
0100
0001
0000
0100
0000
0100
0000
1000
0010
0000
1010
0000
,
0000
0000
0001
0000
0010
1000
0000
0010
0000
0010
0000
0001
0100
0000
0101
0000
,
0000
1020
0000
0031
0000
1200
0000
0301
,
0000
0000
1000
0000
0010
0100
0000
1000
0000
1000
0000
0100
0001
0000
0011
0000
,
0000
0000
0001
0000
0010
0100
0000
0001
0000
0001
0000
0100
1000
0000
1010
0000
,
0000
0000
1000
0000
0100
0010
0000
1000
0000
1000
0000
0010
0001
0000
0100
0000
,
0110
0000
0000
2000
0000
0000
3002
0000
0000
0000
0000
0000
0003
0000
0000
0000
,
0010
0000
0000
0010
0000
0000
0001
0000
0100
0000
0000
0010
0000
0000
1000
0000
,
0001
0000
0000
0010
0000
0000
0200
0000
0000
0000
0300
0000
0000
0000
0000
0000
,
1000
0000
0000
0001
0000
0000
0100
0000
0010
0000
0000
1000
0000
0000
0001
0000
,
0010
0000
0000
0100
0000
0000
2000
0000
0000
0000
0000
0000
3000
0000
0000
0000
,
0001
0000
0000
0100
0000
0000
0010
0000
1000
0000
0000
0001
0000
0000
0010
0000
,
0100
0000
0000
1000
0000
0000
0020
0000
0000
0000
0030
0000
0000
0000
0000
0000
,
0100
0000
0000
0001
0000
0000
1000
0000
0100
0000
0000
1000
0000
0000
0001
0000
,
0100
0000
0000
0100
0000
0000
0010
0000
0000
0000
2000
0000
3002
0000
0003
0000
;

//--------------- dance-double - forcednature ----------------
#NOTEDATA:;
#STEPSTYPE:dance-double;
#DESCRIPTION:forcednature;
#DIFFICULTY:Easy;
#METER:5;
#RADARVALUES:0,0,0,0,0;
#CREDIT:forcednature;
#NOTES:
00000000
00000000
00000000
00000000
,
00000000
00000000
00000000
00000000
,
00000000
00000000
00000000
00000000
,
00000000
00000000
00000000
00000000
,
00000000
00000000
00001000
00000000
,
00010000
00000000
00000200
00000000
,
00000300
00000000
00010000
00000000
,
00001000
00000000
02000000
00000000
,
03000000
00000000
00010000
00010000
,
10000000
10000000
00200000
00000000
,
00300000
00000000
10000000
10000000
,
00010000
00010000
00200000
00000000
,
00300000
00001000
00000000
00010000
,
00001000
00010000
00000000
00000100
,
00001000
00000100
00000000
00000010
,
00000001
00001000
00000000
00001001
,
00000000
00000110
00000000
00001000
,
00000100
00010000
00000000
00001000
,
00100000
00010000
00000000
01000000
,
00100000
10000000
02000000
00000000
,
00000000
00000000
03000000
00000000
00100000
00000000
00000000
00100000
,
00000000
00000000
00000000
00000000
00100000
00000000
00000000
00100000
,
00000000
00000000
00001000
00010000
,
00000000
00010000
00000000
00000100
,
00000000
00000000
00001000
00000000
00000010
00000000
00000000
00000010
,
00000000
00000000
00000000
00000000
00000010
00000000
00000000
00000010
,
00000000
00000000
00000100
00000001
,
00000000
00000001
00000100
00000000
,
00000010
00000000
00002002
00000000
,
00003003
00000000
00000000
00000000
,
00001000
00000100
00010000
00000100
,
00001000
00000100
00010000
00000000
,
00001000
00100000
00010000
00100000
,
00010000
01000000
00001000
00000000
,
00010000
00001000
00100000
00001000
,
00010000
00001000
00100000
00000000
,
00010000
01000000
00100000
10000000
,
00010000
00010000
10010000
00000000
,
00010000
00100000
00100000
00001000
,
00010000
00010000
00000100
00001000
,
00000010
00000100
00000001
00000100
,
00000010
00000100
00000001
00000000
,
00001000
00000100
00000100
00010000
,
00001000
00001000
00100000
00010000
,
01000000
00100000
01000000
00010000
,
10010000
10010000
01000000
00100000
,
00000000
00010000
00100000
10010000
,
00000000
00010000
01000000
00011000
,
00000000
00000100
00001000
00001001
,
00000000
00000110
00000000
00001001
,
00000000
00001000
00000100
00011000
,
00000000
00100000
00001000
00011000
,
00000000
01000000
00010000
10010000
,
00200000
00000000
00000000
00300000
,
10000000
00000000
01000000
00000000
,
00200000
00000000
00300000
00000000
,
00010000
00000000
01000000
00000000
,
00002000
00000000
00003000
00000000
,
00010000
00000000
00000100
00000000
,
00002000
00000000
00003000
00000000
,
00000010
00000000
00000100
00000000
,
00000001
00000000
00000000
00000000
00000000
00000001
00001000
00000000
;

//--------------- dance-double - forcednature ----------------
#NOTEDATA:;
#STEPSTYPE:dance-double;
#DESCRIPTION:forcednature;
#DIFFICULTY:Medium;
#METER:9;
#RADARVALUES:0,0,0,0,0;
#CREDIT:forcednature;
#NOTES:
00000000
00000000
00000000
00000000
,
00000000
00000000
00000000
00000000
,
00000000
00000000
00000000
00000000
,
00000000
00000000
00000000
00000000
,
00000000
00000000
00001000
00001000
,
00010000
00000000
00000000
00000000
00010000
00000000
00000000
00000000
00000100
00000000
00000000
00001000
00000000
00000000
00000020
00000000
,
00000000
00000030
00000000
00000000
00000100
00000000
00000100
00000000
,
00000001
00000000
00000000
00000000
00000001
00000000
00000000
00000000
00000100
00000000
00000000
00000010
00000000
00000000
00002000
00000000
,
00000000
00003000
00000100
00000100
,
00010000
00000000
00000000
00000000
00010000
00000000
00000000
00000000
00001000
00000000
00000000
00100000
00000000
00000000
00020000
00000000
,
00000000
00030000
00000000
00000000
10000000
00000000
10000000
00000000
,
00100000
00000000
00000000
00000000
00100000
00000000
00000000
00000000
01000000
00000000
00000000
01000000
00000000
00000000
00001000
00000000
,
00000000
00010000
00001000
00000000
00000000
00010000
00000100
00000000
,
00001000
00000000
00001100
00000000
00000000
00000001
00000010
00000000
,
00000100
00000000
00000110
00000000
00000000
00001000
00000010
00000000
,
00010000
00000000
00011000
00000000
00000000
00200000
00000000
00320000
,
00000000
20030000
00000000
30010000
00000000
01000000
00100000
00000000
,
10000000
00000000
11000000
00000000
00000000
00010000
00100000
00000000
,
00001000
00000000
00011000
00000000
00000000
00000100
00001000
00000000
,
00000010
00000110
00000002
00000000
,
00000003
00001000
00001000
00000000
00000000
00000010
00001000
00000000
,
00001000
00000010
00000000
00000000
00010000
00000000
00010000
00001000
,
00000000
00001000
00010000
00000000
00001000
00000000
00011000
00000000
,
00100000
10010000
01000000
01100000
,
00010000
00000000
00011000
00000000
00000000
00000100
00001000
00000000
,
00001000
00000100
00000000
00000000
00000010
00000000
00000010
00000001
,
00000000
00000001
00000010
00000000
00000100
00000000
00011000
00000000
,
00010000
00011000
00200000
00320000
,
02030000
03200000
20300000
00000000
,
30000000
00000000
00000000
00000000
00000000
00000000
00000000
00010000
,
00100000
00010000
00100000
00001000
00010000
00001000
00000000
00010000
,
00000010
00010000
00000010
00001000
00000020
00000000
00000030
00000100
,
00000001
00000011
00001000
00001100
,
00010000
00001000
00010000
00000000
00002000
00000000
00003000
00100000
,
00010000
00100000
00010000
01000000
00010000
01000000
00000000
00100000
,
10000000
00100000
10000000
01000000
20000000
00000000
30000000
00100000
,
01000000
00010000
00100000
00001000
,
00011000
00000000
00011000
00000000
00011000
00000000
00000000
00000100
,
00001000
00000001
00001000
00000100
00001000
00000001
00001000
00000000
,
00000010
00000100
00000001
00000100
00000010
00000100
00000001
00000000
,
00001000
00000010
00020000
00000000
00031000
00000000
01000000
00000000
,
00010000
00100000
00002000
00000000
00023000
00000000
00030000
00001000
,
01000000
00010000
01000000
00001000
01000000
00010000
01000000
00000000
,
00100000
10000000
00100000
01000000
00100000
10000000
00100000
00000000
,
01000000
00001000
00010000
00011000
,
00010100
00000000
00011000
00000000
00001000
00001000
00010000
00001000
,
00000000
00000010
00000100
00000000
00000010
00000000
00000011
00000000
,
00000000
00001000
00000100
00000000
00010000
00000000
00011000
00000000
,
00000000
00100000
00010000
00000000
01000000
00000000
01100000
00000000
,
00000000
00020000
00000000
02030000
00000000
23000000
00000000
31000000
,
00000000
00010000
00100000
00000000
00001000
00000000
00011000
00000000
,
00000000
00010000
00000010
00000000
00001000
00000000
00001001
00000000
,
00000000
00000001
00000010
00000000
00000100
00000000
00001001
00000000
,
00001000
00000000
00000000
00000010
00000000
00000000
00020000
00000000
00000000
00000000
00000000
00000000
00030000
00000000
00000000
00000000
,
00001000
00001000
01000000
01000000
,
00010000
00000000
00000000
10000000
00000000
00000000
00200000
00000000
00000000
00000000
00300000
00000000
00000000
00000000
00000000
00000000
,
10000000
10000000
01000000
01000000
,
00100000
00000000
00000000
00001000
00000000
00000000
00020000
00000000
00000000
00000000
00000000
00000000
00030000
00000000
00000000
00000000
,
00000100
00000100
00001000
00001000
,
00000010
00000000
00000000
00000100
00000000
00000000
00000002
00000000
00000000
00000000
00000003
00000000
00000000
00000000
00000000
00000000
,
00000010
00000010
00000100
00000100
,
00010000
00000000
00000000
00001000
00000000
00000000
00010000
00000000
00000000
00000000
00001000
00000000
00010000
00000000
00000000
00000000
;

//--------------- dance-double - forcednature ----------------
#NOTEDATA:;
#STEPSTYPE:dance-double;
#DESCRIPTION:forcednature;
#DIFFICULTY:Hard;
#METER:13;
#RADARVALUES:0,0,0,0,0;
#CREDIT:forcednature;
#NOTES:
00000000
00000000
00000000
00000000
,
00000000
00000000
00000000
00000000
,
00000000
00000000
00000000
00000000
,
00000000
00000000
00000000
00000000
,
00000000
00000000
00000000
00000000
00000000
00000000
00000000
00000000
00001000
00000000
00000000
00001000
00000000
00000000
00010000
00000000
,
00100000
00000000
00000000
01000000
00000000
00000000
00100000
00000000
10000000
00000000
00000000
01000000
00000000
00000000
00020000
00000000
,
00000000
00000000
00030000
00000000
00000000
00000000
00000000
00000000
00001000
00000000
00000000
00001000
00000000
00000000
00000010
00000000
,
00000100
00000000
00000000
00001000
00000000
00000000
00000001
00000000
00000100
00000000
00000000
00001000
00000000
00000000
00020000
00000000
,
00000000
00000000
00000000
00000000
00030000
00000000
00000000
00000000
00100000
00000000
00000000
00100000
00000000
00000000
10000000
00000000
,
00010000
00000000
00000000
01000000
00000000
00000000
00001000
00000000
00010000
00000000
00000100
00000000
00001000
00000000
00000020
00000000
,
00000000
00000000
00000030
00000000
00000000
00000000
00000000
00000000
00000100
00000000
00000000
00001000
00000000
00000000
00000100
00000000
,
00000001
00000000
00000000
00000001
00000000
00000000
00000010
00000000
00001000
00000000
00000000
00010000
00000000
00000000
00001000
00000000
,
00000000
00000000
00010000
00000000
00011000
00000000
00000000
00000000
00000000
00000000
00100000
00000000
00010000
01000000
00000000
00100000
,
00000000
00100000
00000000
10000000
01000000
00000000
01100000
00000000
00000000
00000000
00100000
00000000
00001000
00010000
00000000
00000100
,
00000000
00000100
00000000
00001000
00000010
00000000
00000110
00000000
00000000
00000000
00000100
00000000
00000001
00001000
00000000
00000010
,
00000000
00000010
00000000
00001000
00000100
00000000
00001100
00000000
00000000
00000000
00021000
00000000
00000000
00000000
00130000
00000000
,
00000000
00000000
00012000
00000000
00000000
00000000
00003010
00000000
00000000
00000000
00010000
00000000
00001000
01000000
00000000
00010000
,
00000000
00010000
00000000
00100000
01000000
00000000
01100000
00000000
00000000
00000000
10000000
00000000
00010000
01000000
00000000
00100000
,
00000000
00100000
00000000
00010000
00001000
00000000
00011000
00000000
00000000
00000000
00000010
00000000
00001000
00000100
00000000
00000010
,
00000000
00000010
00000000
00000001
00001000
00000000
00000020
00000000
00000230
00000000
00000000
00002300
00000000
00000000
00023000
00000000
,
00000000
00100000
00130000
00000000
00010000
00001000
00000010
00001000
,
00010000
00000010
00000100
00001000
00010000
00001000
00000010
00001000
,
00010000
00000000
00000010
00000000
00000100
00000000
00000000
00000000
00001000
00000000
00000000
00010000
00100000
00000000
00000000
00000000
,
00010000
00001000
00000100
00000001
00002000
00000000
00000010
00000000
,
00003100
00000000
00010000
00000000
00001000
00010000
00001000
00010000
00001000
00000000
00010000
00000000
00100000
00000000
00010000
00000000
,
00001000
00100000
01000000
00010000
00001000
00010000
00100000
00010000
,
00001000
00000000
00100000
00000000
01000000
00000000
00000000
00000000
00010000
00000000
00000000
00001000
00000010
00000000
00001000
00000000
,
00001000
00000000
00010000
00000000
00001000
00000000
00100000
00000000
00010000
00000000
00000000
01000000
00100000
00000000
00000000
10000000
,
01000000
00000000
00000000
00100000
00001000
00000000
00000000
00010000
00000200
00000000
00000000
00000000
00000000
00000000
00000000
00000000
,
00000300
00000000
00000000
00000000
00000000
00000000
00001000
00000100
,
00000001
00000000
00000100
00001000
00000100
00000000
00010000
00000000
00000010
00000000
00000010
00000000
00001000
00000000
00000100
00000000
,
00000001
00000000
00000100
00001000
00000100
00000000
00010000
00000000
00000020
00000000
00000000
00000000
00000030
00000000
00000000
00000000
,
00000100
00001000
00010000
00001000
00010000
00100000
01000000
00100000
,
10000000
01000000
00010000
00001000
00200000
00000000
00310000
01000000
,
10000000
00000000
01000000
00010000
01000000
00000000
00001000
00000000
00100000
00000000
00100000
00000000
00010000
00000000
01000000
00000000
,
10000000
00000000
01000000
00010000
01000000
00000000
00001000
00000000
00200000
00000000
00000000
00000000
00300000
00000000
01000000
00000000
,
00010000
00001000
00000010
00001000
00010000
00000100
00001000
00000010
,
00001010
00000000
00011000
00000000
02020000
00000000
03030000
00010000
,
10000000
00000000
01000000
10000000
01000000
10000000
00000000
00100000
00000000
01000000
00100000
00000000
01000000
00000000
00010000
00000000
,
00100000
00000000
00001000
00000000
00010000
00001000
00010000
00001000
00010000
00000000
00000100
00000000
00001000
00000000
00000010
00000000
,
00000001
00000000
00000010
00001000
00000010
00000000
00010000
00000000
00000100
00000000
00000100
00000000
00001000
00000000
00000010
00000000
,
00000001
00000000
00000010
00001000
00000010
00000000
00010000
00000000
00002000
00000000
00000000
00000000
00013000
00000000
00000100
00001000
,
00000100
00000000
00010000
00000000
00001000
00010000
00001000
00010000
00000000
00100000
00000000
00100000
01000000
00000000
00010000
00000000
,
10000000
01000000
10000000
01000000
10000000
00000000
00010000
00000000
01000000
00100000
01000000
00000000
00010000
00000000
00100000
00000000
,
10000000
00000000
00100000
00010000
00100000
00000000
00001000
00000000
01000000
00000000
00001000
00000000
00010000
00000000
00000100
00010000
,
00001000
00000000
01000000
00001000
00010000
00000000
00000100
00010000
00001000
00010000
00001000
00100000
00010000
00000000
01000000
00000000
,
00000000
00000000
10000000
00000000
01000000
00010000
00000000
00100000
00000000
00100000
00000000
00001000
00010000
00000000
00011000
00000000
,
00000000
00000000
00000100
00000000
00001000
00000010
00000000
00000100
00000000
00000100
00000000
00000001
00000010
00000000
00001001
00000000
,
00000000
00000000
00000001
00000000
00000100
00001000
00000000
00000100
00000000
00000100
00000000
00000001
00000010
00000000
00000110
00000000
,
00000000
00020100
00000000
00030010
00000000
01002000
00000000
00103000
,
00000000
00000000
00010000
00000000
01000000
10000000
00000000
01000000
00000000
01000000
00000000
00010000
00100000
00000000
00110000
00000000
,
00000000
00000000
00001000
00000000
00010000
00000010
00000000
00001000
00000000
00001000
00000000
00000100
00000001
00000000
00000110
00000000
,
00000000
00000000
00000010
00000000
00000001
00000100
00000000
00001000
00000000
00001000
00000000
00010000
00001000
00000000
00100000
00000000
,
00110000
00000000
00000000
20000000
00000000
00000000
32000000
00000000
00000000
00000000
00000000
00000000
03000000
00000000
00000000
00000000
,
00100000
00000000
00000000
00100000
00000000
00000000
00001000
00000000
00010000
00000000
00000000
00000100
00000000
00000000
00010000
00000000
,
00001000
00000000
00000000
00000010
00000000
00000000
00000002
00000000
00000000
00000000
00000003
00000000
00000000
00000000
00000000
00000000
,
00000100
00000000
00000000
00001000
00000000
00000000
00010000
00000000
01000000
00000000
00000000
00010000
00000000
00000000
00001000
00000000
,
00010000
00000000
00000000
00100000
00000000
00000000
20000000
00000000
00000000
00000000
00000000
00000000
30000000
00000000
00000000
00000000
,
01000000
00000000
00000000
00100000
00000000
00000000
00001000
00000000
00010000
00000000
00000000
00000100
00000000
00000000
00000010
00000000
,
00000001
00000000
00000000
00000100
00000000
00000000
00002000
00000000
00000000
00000000
00003000
00000000
00000000
00000000
00000000
00000000
,
00010000
00000000
00000000
00100000
00000000
00000000
10000000
00000000
01000000
00000000
00000000
00010000
00000000
00000000
00001000
00000000
,
00000010
00000000
00000000
00000010
00000000
00000000
00000100
00000000
00000000
00000000
00002000
00000000
00003002
00000000
00000003
00000000
;
