#VERSION:0.83;
#TITLE:Just Believe;
#SUBTITLE:;
#ARTIST:小寺可南子;
#TITLETRANSLIT:;
#SUBTITLETRANSLIT:;
#ARTISTTRANSLIT:Kanako Kotera;
#GENRE:;
#CREDIT:;
#MUSIC:Just Believe.ogg;
#BANNER:Just Believe.png;
#BACKGROUND:Just Believe-bg.png;
#CDTITLE:./CDTitles/GITADORA Tri-Boost.png;
#SAMPLESTART:59.519;
#SAMPLELENGTH:15.000;
#SELECTABLE:YES;
#OFFSET:-0.614;
#BPMS:0.000=194.000;
#STOPS:;
#TIMESIGNATURES:0.000=4=4;
#BGCHANGES:0.000=../BGAs/17te.mp4=1.000=0=0=0=StretchNoLoop====,
99999.000=-nosongbg-=1.000=0=0=0=StretchNoLoop====
;
#FGCHANGES:;

//--------------- dance-single - forcednature ----------------
#NOTEDATA:;
#STEPSTYPE:dance-single;
#DESCRIPTION:forcednature;
#CREDIT:forcednature;
#DIFFICULTY:Beginner;
#METER:3;
#RADARVALUES:0,0,0,0,0;
#NOTES:
0000
0000
0000
0000
,
0000
0000
0000
0000
,
0000
0000
0000
0000
,
0000
0000
0000
0000
,
0000
0000
0000
0000
,
1000
0000
0000
0000
,
0001
0000
0000
0000
,
1001
0000
0000
0000
,
0000
0000
0000
0000
,
1000
0000
0000
0000
,
0000
0000
0000
0000
,
0100
0000
0000
0000
,
0000
0000
0000
0000
,
0010
0000
0000
0000
,
0000
0000
0000
0000
,
0001
0000
0000
0000
,
0000
0000
0000
0000
,
0100
0000
0000
0000
,
0000
0000
0000
0000
,
0001
0000
0000
0000
,
0000
0000
0000
0000
,
0010
0000
0000
0000
,
0000
0000
0000
0000
,
0100
0000
0000
0000
,
0000
0000
0000
0000
,
1000
0000
0000
0000
,
0000
0000
0000
0000
,
0010
0000
0000
0000
,
0000
0000
0000
0000
,
1000
0000
0000
0000
,
0000
0000
0000
0000
,
0001
0000
0001
0000
,
0001
0000
0000
0000
,
0000
0000
0000
0000
,
0000
0000
0000
0000
,
0010
0000
0010
0000
,
0010
0000
0000
0000
,
0000
0000
0000
0000
,
0000
0000
0000
0000
,
0100
0000
0100
0000
,
0100
0000
0000
0000
,
0000
0000
0000
0000
,
0000
0000
0000
0000
,
1000
0000
1000
0000
,
1000
0000
0000
0000
,
0001
0000
0000
0000
,
1000
0000
0000
0000
,
0010
0000
0000
0000
,
2002
0000
0000
0000
,
3003
0000
0000
0000
,
1000
0000
0001
0000
,
1000
0000
0000
0000
,
0010
0000
0000
0000
,
0010
0000
0000
0000
,
0200
0000
0000
0000
,
0300
0000
0000
0000
,
2002
0000
0000
0000
,
3003
0000
0000
0000
,
0001
0000
1000
0000
,
0001
0000
0000
0000
,
0010
0000
0000
0000
,
0010
0000
0000
0000
,
0100
0000
0000
0000
,
1000
0000
0000
0000
,
0001
0000
0001
0000
,
0100
0000
0000
0000
,
2002
0000
0000
0000
,
0000
0000
3003
0000
,
1000
0000
1000
0000
,
0010
0000
0000
0000
,
0100
0000
0000
0000
,
0001
0000
0001
0000
,
0100
0000
0000
0000
,
0010
0000
0000
0000
,
1000
0000
0000
0000
,
0010
0000
0000
0000
,
0100
0000
0000
0000
,
0001
0000
0000
0000
,
1000
0000
0000
0000
,
0001
0000
0010
0000
;

//--------------- dance-single - forcednature ----------------
#NOTEDATA:;
#STEPSTYPE:dance-single;
#DESCRIPTION:forcednature;
#CREDIT:forcednature;
#DIFFICULTY:Easy;
#METER:7;
#RADARVALUES:0,0,0,0,0;
#NOTES:
0000
0000
0000
0000
,
0000
0000
0000
0000
,
0000
0000
0000
0000
,
0000
0000
0000
0000
,
0000
0000
0000
0000
,
0002
0000
1003
0000
,
0010
0010
0000
0000
,
1001
0000
1000
0000
,
0100
0010
0100
0000
,
1000
0000
0001
0000
,
0100
0010
0100
0000
,
0001
0000
0010
0000
,
0001
1000
0001
0000
,
0010
0000
0100
0000
,
1000
0001
1000
0000
,
1001
0000
0001
0000
,
0100
0001
0100
0001
,
0100
0000
0010
0000
,
2000
0000
3000
0000
,
0010
0000
1000
0000
,
0100
1000
0100
1000
,
0100
0000
0010
0000
,
0002
0000
0003
0000
,
1001
0000
1000
0000
,
0010
0000
0100
0000
,
0001
1000
0001
1000
,
0002
0000
0003
0000
,
0010
0000
0100
0000
,
1000
0000
0100
0000
,
1000
0001
1000
0001
,
2000
0000
3000
0000
,
0010
0000
0010
0000
,
0100
0001
0200
0300
,
0010
0000
0010
0000
,
1000
0001
2000
3000
,
0100
0000
0010
0000
,
0001
0010
0001
0000
,
1000
0000
0010
0010
,
2000
0000
3000
0000
,
0001
0000
0001
0000
,
0100
0010
0200
0300
,
0001
0000
0001
0000
,
0010
0100
0020
0030
,
0001
0000
0001
1000
,
0000
1000
0100
0000
,
0110
0000
1000
0000
,
0001
0000
0100
0000
,
0010
0010
0000
0000
,
1001
0000
1000
0100
,
1000
0010
0000
0110
,
0000
1001
0000
0110
,
0000
0001
1000
0000
,
0001
0000
0010
0000
,
0100
0000
1000
0000
,
0020
0000
0000
0030
,
0100
0001
0100
0000
,
1001
0000
1000
0001
,
0010
0000
0000
0110
,
0000
1001
0000
0110
,
0000
0001
1000
0000
,
0200
0000
0310
0000
,
0100
1000
0001
0000
,
0100
0100
0001
0000
,
0010
0001
0010
0000
,
0200
0000
1300
0000
,
0010
0010
0000
0000
,
1001
0000
1000
0000
,
0100
0010
0001
0000
,
0010
0100
1000
0000
,
0010
0100
0001
0000
,
2000
0000
3200
0000
,
0320
0000
0032
0000
,
1003
0000
0010
0000
,
0100
0001
1000
0000
,
0001
0000
0010
0000
,
0100
1000
0001
0001
,
0100
0000
0010
0000
,
1000
0100
1000
0100
,
1000
0000
0001
0000
,
0100
0001
0010
0010
;

//--------------- dance-single - forcednature ----------------
#NOTEDATA:;
#STEPSTYPE:dance-single;
#DESCRIPTION:forcednature;
#CREDIT:forcednature;
#DIFFICULTY:Medium;
#METER:10;
#RADARVALUES:0,0,0,0,0;
#NOTES:
0000
0000
0000
0000
,
0000
0000
0000
0000
,
0000
0000
0000
0000
,
0000
0000
0000
0000
,
0000
0000
0000
0000
,
0001
0000
1000
0000
0100
0000
0000
0100
,
0000
0100
0020
0000
0000
0000
0030
0000
,
0001
1000
0100
1000
,
0001
0000
0010
0100
0010
0000
0001
0000
,
1000
0001
0100
0001
,
1000
0000
0010
0100
0010
0000
0010
0000
,
0100
0001
0010
0001
,
1000
0000
0001
1000
0001
0000
0100
0000
,
0010
1000
0100
1000
,
0001
0000
1000
0001
1000
0000
1000
0000
,
1001
0000
0001
0010
,
0100
0010
0000
0010
0100
0000
1000
0000
,
0001
0000
0100
0001
,
1000
0010
0000
0010
1000
0000
0001
0000
,
0010
0000
0100
1000
,
0001
0100
0000
0100
0001
0000
1000
0000
,
0010
0000
0100
0001
,
0010
0100
0000
0100
0010
0000
0001
0000
,
1001
0000
1000
0010
,
1000
0001
0000
0001
1000
0000
0010
0000
,
0100
0000
0001
0010
,
0100
1000
0000
1000
0100
0000
1000
0000
,
0001
0000
0100
0001
,
0010
0001
0000
0001
0010
0000
0100
0000
,
1000
1000
0001
1000
,
0010
0000
0100
0010
0200
0000
0300
0000
,
0001
1000
0100
0010
,
0110
0000
0100
0020
0000
0000
0030
0000
,
0001
1000
0010
0100
,
0110
0000
0010
0200
0000
0000
0301
0000
,
1001
1000
0100
0010
,
0011
1000
1010
0001
,
0100
0000
0100
0010
0000
0010
0000
0000
,
1001
0000
1000
0001
1000
0000
0010
0000
,
1000
0001
0100
0010
,
0110
0000
0100
0020
0000
0000
0030
0000
,
1000
0001
0010
0100
,
0110
0000
0010
0200
0000
0000
1300
0000
,
1001
0000
0001
0100
0000
0100
0000
0000
,
0010
0000
1000
0010
1000
0000
0001
0000
,
0010
0000
0010
0100
0000
0100
0000
0220
,
0000
0000
0000
0330
,
1000
0001
1000
0001
0000
0000
0000
0000
,
1001
0000
1000
0000
0100
1000
0001
0000
,
0100
0000
0001
0000
1000
0001
0000
0101
,
0000
1000
0000
1100
0000
0001
0000
0101
,
0000
1000
0001
0000
0010
0000
0100
0000
,
0110
0000
1000
0001
0000
0100
0000
0100
,
0000
0001
0010
0000
0100
0010
0100
0000
,
2000
0000
0001
0000
3100
0010
0000
0010
,
0000
0001
0100
0000
0010
0000
1000
0000
,
1001
0000
0001
0000
0100
0001
1000
0000
,
0100
0000
1000
0000
0001
1000
0000
1100
,
0000
0001
0000
0101
0000
1000
0000
1100
,
0000
0001
1000
0000
0010
0000
0100
0000
,
0110
0000
0001
0000
1000
0001
0000
0001
,
0000
1000
0100
0000
0010
0100
0010
0000
,
0002
0000
1000
0000
0013
0100
0000
0100
,
0000
1000
0100
0000
0010
0000
0001
0000
,
2002
0000
3003
0000
1000
0010
0000
0110
,
0000
0100
0010
0000
0000
0000
0000
0000
,
1001
0000
0001
0000
0010
0001
0000
0001
,
0000
0100
0001
0000
0100
0010
0100
0000
,
0010
0000
1000
0000
0100
1000
0000
1000
,
0000
0010
1000
0010
0000
1000
0001
0000
,
0010
0000
0001
0010
0001
0010
0001
0000
,
2000
3020
0230
0302
,
1003
0000
0001
0100
0001
0000
0001
0000
,
1000
0000
0010
0100
0001
0000
0010
0000
,
0001
0000
1000
0100
1000
0000
1000
0000
,
0001
0000
0010
0100
0010
0000
0010
0000
,
1000
0000
0100
1000
0001
0000
0100
0000
,
0010
0000
1000
0001
0010
0000
0100
0000
,
1000
0000
0100
0010
0001
0000
1000
0000
,
0010
0000
0100
0010
1000
0001
1000
0001
;

//--------------- dance-single - forcednature ----------------
#NOTEDATA:;
#STEPSTYPE:dance-single;
#DESCRIPTION:forcednature;
#CREDIT:forcednature;
#DIFFICULTY:Hard;
#METER:14;
#RADARVALUES:0,0,0,0,0;
#NOTES:
0000
0000
0000
0000
,
0000
0000
0000
0000
,
0000
0000
0000
0000
,
0000
0000
0000
0000
,
0000
0000
0000
0000
,
1000
0000
0001
0000
0001
0100
0000
0110
,
0000
0010
2000
0000
0000
0000
3000
0000
,
0001
0100
0001
0000
1000
0100
0000
1000
,
0010
0000
0000
0010
0000
0000
1000
0000
0100
0000
0000
0010
0000
0000
0001
0000
,
0100
0010
0100
0000
0010
1000
0000
0001
,
0100
0000
0000
0100
0000
0000
0001
0000
0010
0000
0100
0000
0010
0000
0100
0000
,
1000
0001
0100
0000
0010
1000
0000
0001
,
0010
0000
0000
0010
0000
0000
0001
0000
1000
0000
0000
1000
0000
0000
0010
0000
,
0100
0001
0100
0000
0010
1000
0000
0001
,
0010
0000
0000
0010
0000
0000
0100
0000
1000
0000
0001
0000
1000
0000
0001
0000
,
0100
0110
0100
0101
,
0001
1000
0001
1000
0010
0100
0001
0000
,
1000
1100
1000
1010
,
0010
0100
0002
0000
0013
0100
2000
0000
,
3001
0101
1000
1001
,
1000
0100
0010
0100
0010
0001
1000
0000
,
0010
0110
0010
1010
,
1000
0100
0020
0000
0031
1000
0020
0000
,
0130
0001
0100
0000
1000
0100
0001
0000
,
0100
0010
1000
0010
0100
0001
0010
0000
,
0100
1000
0100
0000
0001
0100
1000
0000
,
0010
1000
0001
0010
0001
1000
0100
0000
,
0010
0001
0010
0000
1000
0010
0001
0000
,
1000
0010
1000
0001
0010
0100
1000
0000
,
0010
1000
0010
0000
0001
0010
1000
0000
,
0010
0000
0100
0000
0001
0000
0000
0100
0010
0000
0000
1000
0001
0000
0000
0000
,
2001
0100
0001
3010
,
1000
0100
0010
0002
0000
1000
1003
0000
,
1002
0100
1000
0013
,
0001
0100
0010
2000
0000
0001
3001
0000
,
1200
0010
0001
0310
,
0021
0100
1000
0130
,
1001
0000
0001
0100
0000
0110
0000
0010
,
1000
0000
0000
0001
1000
0000
0001
0000
0000
0000
0010
0000
0100
0000
0000
0000
,
1100
1010
0110
0101
,
0001
0010
0001
2000
0000
3010
0100
0000
,
0101
0011
0110
1100
,
1000
0010
1000
0002
0000
0013
0100
0000
,
1001
0000
0001
0100
0000
0110
0000
0010
,
1000
0010
0100
0000
0001
1000
0100
0000
,
1000
0000
0000
0001
1000
0000
0001
0000
0000
0000
0010
0000
0000
0000
0110
0000
,
0000
0100
1000
0001
0100
0001
1000
0000
,
0010
0010
0010
0010
0000
0000
0000
0000
,
1001
0000
0001
0010
0001
0100
0010
1000
,
0000
1000
0001
0000
0100
0001
0010
0110
,
0000
1000
0010
0110
0000
0001
0100
0110
,
0000
1000
0001
1000
0100
0010
0001
0000
,
1001
0000
1000
0002
0000
0203
0000
2300
,
0000
3100
0001
0100
0010
0000
0110
0000
,
2010
0000
0001
0000
3100
1000
0001
0100
,
0000
0000
0010
0000
0010
0000
0000
0100
0010
0000
0000
1000
0001
0000
0000
0000
,
1001
0000
1000
0010
1000
0100
0010
0001
,
0000
0001
1000
0000
0100
1000
0010
0110
,
0000
0001
0010
0110
0000
1000
0100
0110
,
0000
0001
0100
0010
1000
0010
0100
0000
,
0102
0000
1000
0000
0013
0100
0000
0110
,
0000
0010
0001
1000
0010
0000
0110
0000
,
1001
0000
1100
0000
0100
0010
0100
0010
,
0001
0000
0100
0000
0001
0000
0000
0100
0010
0000
0000
1000
0001
0000
0000
0000
,
2001
0000
0100
0000
3001
0010
0000
0110
,
0000
0100
0100
0000
0000
0000
0000
0000
,
1001
0000
1000
0001
1000
0001
0100
0020
,
0000
1030
0100
1000
0002
0000
0000
0000
,
0013
0001
0100
0010
1000
0100
0010
0001
,
1000
0000
0010
0000
1000
0000
0000
1000
0000
0000
0001
0000
0100
0000
0000
0000
,
0110
0000
0010
1000
0010
1000
0001
0020
,
0000
0130
1000
0001
0100
0001
2000
0000
,
3001
0100
0001
0000
1000
0100
0000
1000
,
0010
0000
0000
0010
0000
0000
1000
0000
0100
0000
0000
0010
0000
0000
0001
0000
,
0100
0010
0100
0000
0010
1000
0000
0001
,
0100
0000
0000
0100
0000
0000
0001
0000
0010
0000
0100
0000
0010
0000
0100
0000
,
1000
0001
0100
0000
0010
1000
0001
1000
,
0100
0000
0000
0100
0000
0000
0010
0000
0001
0000
0000
0001
0000
0000
1000
0000
,
0010
0100
0010
0000
1000
0001
0100
0001
,
0010
0000
0000
0010
0000
0000
0100
0000
1000
0000
1000
0000
0001
0000
0001
0000
;

//--------------- dance-double - forcednature ----------------
#NOTEDATA:;
#STEPSTYPE:dance-double;
#DESCRIPTION:forcednature;
#CREDIT:forcednature;
#DIFFICULTY:Easy;
#METER:7;
#RADARVALUES:0,0,0,0,0;
#NOTES:
00000000
00000000
00000000
00000000
,
00000000
00000000
00000000
00000000
,
00000000
00000000
00000000
00000000
,
00000000
00000000
00000000
00000000
,
00000000
00000000
00000000
00000000
,
00020000
00000000
00031000
00000000
,
00100000
00100000
00000000
00000000
,
10010000
00000000
10000000
00000000
,
01000000
00100000
01000000
00000000
,
00100000
00000000
00001000
00000000
,
00010000
00001000
00010000
00000000
,
00000100
00000000
00001000
00000000
,
00000010
00001000
00000010
00000000
,
00000100
00000000
00000001
00000000
,
00000010
00000001
00000010
00000000
,
00001001
00000000
00001000
00000000
,
00000100
00010000
00000100
00010000
,
00001000
00000000
00100000
00000000
,
00020000
00000000
00030000
00000000
,
01000000
00000000
00010000
00000000
,
01000000
00100000
01000000
00100000
,
10000000
00000000
01000000
00000000
,
00200000
00000000
00300000
00000000
,
10010000
00000000
00010000
00000000
,
01000000
00000000
00001000
00000000
,
00010000
00001000
00010000
00001000
,
00020000
00000000
00030000
00000000
,
00000100
00000000
00001000
00000000
,
00000010
00000000
00001000
00000000
,
00000100
00000010
00000100
00000010
,
00000002
00000000
00000003
00000000
,
00000100
00000000
00001000
00000000
,
00010000
00001000
00020000
00030000
,
01000000
00000000
00010000
00000000
,
00001000
00010000
00002000
00003000
,
00000010
00000000
00001000
00000000
,
00010000
00000000
01000000
00000000
,
10000000
00000000
00100000
00100000
,
02000000
00000000
03000000
00000000
,
00010000
00000000
00010000
00000000
,
00100000
00001000
00020000
00030000
,
00000010
00000000
00000010
00000000
,
00001000
00000100
00020000
00030000
,
00001000
00000000
00001000
00000010
,
00000000
00000010
00000001
00000000
,
00001001
00000000
00001000
00000000
,
00000100
00000000
00010000
00000000
,
00011000
00011000
00000000
00000000
,
00011000
00000000
00010000
00001000
,
01000000
00010000
00000000
10010000
,
00000000
01100000
00000000
10010000
,
00000000
10000000
01000000
00000000
,
01100000
00000000
00100000
00000000
,
00001000
00000000
00010000
00000000
,
00000200
00000000
00000000
00000300
,
00001000
00000001
00001000
00000000
,
00001001
00000000
00000001
00000100
,
00000010
00001000
00000000
00001001
,
00000000
00000110
00000000
00001001
,
00000000
00001000
00000100
00000000
,
00020000
00000000
00031000
00000000
,
00100000
00100000
00010000
00000000
,
01000000
00010000
01000000
00000000
,
00100000
10000000
00100000
00000000
,
02000000
00000000
03001000
00000000
,
00010000
00010000
00000000
00000000
,
00011000
00000000
00000100
00000000
,
00001000
00000100
00000010
00000000
,
00000001
00001000
00000010
00000000
,
00010000
00001000
00010000
00000000
,
00002000
00000000
02003000
00000000
,
03020000
00000000
00230000
00000000
,
01300000
00000000
10000000
00000000
,
00100000
10000000
00100000
00000000
,
01000000
00000000
00001000
00000000
,
00010000
00001000
00100000
00100000
,
00001000
00000000
00010000
00000000
,
00000100
00001000
00000100
00001000
,
00000010
00000000
00001000
00000000
,
00000001
00000100
00000010
00000010
;

//--------------- dance-double - forcednature ----------------
#NOTEDATA:;
#STEPSTYPE:dance-double;
#DESCRIPTION:forcednature;
#CREDIT:forcednature;
#DIFFICULTY:Medium;
#METER:10;
#RADARVALUES:0,0,0,0,0;
#NOTES:
00000000
00000000
00000000
00000000
,
00000000
00000000
00000000
00000000
,
00000000
00000000
00000000
00000000
,
00000000
00000000
00000000
00000000
,
00000000
00000000
00000000
00000000
,
00002000
00000000
00000000
00000000
00013000
00000000
00000000
00001000
,
00000000
00001000
00200000
00000000
00000000
00000000
00300000
00000000
,
00010000
10000000
01000000
10000000
,
00010000
00000000
00100000
00010000
00100000
00000000
00001000
00000000
,
00010000
00000100
00010000
00001000
,
00010000
00000000
00000010
00001000
00000010
00000000
00000010
00000000
,
00000100
00000001
00000010
00000001
,
00000100
00000000
00000010
00000100
00000010
00000000
00001000
00000000
,
00000100
00010000
00001000
00010000
,
00001000
00000000
00100000
00010000
00100000
00000000
00010000
00000000
,
10010000
00000000
10000000
00100000
,
01000000
00100000
00000000
00100000
01000000
00000000
00010000
00000000
,
00100000
00000000
00001000
00010000
,
00000100
00001000
00000000
00001000
00000100
00000000
00000010
00000000
,
00000001
00000000
00000100
00000010
,
00001000
00000100
00000000
00000100
00001000
00000000
00000100
00000000
,
00010000
00000000
00001000
01000000
,
00010000
10000000
00000000
10000000
00010000
00000000
00100000
00000000
,
01100000
00000000
01000000
10000000
,
00100000
10000000
00000000
10000000
00100000
00000000
01000000
00000000
,
00001000
00000000
00010000
00001000
,
00010000
00000100
00000000
00000100
00010000
00000000
00001000
00000000
,
00000010
00000000
00000100
00000010
,
00000001
00001000
00000000
00001000
00000001
00000000
00000100
00000000
,
00001000
00010000
00001000
00010000
,
00100000
10000000
00020000
00030000
,
10000000
01000000
00010000
00001000
,
00011000
00000000
00000100
00002000
00000000
00000000
00003000
00000000
,
00000001
00000100
00001000
00010000
,
00011000
00000000
01000000
00020000
00000000
00000000
00130000
00000000
,
10010000
10000000
00010000
00100000
,
00110000
00001000
00011000
00000100
,
00001000
00000000
00001000
00000001
00000000
00000001
00000000
00000000
,
00000101
00000000
00000100
00000001
00000100
00000000
00000000
00000000
,
00000001
00000010
00001000
00010000
,
00011000
00000000
00100000
00020000
00000000
00000000
00030000
00000000
,
10000000
00100000
00010000
00001000
,
00011000
00000000
00000010
00002000
00000000
00000000
00003100
00000000
,
00001100
00000000
00010000
00001000
00000000
00001000
00000000
00100000
,
00000000
00000000
00010000
00100000
00010000
00000000
01000000
00000000
,
00100000
00000000
00100000
10000000
00000000
10000000
00000000
02200000
,
00000000
00000000
00000000
03300000
,
10000000
00010000
10000000
00010000
00000000
00000000
00000000
00000000
,
10010000
00000000
10000000
00000000
00100000
10000000
00010000
00000000
,
00100000
00000000
00001000
00000000
00000000
00010000
00000000
00011000
,
00000000
01000000
00000000
00011000
00000000
00100000
00000000
00011000
,
00000000
00001000
00010000
00000100
,
00000110
00000000
00000010
00000001
00000000
00000100
00000000
00000010
,
00000000
00000010
00001000
00000000
00000100
00001000
00000100
00000000
,
00020000
00000000
00001000
00000000
00031000
01000000
00000000
01000000
,
00000000
00010000
00100000
00000000
01000000
00000000
00100000
00000000
,
10010000
00000000
00010000
00000000
01000000
00001000
00010000
00000000
,
00000100
00000000
00010000
00000000
00000000
00001000
00000000
00011000
,
00000000
00000100
00000000
00011000
00000000
00000010
00000000
00011000
,
00000000
00001000
00100000
00010000
,
10010000
00000000
10000000
00000000
00100000
01000000
00000000
01000000
,
00000000
00010000
00100000
00000000
00001000
00010000
00001000
00000000
,
00020000
00000000
00000000
00000000
00030100
00001000
00000000
00001000
,
00000000
00000010
00000100
00000000
00000001
00000000
00000010
00000000
,
00000220
00000000
00000330
00000000
00000100
00010000
00000000
00011000
,
00000000
00001000
00010000
00000000
00000000
00000000
00000000
00000000
,
00011000
00000000
00001000
00000000
00100000
00010000
00000000
00010000
,
00000000
01000000
00010000
00000000
01000000
00100000
01000000
00000000
,
00100000
00000000
10000000
00000000
01000000
10000000
00000000
10000000
,
00000000
01000000
00100000
01000000
00000000
00100000
00001000
00000000
,
00010000
00000000
00000100
00010000
00000100
00010000
00000100
00000000
,
00002000
00003020
00000230
00000302
,
00000013
00000000
00000100
00000010
00000100
00000000
00001000
00000000
,
00000010
00000000
00001000
00000010
00010000
00000000
00001000
00000000
,
00100000
00000000
00010000
00100000
00010000
00000000
01000000
00000000
,
00100000
00000000
10000000
00100000
10000000
00000000
10000000
00000000
,
01000000
00000000
00100000
01000000
00100000
00000000
00001000
00000000
,
00010000
00000000
00000100
00001000
00000100
00000000
00000010
00000000
,
00000001
00000000
00000100
00000010
00001000
00000000
00000100
00000000
,
00010000
00000000
00001000
00000000
00100000
00010000
00100000
00010000
;

//--------------- dance-double - forcednature ----------------
#NOTEDATA:;
#STEPSTYPE:dance-double;
#DESCRIPTION:forcednature;
#CREDIT:forcednature;
#DIFFICULTY:Hard;
#METER:14;
#RADARVALUES:0,0,0,0,0;
#NOTES:
00000000
00000000
00000000
00000000
,
00000000
00000000
00000000
00000000
,
00000000
00000000
00000000
00000000
,
00000000
00000000
00000000
00000000
,
00000000
00000000
00000000
00000000
,
00001000
00000000
00010000
00000000
00010000
00001000
00000000
00000010
,
00000000
00000010
00000200
00000000
00000000
00000000
00000300
00000000
,
00001000
00000010
00001000
00000000
00000001
00000010
00000000
00000001
,
00000100
00000000
00000000
00000100
00000000
00000000
00001000
00000000
00010000
00000000
00000000
00100000
00000000
00000000
00010000
00000000
,
00001000
00010000
00001000
00000000
01000000
00010000
00000000
00010000
,
00100000
00000000
00000000
00100000
00000000
00000000
01000000
00000000
10000000
00000000
00100000
00000000
10000000
00000000
00100000
00000000
,
00010000
00100000
10000000
00000000
01000000
10000000
00000000
01000000
,
00010000
00000000
00000000
00010000
00000000
00000000
00001000
00000000
00000010
00000000
00000000
00000010
00000000
00000000
00000100
00000000
,
00001000
00000100
00001000
00000000
00000010
00001000
00000000
00000001
,
00000100
00000000
00000000
00000100
00000000
00000000
00000100
00000000
00001000
00000000
00010000
00000000
00001000
00000000
00010000
00000000
,
00100000
01100000
00100000
10100000
,
10000000
00010000
10000000
00010000
00100000
01000000
10000000
00000000
,
01000000
01100000
01000000
01010000
,
00010000
00001000
00020000
00000000
00030010
00001000
00000200
00000000
,
00000310
00000011
00000010
00000110
,
00001000
00000100
00010000
00000100
00010000
00001000
01000000
00000000
,
00010000
00110000
00010000
01010000
,
01000000
00100000
20000000
00000000
31000000
00100000
00002000
00000000
,
00013000
00001000
00010000
00000000
00001000
00000010
00000001
00000000
,
00000100
00000001
00000100
00000010
00001000
00000010
00000100
00000000
,
00001000
00010000
00001000
00000000
00010000
00100000
10000000
00000000
,
01000000
10000000
00010000
00100000
00010000
10000000
01000000
00000000
,
00010000
00001000
00010000
00000000
00001000
00000100
00000001
00000000
,
00000010
00000001
00000010
00000100
00001000
00000100
00000010
00000000
,
00001000
00010000
00001000
00000000
00010000
01000000
10000000
00000000
,
00100000
00000000
01000000
00000000
00010000
00000000
00000000
00100000
00010000
00000000
00000000
00100000
00010000
00000000
00000000
00000000
,
10020000
01000000
10000000
00100000
,
00031000
00000000
00000100
00000020
00000000
00000001
00000031
00000000
,
00002001
00000100
00000001
00000010
,
00013000
00000000
01000000
00200000
00000000
10000000
10300000
00000000
,
10020000
01000000
10000000
00100000
,
00032000
00000100
00000001
00000010
,
00013000
00000000
01000000
00010000
00000000
00110000
00000000
00100000
,
01000000
00000000
00000000
10000000
01000000
00000000
00010000
00000000
00000000
00000000
00001000
00000000
00010000
00000000
00000000
00000000
,
00010100
00011000
00010010
00011000
,
00001000
00000010
00000001
00000020
00000000
00001030
00010000
00000000
,
01001000
00011000
00101000
00011000
,
00010000
00100000
10000000
00200000
00000000
00310000
00001000
00000000
,
00011000
00000000
00010000
00000100
00000000
00001100
00000000
00001000
,
00000010
00000100
00000001
00000000
00000010
00000100
00010000
00000000
,
00001000
00000000
00000000
00010000
00001000
00000000
00100000
00000000
00000000
00000000
00110000
00000000
00000000
00000000
01010000
00000000
,
00000000
01000000
00100000
10000000
01000000
00100000
00001000
00000000
,
01000000
01000000
01000000
01000000
00000000
00000000
00000000
00000000
,
00011000
00000000
00001000
00010000
00000100
00001000
00000001
00000010
,
00000000
00000010
00000001
00000000
00001000
00000010
00000100
00000110
,
00000000
00001000
00010000
00011000
00000000
00100000
01000000
01100000
,
00000000
10000000
00010000
10000000
01000000
00010000
01000000
00000000
,
01100000
00000000
00100000
00020000
00000000
20030000
00000000
30200000
,
00000000
00310000
00001000
00010000
00000100
00000000
00001100
00000000
,
00002010
00000000
00000001
00000000
00003100
00000010
00000001
00000100
,
00000000
00000000
00000010
00000000
00001000
00000000
00000000
00000100
00010000
00000000
00000000
00000100
00010000
00000000
00000000
00000000
,
00011000
00000000
00010000
00001000
01000000
00010000
10000000
00100000
,
00000000
00100000
10000000
00000000
00010000
00100000
01000000
01100000
,
00000000
00010000
00001000
00011000
00000000
00000010
00000100
00000110
,
00000000
00000001
00001000
00000001
00000100
00001000
00000100
00000000
,
00000120
00000000
00001000
00000000
00010030
00001000
00000000
00011000
,
00000000
00010000
00100000
10000000
00100000
00000000
01100000
00000000
,
10010000
00000000
11000000
00000000
01000000
00100000
00010000
00100000
,
01000000
00000000
00100000
00000000
00001000
00000000
00000000
00010000
00001000
00000000
00000000
00010000
00000100
00000000
00000000
00000000
,
00002100
00000000
00000001
00000000
00003010
00000100
00000000
00000110
,
00000000
00001010
00001010
00000000
00000000
00000000
00000000
00000000
,
00001001
00000000
00000001
00001000
00000001
00001000
00000100
00000010
,
00000000
00000100
00010000
00001000
02000000
00000000
00000000
00000000
,
03100000
10000000
01000000
00100000
00001000
00010000
00000100
00000010
,
00000001
00000000
00000100
00000000
00001000
00000000
00000000
00001000
00000000
00000000
00000100
00000000
00000010
00000000
00000000
00000000
,
00000110
00000000
00000100
00001000
00000100
00001000
00010000
00200000
,
00000000
10300000
00100000
01000000
00010000
00100000
02000000
00000000
,
13000000
01000000
00010000
00000000
00001000
00010000
00000000
00001000
,
00000010
00000000
00000000
00000010
00000000
00000000
00000001
00000000
00000100
00000000
00000000
00001000
00000000
00000000
00000100
00000000
,
00000001
00000010
00000001
00000000
00001000
00000010
00000000
00000100
,
00001000
00000000
00000000
00001000
00000000
00000000
00010000
00000000
00100000
00000000
01000000
00000000
00100000
00000000
01000000
00000000
,
10000000
01000000
00010000
00000000
01000000
00100000
10000000
00010000
,
00100000
00000000
00000000
00100000
00000000
00000000
01000000
00000000
00010000
00000000
00000000
00001000
00000000
00000000
00010000
00000000
,
00001000
00000010
00000001
00000000
00000100
00000001
00000010
00000001
,
00000100
00000000
00000000
00000100
00000000
00000000
00001000
00000000
00010000
00000000
00010000
00000000
00010000
00000000
00010000
00000000
;
