#VERSION:0.83;
#TITLE:Juicy;
#SUBTITLE:;
#ARTIST:kors k Lovers DJ Yoshitaka;
#TITLETRANSLIT:;
#SUBTITLETRANSLIT:;
#ARTISTTRANSLIT:;
#GENRE:;
#CREDIT:;
#MUSIC:Juicy.ogg;
#BANNER:Juicy.png;
#BACKGROUND:Juicy-bg.png;
#CDTITLE:./CDTitles/REFLEC BEAT.png;
#SAMPLESTART:15.797;
#SAMPLELENGTH:15.000;
#SELECTABLE:YES;
#OFFSET:1.563;
#BPMS:0.000=125.000;
#STOPS:;
#TIMESIGNATURES:0.000=4=4;
#BGCHANGES:0.000=../BGAs/19po.mp4=1.000=0=0=0=StretchNoLoop====,
99999.000=-nosongbg-=1.000=0=0=0=StretchNoLoop====
;
#FGCHANGES:;

//--------------- dance-single - forcednature ----------------
#NOTEDATA:;
#STEPSTYPE:dance-single;
#DESCRIPTION:forcednature;
#DIFFICULTY:Beginner;
#METER:1;
#RADARVALUES:0,0,0,0,0;
#CREDIT:forcednature;
#NOTES:
0000
0000
0000
0000
,
0000
0000
0000
0000
,
0000
0000
0000
0000
,
0000
0000
0000
0000
,
0000
0000
0000
0000
,
0001
0000
0000
0000
,
0000
0000
0000
0000
,
0100
0000
0000
0000
,
0000
0000
0000
0000
,
0010
0000
0000
0000
,
0000
0000
0000
0000
,
1000
0000
0000
0000
,
0000
0000
0000
0000
,
0001
0000
0000
0000
,
0000
0000
0000
0000
,
0010
0000
0000
0000
,
0000
0000
0000
0000
,
0100
0000
0000
0000
,
0000
0000
0000
0000
,
1000
0000
0000
0000
,
0000
0000
0000
0000
,
0001
0000
0000
0000
,
0000
0000
0000
0000
,
0100
0000
0000
0000
,
0000
0000
0000
0000
,
0010
0000
0000
0000
,
0000
0000
0000
0000
,
1000
0000
0000
0000
,
0000
0000
0000
0000
,
0001
0000
0000
0000
,
0000
0000
0000
0000
,
0010
0000
0000
0000
,
0000
0000
0000
0000
,
0100
0000
0000
0000
,
0100
0000
0000
0000
,
1000
0000
0000
0000
,
0001
0000
0000
0000
,
0100
0000
0000
0000
,
0010
0000
0000
0000
,
1000
0000
0000
0000
,
0001
0000
0000
0000
,
0000
0000
0000
0000
,
0010
0000
0000
0000
,
0000
0000
0000
0000
,
0100
0000
0000
0000
,
1000
0000
0000
0000
,
0010
0000
0000
0000
,
0100
0000
0000
0000
,
0001
0000
0000
0000
;

//--------------- dance-single - forcednature ----------------
#NOTEDATA:;
#STEPSTYPE:dance-single;
#DESCRIPTION:forcednature;
#DIFFICULTY:Easy;
#METER:5;
#RADARVALUES:0,0,0,0,0;
#CREDIT:forcednature;
#NOTES:
0000
0000
0000
0000
,
0000
0000
0000
0000
,
0000
0000
0000
0000
,
0000
0000
0000
0000
,
0000
0000
0000
0000
,
0001
0000
0100
0010
,
1000
0000
0100
0010
,
0001
0000
0100
0010
,
1000
0001
0100
0110
,
0000
0001
1000
0100
,
0000
1000
0001
0100
,
0000
0001
1000
0100
,
0000
0010
0001
1000
,
0000
0001
1000
0100
,
0000
1000
0001
0100
,
0000
0001
1000
0100
,
0010
0010
0010
0000
,
0000
0001
0000
0100
,
0000
0010
0010
1000
,
0000
0001
0000
0010
,
0000
0100
1000
0001
,
0000
0100
0000
0001
,
0000
1000
0010
0100
,
0000
0001
0000
1000
,
0000
0100
0010
0001
,
1001
1000
0010
0100
,
0010
1000
0001
0100
,
0010
0100
0001
1000
,
0001
0010
0100
0000
,
0010
0001
1000
0100
,
1000
0001
0010
0001
,
1000
0010
0100
0001
,
0000
0010
0010
0000
,
0001
1000
0100
1000
,
0010
0000
0000
0010
0000
0000
0010
0000
0000
0000
0000
0000
0000
0000
0000
0000
,
1000
0001
0100
0010
,
1000
0001
0000
0000
,
0010
0100
1000
0001
,
0100
0000
0000
0100
0000
0000
0010
0000
0000
0000
0000
0000
0000
0000
0000
0000
,
1001
0000
0001
0010
,
0110
0000
1000
1000
,
0000
0000
0010
0010
,
0000
0000
0100
0100
,
0000
0000
0001
0001
,
0010
0100
0010
0001
,
0000
0100
0001
0100
,
0000
0010
1000
0001
,
0000
0010
0100
1000
,
0010
0200
0000
0000
,
0000
0000
0000
0000
,
0300
0000
0000
0000
;

//--------------- dance-single - forcednature ----------------
#NOTEDATA:;
#STEPSTYPE:dance-single;
#DESCRIPTION:forcednature;
#DIFFICULTY:Medium;
#METER:8;
#RADARVALUES:0,0,0,0,0;
#CREDIT:forcednature;
#NOTES:
0000
0000
0000
0000
,
0000
0000
0000
0000
,
0000
0000
0000
0000
,
0000
0000
0000
0000
,
0000
0000
0000
0000
,
0001
0000
0000
0100
0000
0000
0000
0000
0001
0000
1000
0000
0001
0000
0000
0000
,
1000
0000
0000
0100
0000
0000
0000
0000
1000
0000
0001
0000
1000
0000
0000
0000
,
0010
0000
0000
0100
0000
0000
0000
0000
0001
0000
0010
0000
0001
0000
0000
0000
,
0010
0100
1000
0000
0010
0000
1001
0000
,
0000
0000
1000
0000
0100
0000
0000
0100
0000
0000
1000
0000
0001
0000
1000
0000
,
0000
0000
0010
0000
0100
0000
0000
0001
0000
0000
0001
0000
0010
0000
0001
0000
,
0000
0000
0100
0000
0010
0000
0000
0010
0000
0000
1000
0000
0100
0000
1000
0000
,
0000
0000
0001
0000
0100
0000
0000
0100
0000
0000
0001
0000
1000
0000
0010
0000
,
0000
0000
1000
0000
0001
0000
0000
0001
0000
0000
0010
0000
0001
0000
0010
0000
,
0000
0000
0100
0000
1000
0000
0000
1000
0000
0000
0010
0000
1000
0000
0010
0000
,
0000
0000
0100
0000
0001
0000
0000
0001
0000
0000
1000
0000
0100
0000
1000
0000
,
0010
0100
0110
0000
,
1001
0000
0001
0011
0000
0000
0010
0110
,
0000
0000
0100
1000
0000
1000
0010
0000
,
0000
0000
1000
1100
0000
0000
0100
0110
,
0000
0010
0001
0000
0100
0001
0100
0000
,
0000
0000
0010
1010
0000
0000
1000
1100
,
0000
0001
0010
0000
0001
1000
0001
0000
,
0000
0000
0100
0101
0000
0000
0010
0110
,
0000
1000
0010
0000
2002
0000
3003
0000
,
0110
0000
0001
0000
0010
0001
0010
0000
,
0100
1000
0010
0100
,
0001
0000
0010
0000
0100
1000
0100
0000
,
1000
0010
0100
0001
,
1001
0000
0100
0000
1000
0010
1000
0000
,
0001
0010
0100
1000
,
0010
0000
0100
0010
0100
0000
0001
0000
,
0000
0010
0001
0010
0001
0000
0000
0000
,
0101
1000
1010
0110
,
0001
0000
0000
0001
0000
0000
1000
0000
0000
0000
0100
0000
1000
0000
0100
0000
,
0000
0010
0100
0000
0010
0000
0001
0000
,
0100
0010
1000
0010
0000
0100
0001
0000
,
0011
1000
1100
1010
,
0110
0000
0000
0001
0000
0000
0101
0000
0000
0000
0000
0000
1000
0000
0010
0000
,
1000
0000
0001
0000
0010
0001
0010
0100
,
0000
0000
1000
0000
1000
0000
0000
1000
0000
0000
1000
0000
0000
0000
0010
0000
,
0000
0000
0100
0000
0100
0000
0000
0100
0000
0000
0100
0000
0000
0000
0001
0000
,
0000
0000
0010
0000
0010
0000
0000
0010
0000
0000
0010
0000
0000
0000
0100
0000
,
0000
0000
1000
0000
1000
0000
0000
1000
0000
0000
0001
0000
0100
0000
0010
0000
,
1000
0000
1001
0000
0001
0100
0001
0000
,
0010
0000
1001
0000
1000
0100
1000
0000
,
0010
0000
0110
0000
0001
0010
0100
0000
,
0010
0000
0110
0000
1000
0010
0100
0001
,
0020
0230
0000
0000
,
0000
0000
0000
0000
,
0300
0000
0000
0000
;

//--------------- dance-single - forcednature assist by extraordiberry ----------------
#NOTEDATA:;
#STEPSTYPE:dance-single;
#DESCRIPTION:forcednature assist by extraordiberry;
#DIFFICULTY:Hard;
#METER:11;
#RADARVALUES:0,0,0,0,0;
#CREDIT:forcednature assist by extraordiberry;
#NOTES:
0000
0000
0000
0000
,
0000
0000
0000
0000
,
0000
0000
0000
0000
,
0000
0000
0000
0000
,
0000
0000
0000
0000
,
1000
0000
0000
0100
0000
0000
1000
0000
1000
0000
1000
0000
0010
0000
1000
0000
,
0001
0000
0000
0100
0000
0000
0001
0000
0001
0000
0001
0000
0010
0000
0010
0000
,
0001
0000
0000
0100
0000
0000
0001
0000
0001
0000
1000
0001
0000
0001
1000
0000
,
0100
0010
0000
0010
0100
0000
1000
0000
0010
0000
0000
0100
0002
0000
0000
0000
,
0003
0000
1000
0000
0100
0000
1000
0010
0000
0010
0000
0100
0001
0000
0010
0000
,
0000
0000
0001
0000
0100
0000
0001
0010
0000
0010
0000
0100
1000
0000
0010
0000
,
0000
0000
1000
0000
0100
0000
1000
0010
0000
0010
0000
0100
0001
0000
0010
0000
,
0000
0000
0001
0000
0100
0000
1000
0100
0000
0100
0000
0001
1000
0000
0010
0000
,
0000
0000
1000
0000
0001
0000
0010
1000
0000
1000
0000
0010
0100
0000
1000
0000
,
0000
0000
0001
0000
1000
0000
0010
0001
0000
0001
0000
0010
0100
0000
0001
0000
,
0000
0000
1000
0000
0001
0000
0100
1000
0000
1000
0000
0100
0001
0000
1000
0000
,
0010
0000
0000
0000
0010
0000
0000
0000
0100
0000
0101
0000
0000
0101
0000
0000
,
0000
1000
0010
1010
0000
0001
0010
0011
,
0000
0000
1000
0000
0100
0000
0010
0100
0000
0100
0010
0000
0001
0000
1001
0000
,
0000
0001
0100
0101
0000
1000
0100
1100
,
0000
0000
0001
0000
0010
0000
0100
0010
0000
0010
0100
0000
1000
0000
1001
0000
,
0000
0001
0100
1100
0000
1000
0100
0101
,
0000
0000
0001
0000
0010
0000
0001
1000
0000
1000
0100
0000
1000
0000
1010
0000
,
0000
1000
0100
0101
0000
0001
0100
1100
,
0000
0000
0001
0000
0010
0000
0001
0000
2000
0000
0000
0010
0000
0000
3002
0000
,
0103
1000
0100
0010
0100
0001
0100
1000
,
0100
0001
0100
0010
0100
1000
0100
0001
,
1000
0100
0010
0100
0001
0100
1000
0100
,
0010
0100
1000
0100
0001
0100
1000
0100
,
0010
1000
0010
0001
0010
0100
0010
0001
,
0010
1000
0010
0100
0010
1000
0010
0001
,
1000
0010
0100
0010
0001
0010
1000
0001
,
0000
0100
0100
0100
0100
0000
0000
0000
,
0010
0000
0000
0010
1000
0000
0000
1000
0100
0000
0000
0100
0010
0000
0000
0010
,
0001
0000
0000
0101
0000
0000
1010
0000
0000
0000
0001
0000
0010
0000
2000
0000
,
0000
3010
0001
1000
0100
0001
0100
0000
,
1000
0010
0100
0002
0000
0013
0100
1000
,
0001
0000
0000
0001
0100
0000
0000
0100
0010
0000
0000
0010
1000
0000
0000
0000
,
1100
0000
0000
0110
0000
0000
1001
0000
0000
0000
1000
0000
0010
0000
0002
0000
,
0000
0013
1000
0001
0100
0010
1000
0001
,
0000
0000
1000
0000
0200
0000
0000
0010
0000
0310
0000
0000
0100
0000
1000
0000
,
0000
0000
0001
0000
0200
0000
0000
0010
0000
0310
0000
0000
0100
0000
0001
0000
,
0000
0000
1000
0000
0200
0000
0000
0010
0000
0310
0000
0000
0100
0000
1000
0000
,
0000
0000
0001
0000
0200
0000
0000
1000
0000
1300
0000
0000
0100
0000
0001
0000
,
0010
0000
0001
0000
0100
0000
0010
1000
0000
0100
0000
1000
0001
0000
0100
0000
,
0010
0000
1000
0000
0100
0000
0010
0001
0000
0100
0000
0001
1000
0000
0100
0000
,
0010
0000
0001
0000
0100
0000
0001
0010
0000
0100
0000
1000
0001
0000
0100
0000
,
0010
0000
1000
0000
0100
0000
1000
0010
0000
0100
0000
0001
1000
0000
0100
0000
,
0020
0000
0000
0000
,
0000
0000
0000
0000
,
0030
0000
0000
0000
;

//--------------- dance-double - forcednature ----------------
#NOTEDATA:;
#STEPSTYPE:dance-double;
#DESCRIPTION:forcednature;
#DIFFICULTY:Easy;
#METER:5;
#RADARVALUES:0,0,0,0,0;
#CREDIT:forcednature;
#NOTES:
00000000
00000000
00000000
00000000
,
00000000
00000000
00000000
00000000
,
00000000
00000000
00000000
00000000
,
00000000
00000000
00000000
00000000
,
00000000
00000000
00000000
00000000
,
00001000
00000000
00010000
00001000
,
00010000
00000000
00000100
00001000
,
00000100
00000000
00000010
00000001
,
00001000
00000001
00000000
00000110
,
00000000
00001000
00000100
00010000
,
00000000
00001000
00010000
00001000
,
00000000
00100000
00010000
10000000
,
00000000
01000000
10000000
00010000
,
00000000
00100000
00001000
00010000
,
00000000
00000100
00010000
00001000
,
00000000
00010000
00000010
00001000
,
00000100
00000100
00000100
00000000
,
00000000
00000010
00000000
00000010
,
00000000
00000001
00000001
00000100
,
00000000
00000010
00000000
00000010
,
00000000
00001000
00000100
00010000
,
00000000
00001000
00000000
00001000
,
00000000
01000000
00010000
00100000
,
00000000
01000000
00000000
01000000
,
00000000
10000000
00010000
00000000
,
10010000
10000000
00100000
01000000
,
00100000
01000000
00001000
00010000
,
00001000
00010000
00000100
00001000
,
00000100
00000010
00000001
00000000
,
00001000
00000010
00001000
00000010
,
00010000
00001000
00010000
00001000
,
00100000
00010000
00100000
01000000
,
00000000
10000000
10000000
00000000
,
00010000
01000000
00010000
00100000
,
00001000
00000000
00000000
00001000
00000000
00000000
00001000
00000000
00000000
00000000
00000000
00000000
00000000
00000000
00000000
00000000
,
00010000
00000100
00001000
00000100
,
00000010
00000001
00000000
00000000
,
00000100
00000010
00001000
00000010
,
00010000
00000000
00000000
00010000
00000000
00000000
00001000
00000000
00000000
00000000
00000000
00000000
00000000
00000000
00000000
00000000
,
00011000
00000000
00100000
00010000
,
10010000
00000000
10000000
10000000
,
00000000
00000000
00100000
00100000
,
00000000
00000000
01000000
01000000
,
00000000
00000000
00001000
00001000
,
00010000
00000100
00001000
00000100
,
00000000
00000010
00000001
00000010
,
00000000
00000100
00001000
00000100
,
00000000
00010000
00001000
00100000
,
00010000
02000000
00000000
00000000
,
00000000
00000000
00000000
00000000
,
03000000
00000000
00000000
00000000
;

//--------------- dance-double - forcednature ----------------
#NOTEDATA:;
#STEPSTYPE:dance-double;
#DESCRIPTION:forcednature;
#DIFFICULTY:Medium;
#METER:8;
#RADARVALUES:0,0,0,0,0;
#CREDIT:forcednature;
#NOTES:
00000000
00000000
00000000
00000000
,
00000000
00000000
00000000
00000000
,
00000000
00000000
00000000
00000000
,
00000000
00000000
00000000
00000000
,
00000000
00000000
00000000
00000000
,
00001000
00000000
00000000
00010000
00000000
00000000
00000000
00000000
00000100
00000000
00001000
00000000
00000100
00000000
00000000
00000000
,
00000010
00000000
00000000
00000001
00000000
00000000
00000000
00000000
00000100
00000000
00000001
00000000
00000100
00000000
00000000
00000000
,
00000010
00000000
00000000
00001000
00000000
00000000
00000000
00000000
00000100
00000000
00001000
00000000
00000100
00000000
00000000
00000000
,
00010000
00001000
00100000
00000000
01000000
00000000
10010000
00000000
,
00000000
00000000
10000000
00000000
01000000
00000000
00000000
01000000
00000000
00000000
00100000
00000000
00010000
00000000
00100000
00000000
,
00000000
00000000
00001000
00000000
00010000
00000000
00000000
00010000
00000000
00000000
00000100
00000000
00001000
00000000
00000100
00000000
,
00000000
00000000
00000010
00000000
00000001
00000000
00000000
00000001
00000000
00000000
00000100
00000000
00000010
00000000
00000100
00000000
,
00000000
00000000
00000010
00000000
00001000
00000000
00000000
00001000
00000000
00000000
00000100
00000000
00010000
00000000
00001000
00000000
,
00000000
00000000
00100000
00000000
00010000
00000000
00000000
00010000
00000000
00000000
01000000
00000000
00100000
00000000
01000000
00000000
,
00000000
00000000
00100000
00000000
10000000
00000000
00000000
10000000
00000000
00000000
00010000
00000000
01000000
00000000
00010000
00000000
,
00000000
00000000
00100000
00000000
00001000
00000000
00000000
00001000
00000000
00000000
00010000
00000000
00000100
00000000
00010000
00000000
,
00001000
00010000
00011000
00000000
,
00000010
00000000
00001000
00000100
00000000
00000100
00010000
00001000
,
00000000
00001000
00100000
00010000
00000000
00010000
01000000
00000000
,
00000000
00100000
10000000
01000000
00000000
01000000
00100000
00001000
,
00000000
00001000
00010000
00000100
00000000
00000100
00001000
00000000
,
00000000
00000010
00000100
00000001
00000000
00000001
00000010
00000100
,
00000000
00000100
00010000
00001000
00000000
00001000
00100000
00000000
,
00000000
00010000
01000000
00100000
00000000
00100000
10000000
01000000
,
00000000
01000000
00010000
00000000
00022000
00000000
00033000
00000000
,
00011000
00000000
00000100
00000000
00001000
00000010
00001000
00000000
,
00000001
00000100
00001000
00010000
,
01000000
00000000
10000000
00000000
00010000
00100000
00010000
00000000
,
00100000
00001000
00010000
00000100
,
00011000
00000000
00000010
00000000
00001000
00000100
00001000
00000000
,
00000001
00000010
00001000
00010000
,
01000000
00000000
00100000
01000000
00100000
00000000
00010000
00000000
,
00000000
10000000
00010000
10000000
00010000
00000000
00000000
00000000
,
01010000
00001000
00011000
00010010
,
00000010
00000000
00000000
00000010
00000000
00000000
00001000
00000000
00000000
00000000
00000100
00000000
00001000
00000000
00000100
00000000
,
00000000
00000010
00000100
00000000
00000010
00000000
00000001
00000000
,
00000100
00000010
00001000
00000010
00000000
00010000
00001000
00000000
,
00011000
00100000
00110000
11000000
,
10000000
00000000
00000000
00100000
00000000
00000000
10010000
00000000
00000000
00000000
00000000
00000000
00010000
00000000
01000000
00000000
,
00010000
00000000
00100000
00000000
00001000
00010000
00001000
00010000
,
00000000
00000000
00000100
00000000
00000100
00000000
00000000
00000100
00000000
00000000
00000100
00000000
00000000
00000000
00001000
00000000
,
00000000
00000000
00000010
00000000
00000010
00000000
00000000
00000010
00000000
00000000
00000010
00000000
00000000
00000000
00000100
00000000
,
00000000
00000000
00000001
00000000
00000001
00000000
00000000
00000001
00000000
00000000
00000001
00000000
00000000
00000000
00000010
00000000
,
00000000
00000000
00000100
00000000
00000100
00000000
00000000
00000100
00000000
00000000
00010000
00000000
00001000
00000000
00010000
00000000
,
00001000
00000000
00011000
00000000
00100000
00010000
00100000
00000000
,
01000000
00000000
10010000
00000000
00010000
01000000
00010000
00000000
,
00100000
00000000
00011000
00000000
00001000
00010000
00000100
00000000
,
00001000
00000000
00001010
00000000
00000001
00000010
00000100
00000000
,
00020000
00032000
00000000
00000000
,
00000000
00000000
00000000
00000000
,
00003000
00000000
00000000
00000000
;

//--------------- dance-double - forcednature assist by extraordiberry ----------------
#NOTEDATA:;
#STEPSTYPE:dance-double;
#DESCRIPTION:forcednature assist by extraordiberry;
#DIFFICULTY:Hard;
#METER:12;
#RADARVALUES:0,0,0,0,0;
#CREDIT:forcednature assist by extraordiberry;
#NOTES:
00000000
00000000
00000000
00000000
,
00000000
00000000
00000000
00000000
,
00000000
00000000
00000000
00000000
,
00000000
00000000
00000000
00000000
,
00000000
00000000
00000000
00000000
,
00001000
00000000
00000000
00010000
00000000
00000000
00001000
00000000
00001000
00000000
00001000
00000000
00000000
00000000
00000010
00000000
,
00000001
00000000
00000000
00000100
00000000
00000000
00000001
00000000
00000001
00000000
00000001
00000000
00000000
00000000
00000010
00000000
,
00001000
00000000
00000000
00010000
00000000
00000000
00001000
00000000
00001000
00000000
00000000
00100000
00000000
00000000
00100000
00000000
,
00010000
00000000
01000000
00100000
00000000
01000000
00100000
00000000
10000000
00000000
00000000
01000000
00020000
00000000
00000000
00000000
,
00030000
00000000
00001000
00000000
00100000
00000000
00001000
00010000
00000000
00010000
00000000
00000100
00001000
00000000
00000100
00000000
,
00000000
00000000
00001000
00000000
00000010
00000000
00010000
00001000
00000000
00001000
00000000
01000000
00010000
00000000
01000000
00000000
,
00000000
00000000
00010000
00000000
00100000
00000000
00001000
00010000
00000000
00010000
00000000
00000100
00001000
00000000
00000100
00000000
,
00000000
00000000
00000010
00000000
00000001
00000000
00000100
00000010
00000000
00000010
00000000
00001000
00000100
00000000
00010000
00000000
,
00000000
00000000
00001000
00000000
00100000
00000000
00010000
01000000
00000000
01000000
00000000
00100000
10000000
00000000
01000000
00000000
,
00000000
00000000
00100000
00000000
00001000
00000000
00010000
00000100
00000000
00000100
00000000
00001000
00000010
00000000
00000100
00000000
,
00000000
00000000
00000001
00000000
00000010
00000000
00000100
00010000
00000000
00010000
00000000
00001000
00100000
00000000
00010000
00000000
,
01000000
00000000
00000000
00000000
01000000
00000000
00000000
00000000
00100000
00000000
10100000
00000000
00000000
10100000
00000000
00000000
,
00000000
10000000
01000000
00010000
00000000
00001000
00000100
00000001
,
00000000
00000000
00000010
00000000
00000100
00000000
00010000
00001000
00000000
00001000
00010000
00000000
00000010
00000000
00001010
00000000
,
00000000
00000001
00000100
00001000
00000000
00010000
01000000
10000000
,
00000000
00000000
00100000
00000000
01000000
00000000
00001000
00010000
00000000
00010000
00001000
00000000
00100000
00000000
00110000
00000000
,
00000000
10000000
00100000
00010000
00000000
00001000
00000010
00000001
,
00000000
00000000
00000100
00000000
00000010
00000000
00010000
00001000
00000000
00001000
00010000
00000000
00000100
00000000
00001100
00000000
,
00000000
00000001
00000010
00001000
00000000
00010000
00100000
10000000
,
00000000
00000000
01000000
00000000
00100000
00000000
00001000
00010000
00000000
00010000
00001000
00000000
01000000
00000000
01010000
00000000
,
00000000
10000000
01000000
00010000
00001000
00000100
00000001
00000010
,
00000001
00000100
00001000
00010000
01000000
10000000
00100000
00010000
,
00100000
10000000
01000000
00010000
00001000
00000100
00000001
00000010
,
00001000
00000010
00000001
00000100
00001000
00010000
01000000
10000000
,
00100000
00010000
00001000
00000010
00001000
00010000
00100000
00010000
,
00001000
00000100
00000001
00000010
00001000
00000010
00000001
00000100
,
00001000
00010000
01000000
10000000
00100000
00010000
00100000
10000000
,
00000000
01000000
01000000
01000000
01000000
00000000
00000000
00000000
,
00010000
00000000
00000000
00010000
00001000
00000000
00000000
00001000
00000010
00000000
00000000
00000010
00000001
00000000
00000000
00000001
,
00000100
00000000
00000000
00000110
00000000
00000000
00001010
00000000
00000000
00000000
00000001
00000000
00000100
00000000
00002000
00000000
,
00000000
00013000
00100000
00010000
00001000
00000010
00001000
00000000
,
00010000
01000000
10000000
00020000
00000000
00130000
01000000
00010000
,
00001000
00000000
00000000
00001000
00100000
00000000
00000000
00100000
00010000
00000000
00000000
00010000
01000000
00000000
00000000
00000000
,
01100000
00000000
00000000
10100000
00000000
00000000
01010000
00000000
00000000
00000000
10000000
00000000
00100000
00000000
00020000
00000000
,
00000000
00031000
00000100
00000001
00001000
00000010
00001000
00000001
,
00000000
00000000
00000010
00000000
00001000
00000000
00000000
00010000
00000000
00010000
00000000
00000000
00001000
00000000
00010000
00000000
,
00000000
00000000
01000000
00000000
10000000
00000000
00000000
00100000
00000000
00100000
00000000
00000000
10000000
00000000
01000000
00000000
,
00000000
00000000
00010000
00000000
00001000
00000000
00000000
00000010
00000000
00000010
00000000
00000000
00001000
00000000
00010000
00000000
,
00000000
00000000
00000100
00000000
00001000
00000000
00000000
00000010
00000000
00000010
00000000
00000000
00000100
00000000
00000001
00000000
,
00000010
00000000
00001000
00000000
00010000
00000000
00001000
00100000
00000000
00100000
00000000
00010000
01000000
00000000
00100000
00000000
,
10000000
00000000
01000000
00000000
00010000
00000000
00001000
00100000
00000000
00100000
00000000
00001000
00010000
00000000
00000100
00000000
,
00010000
00000000
00001000
00000000
00000010
00000000
00000001
00000100
00000000
00000100
00000000
00000001
00001000
00000000
00000010
00000000
,
00000100
00000000
00001000
00000000
00010000
00000000
00100000
01000000
00000000
01000000
00000000
00010000
10000000
00000000
01000000
00000000
,
00020000
00000000
00000000
00000000
,
00000000
00000000
00000000
00000000
,
00030000
00000000
00000000
00000000
;
