#VERSION:0.83;
#TITLE:十界;
#SUBTITLE:;
#ARTIST:あさき;
#TITLETRANSLIT:Jikkai;
#SUBTITLETRANSLIT:;
#ARTISTTRANSLIT:Asaki;
#GENRE:;
#CREDIT:;
#MUSIC:Jikkai.ogg;
#BANNER:Jikkai.png;
#BACKGROUND:Jikkai-bg.png;
#CDTITLE:./CDTitles/GITADORA NEX+AGE.png;
#SAMPLESTART:76.404;
#SAMPLELENGTH:15.000;
#SELECTABLE:YES;
#OFFSET:1.191;
#BPMS:0.000=184.000;
#STOPS:188.000=0.326;
#TIMESIGNATURES:0.000=4=4,
12.000=3=4,
36.000=4=4,
40.000=3=4,
187.000=2=4,
189.000=3=4
;
#BGCHANGES:0.000=../BGAs/14te.mp4=1.000=0=0=0=StretchNoLoop====,
99999.000=-nosongbg-=1.000=0=0=0=StretchNoLoop====
;
#FGCHANGES:;

//--------------- dance-single - forcednature ----------------
#NOTEDATA:;
#STEPSTYPE:dance-single;
#DESCRIPTION:forcednature;
#DIFFICULTY:Beginner;
#METER:4;
#RADARVALUES:0,0,0,0,0;
#CREDIT:forcednature;
#NOTES:
0000
0000
0000
0000
,
0000
0000
0000
0000
,
0000
0000
0000
0000
,
0001
0000
0001
0000
,
0000
0000
1000
0000
,
1000
0000
0000
0000
,
0001
0000
0100
0000
,
0000
0000
0001
0000
,
0010
0000
0000
0000
,
0100
0000
1000
0000
,
1001
0000
0000
0001
,
0000
0000
0100
0000
,
0000
0010
0000
0000
,
1000
0000
0000
0100
,
0000
0000
0010
0000
,
0000
0001
0000
0000
,
1001
0000
0000
1000
,
0000
0000
0010
0000
,
0000
0100
0000
0000
,
0001
0000
0000
0001
,
0000
0000
0010
0000
,
0000
0100
0000
0000
,
2002
0000
0000
0000
,
3003
0000
1000
0000
,
0000
1000
0000
0000
,
0010
0000
0010
0000
,
0100
0000
0001
0000
,
0000
0001
0000
0000
,
0010
0000
0010
0000
,
0100
0000
1000
0000
,
0000
1000
0000
0000
,
0001
0000
0000
0100
,
0000
0000
0010
0000
,
0010
0000
1000
0000
,
0010
0000
0100
0000
,
0001
0000
2002
0000
,
3003
0000
0100
0000
,
0000
2002
0000
3003
,
0000
0020
0000
0030
,
0000
0100
0000
0001
,
0000
1000
1000
0000
,
0000
0000
1001
0000
,
0000
0001
0000
0000
,
0010
0000
0000
0001
,
0000
0000
0100
0000
,
0100
0000
0100
0000
,
0010
0000
1000
0000
,
1001
1000
1000
1000
,
0000
0001
0001
0001
,
0000
0100
0000
0010
,
0000
2002
0000
0000
,
3003
0000
0000
0001
,
0000
0001
0000
1000
,
1000
1000
0000
1000
,
0000
0010
0010
1000
,
0000
0001
0000
0100
,
0100
0002
0000
0003
,
1000
0000
1000
0020
,
0000
0030
2002
0000
,
3003
1000
1000
0001
,
1000
0001
0000
0100
,
0100
0001
0100
0001
,
0000
1000
1000
0001
,
1000
0001
0000
0010
,
0010
0001
0010
0001
,
0000
1001
0000
1000
,
0000
0010
0000
0100
,
0000
0001
0000
1000
,
0000
0100
0000
0010
,
0000
0001
0000
0010
,
0000
0100
0000
1000
,
0000
0001
0001
1000
,
0001
1000
0000
0100
,
0100
1000
0100
1000
,
0000
0001
0001
1000
,
0001
1000
0000
0010
,
0010
1000
0010
1000
,
0000
1001
0000
0001
,
0000
0010
0000
0100
,
0000
0010
0000
0100
,
0000
1000
0000
0010
,
0000
0100
0000
0001
,
1000
0010
0100
0010
,
0000
2002
0000
0000
,
0000
0000
0000
0000
,
0000
0000
0000
0000
,
0000
3003
0000
0000
;

//--------------- dance-single - forcednature ----------------
#NOTEDATA:;
#STEPSTYPE:dance-single;
#DESCRIPTION:forcednature;
#DIFFICULTY:Easy;
#METER:9;
#RADARVALUES:0,0,0,0,0;
#CREDIT:forcednature;
#NOTES:
0000
0000
0000
0000
,
0000
0000
0000
0000
,
0000
0000
0000
0000
,
0002
0003
2000
3000
2000
3000
0002
0003
,
0100
0010
0100
0000
0002
0003
2000
3000
,
2000
3000
0002
0003
0010
0100
0010
0000
,
0002
0003
2000
3000
2000
3000
0002
0003
,
0100
0010
0100
0000
0002
0003
2000
3000
,
2000
3000
0002
0003
0010
0100
0010
0000
,
0002
0003
0200
0300
2000
3000
0020
0030
,
1001
0000
1000
0100
1000
0000
0010
0000
,
0100
0010
0100
0000
0001
0000
0010
0001
,
0010
0100
1000
0001
,
1001
0000
0001
0100
0001
0000
0010
0000
,
0100
0010
0100
0000
1000
0000
0010
1000
,
0010
0100
0001
0010
,
0110
0000
1000
0010
1000
0000
0100
0000
,
0010
0100
0010
0000
0001
0000
0100
0001
,
0100
0010
1000
0001
,
0110
0000
0001
0100
0001
0000
0010
0000
,
0100
1000
0100
0000
1000
0000
0010
1000
,
0010
0100
0001
0010
,
2002
0000
0000
0000
,
0000
0000
3003
0000
1000
0000
0000
0100
,
0000
1000
0100
0000
1000
0000
0010
0000
,
0100
0000
0001
0000
0000
0100
0000
0100
,
0001
0000
0010
0000
1001
0000
2000
3000
,
0002
0003
0002
0003
2000
3000
0010
1000
,
0010
0000
2000
3000
0002
0003
0002
0003
,
2000
3000
0010
0100
0010
0000
0100
0001
,
0000
0100
0001
0000
0010
0000
0100
0000
,
1000
0000
0010
1000
0000
0010
1000
0000
,
0100
0000
0010
0000
0001
0000
0200
0300
,
0020
0030
1000
0000
0020
0030
0200
0300
,
0001
0001
1000
0000
0100
0000
0010
0000
,
0110
0000
1001
0000
1000
0010
0000
0010
,
0000
0100
0010
0000
0100
0001
0100
0000
,
1001
0000
0001
0010
0000
0010
0000
0001
,
0100
0000
0010
0100
0000
0220
0000
0330
,
0000
0000
1000
0002
0000
0000
0023
0000
,
0130
0000
0110
0000
1001
0000
1000
0010
,
1000
0000
0001
0010
0002
0000
0203
0000
,
0302
0000
0023
0000
0130
0010
0100
0000
,
1000
0010
0110
1001
,
1000
0001
1000
0001
0200
0000
0010
0000
,
0001
0320
1000
0100
,
1030
0000
1001
0000
0001
0010
0100
0000
,
2000
3000
0000
0000
0000
0000
0000
0000
0000
0000
0000
0000
0000
0000
0000
0000
0001
0000
0000
0000
0000
0000
0000
0000
0100
0000
0000
0000
0000
0000
0000
0000
0001
0000
0000
0000
0000
0000
0000
0000
0100
0000
0000
0000
0000
0000
0000
0000
0000
0000
0000
0000
0000
0000
0000
0000
0001
0000
0000
0000
0000
0000
0000
0000
,
1000
0000
1001
0000
0110
0000
1000
0100
,
0000
1000
0020
0000
0130
0000
0110
0000
,
1001
0000
0001
0010
0000
0010
0000
0001
,
0010
0000
0100
0000
1000
0000
0010
0100
,
0000
0100
0001
0000
1000
0001
1000
0000
,
0100
0000
0110
0000
0010
0001
0000
0010
,
0001
0000
0100
0000
0010
0000
1000
0001
,
1000
0100
0010
0001
,
0100
0000
0220
0000
0330
0000
0010
1000
,
0010
0000
0100
0000
0001
0000
0010
0100
,
0000
0100
0010
0000
0002
0000
0100
0000
,
1003
0000
1001
0000
1000
0010
0100
0000
,
0010
0001
0010
1000
,
0001
0010
0100
0000
0010
0000
1000
0000
,
0010
0000
0001
0000
1000
0100
0010
0000
,
0100
0001
0100
1000
,
0001
0100
0010
0000
0100
0000
1000
0000
,
0100
0000
0110
0000
0010
1000
0001
0000
,
0100
1000
0100
0001
,
0010
0100
1000
0000
0001
0000
0010
0000
,
1000
0000
0110
0000
0010
0001
1000
0000
,
0100
0000
0001
0000
0100
0000
1000
0010
,
0000
0010
1000
0000
0100
0000
0010
0000
,
0001
0000
1001
0000
1000
0010
1000
0000
,
0001
0100
0001
0000
0010
0000
1000
0000
,
0010
0001
0100
0000
0010
1000
0001
0000
,
0100
0000
1000
0000
0100
0001
0100
0000
,
0010
1000
0001
0000
0010
0000
0100
0000
,
1000
0010
0100
0000
0001
0010
0200
0000
,
0310
0110
0010
0001
,
0100
0000
0010
1000
0010
0000
0110
0000
,
0100
0000
0001
0000
0010
0000
0100
1000
,
0100
0000
0010
0001
0000
0001
0100
0000
,
0010
0000
0110
0000
1001
0000
1000
0010
,
0000
1000
0100
0000
0020
0000
0032
0000
,
0103
2002
0000
0000
,
0000
0000
0000
0000
,
0000
0000
0000
0000
,
0000
3003
0000
0000
;

//--------------- dance-single - forcednature ----------------
#NOTEDATA:;
#STEPSTYPE:dance-single;
#DESCRIPTION:forcednature;
#DIFFICULTY:Medium;
#METER:14;
#RADARVALUES:0,0,0,0,0;
#CREDIT:forcednature;
#NOTES:
0000
0000
0000
0000
,
0000
0000
0000
0000
,
0000
0000
0000
0000
,
1001
1100
1010
1100
,
0001
0001
1000
0000
1001
0000
0101
0000
,
0011
0000
0101
0000
1000
1000
0001
0000
,
0100
0010
1000
0001
1001
0000
1100
0000
,
1000
0010
0100
0001
0010
0100
0010
0001
,
0100
0010
1000
0001
0010
0000
0110
0000
,
0100
1000
0001
0100
1000
0100
0001
0000
,
1001
0000
0000
0000
0001
0000
0100
0000
0010
0000
0100
0010
0100
0000
0000
0000
,
0010
0000
1000
0000
0100
0000
1000
0100
1000
0000
0000
0000
0010
0000
1000
0000
,
0001
0000
1000
0001
1000
0000
0100
0000
0010
0000
0100
0000
0001
0000
0100
0000
,
1000
0000
0000
0000
0001
0000
0010
0000
0001
0000
0100
0001
0100
0000
0000
0000
,
0010
0000
1000
0000
0100
0000
0010
0100
0010
0000
0000
0000
0001
0000
1000
0000
,
0010
0000
0100
0001
0100
0000
0001
0000
1000
0000
0100
0010
0001
0000
0000
0000
,
1001
0000
0000
0000
1000
0000
0100
0000
0010
0000
0100
0010
0100
0000
0000
0000
,
0010
0000
0001
0000
0100
0000
0001
0100
0001
0000
0000
0000
0010
0000
0001
0000
,
1000
0000
0001
1000
0001
0000
0100
0000
0010
0000
0100
0000
1000
0000
0100
0000
,
0001
0000
0000
0000
1000
0000
0010
0000
1000
0000
0100
1000
0100
0000
0000
0000
,
0010
0000
0001
0000
0100
0000
0010
0100
0010
0000
0000
0000
1000
0000
0001
0000
,
0010
0000
0100
1000
0100
0000
1000
0000
0001
0000
0100
0010
1000
0000
0000
0000
,
2002
0000
0000
0000
0000
0000
0000
0000
0000
0000
0000
0000
0000
0000
0000
3003
,
0000
0001
1000
0001
0010
0000
0000
0000
0110
0000
0000
0000
0100
0000
1000
0000
,
0000
1000
0010
0000
0100
0001
0000
0100
,
0020
0000
2030
0000
3000
0001
1000
0001
,
0010
0100
0010
0000
0100
0000
1001
0000
,
0101
0000
0011
0000
0101
0000
0100
0010
,
1000
1001
1100
1010
,
0010
0010
0100
0100
0001
0000
0001
1000
,
0000
1000
0001
0000
0200
0000
2300
0000
,
3100
0001
0200
0000
0301
0010
0000
0010
,
0001
0000
1000
0001
0020
0000
0130
1000
,
0010
1000
0001
0000
0020
0030
0200
0300
,
1000
1000
0001
0000
1001
0000
0200
0300
,
0020
0030
0110
0000
2001
0000
0000
3100
,
0000
1000
0010
0100
0001
0010
0100
1000
,
0010
0100
0000
0000
1002
0000
0000
0000
0000
0000
0103
0000
0000
0000
0001
0000
,
0010
0100
1000
1000
0001
0200
0000
0310
,
0000
0010
0100
2000
0000
3100
0001
0100
,
0010
0000
0101
0000
1010
0000
1000
0100
,
0001
0000
0100
0000
1000
0000
0001
1000
0001
0000
0000
0000
0200
0000
0000
0000
,
0320
0000
2030
0000
3100
0010
0002
0000
,
2003
0000
3010
0001
0010
0000
1010
0000
,
1000
0000
0001
1000
0001
0000
0100
0000
0020
0000
0000
0000
1000
0000
0000
0000
,
0130
0000
0001
0100
0001
0000
1000
0100
1000
0000
0001
0000
0010
0000
0000
0000
,
0100
0000
0000
0000
1002
0000
0000
0000
0103
0000
0000
0001
0010
0000
0010
0000
,
0200
0300
0000
0000
0000
0000
0000
0000
0000
0000
0000
0000
0000
0000
0000
0000
1000
0000
0000
0000
0000
0000
0000
0000
1000
0000
0000
0000
0000
0000
0000
0000
0010
0000
0000
0000
0000
0000
0000
0000
0001
0000
0000
0000
0000
0000
0000
0000
0001
0000
0000
0000
0000
0000
0000
0000
0010
0000
0000
0000
0000
0000
0000
0000
,
1000
0000
1010
0000
0101
0000
0001
0010
,
1000
0000
0000
0010
0000
0000
0002
0000
0000
0000
0000
0000
2003
0000
0000
0000
0000
0000
3010
0000
0100
0000
0010
0000
,
0100
0000
0001
0000
0100
0000
0002
0000
0000
0000
0000
0000
0000
0000
0000
1000
0000
0000
1000
0000
0000
0000
0000
0000
,
0013
0000
0001
0000
1000
0000
0010
0000
1000
0000
0000
0000
0001
0000
0010
0001
,
0010
0000
0100
0000
1000
0100
1000
0000
0001
0000
0100
0000
0010
0000
1000
0000
,
0100
0000
0110
0000
0001
0011
0000
1000
,
1100
0000
1000
0010
0100
0001
0010
0100
,
0000
0000
0000
0010
0000
0000
0002
0000
0000
0000
0000
0000
2003
0000
0000
0000
0000
0000
3010
0000
0100
0000
0001
0000
,
0010
0000
0220
0000
0000
0330
1000
0001
,
2000
0000
3200
0000
0320
0000
0031
0001
,
0100
0000
1000
0000
1000
0000
0100
0000
0002
0000
0000
0003
1000
0001
1000
0001
,
1000
0000
0000
0000
0001
0000
0010
0000
0100
0000
0010
0100
1000
0000
0001
0000
,
1000
0010
0001
0010
1000
0001
2000
0000
,
3100
0001
0100
1000
0010
0100
0001
1000
,
0001
0000
0000
0000
1000
0000
0010
0000
0100
0000
0010
0100
0001
0000
1000
0000
,
0001
0010
1000
0010
0001
0001
2000
0000
,
3100
0001
0100
1000
0010
0100
0001
1000
,
0001
0010
2000
0000
3020
0000
0032
0000
,
0103
0000
0000
0000
0001
0000
0010
0000
0100
0000
1000
0100
2000
0000
0000
0000
,
3010
0100
0001
0100
0020
0000
0032
0000
,
0023
0000
1030
1000
0010
1000
1000
0100
,
1000
0000
0001
0000
0010
0000
0001
0000
1000
0000
0000
0000
0100
0000
1000
0100
,
0010
0010
0010
0010
0002
0203
2300
3200
,
0302
0000
0003
0000
1000
0000
0010
0000
0100
0000
0010
0100
0001
0000
1000
0000
,
0001
0010
1000
0010
0001
0000
1002
0000
,
0103
0000
0010
0100
0010
0000
1000
0000
0100
0000
0001
0000
0100
0000
1000
0000
,
0001
0000
0000
0000
1000
0000
0010
0000
0100
0000
0010
0100
0001
0000
1000
0000
,
0001
0010
1000
0010
0001
0000
2001
0000
,
3010
0000
0100
0010
0100
0000
0001
0000
1000
0000
0100
0000
0020
0000
0000
0000
,
0031
1000
1001
0000
0010
1000
0010
1000
,
0100
0000
1000
0000
0010
0000
0100
0000
0001
0000
0010
0001
0020
0000
0000
0000
,
0031
0100
0001
0100
0001
0010
1000
0010
,
0001
0000
1000
0001
2000
0000
0000
0000
3010
0000
0100
0000
0010
0000
0100
0000
,
1000
0000
0100
0000
0001
0000
0100
0001
0100
0000
0001
0000
1001
0000
0000
0000
,
1000
0000
1000
0000
0001
0000
0001
0000
0100
0000
0010
0100
0010
0000
1000
0000
,
0200
0300
2002
0000
0000
0000
0000
0000
,
0000
0000
0000
0000
,
0000
0000
0000
0000
,
0000
3003
0000
0000
;

//--------------- dance-single - forcednature ----------------
#NOTEDATA:;
#STEPSTYPE:dance-single;
#DESCRIPTION:forcednature;
#DIFFICULTY:Hard;
#METER:17;
#RADARVALUES:0,0,0,0,0;
#CREDIT:forcednature;
#NOTES:
0000
0000
0000
0000
,
0000
0000
0000
0000
,
0000
0000
0000
0000
,
1002
1003
0002
0103
2000
3100
0002
1003
,
0001
0010
0001
0000
1000
0010
1000
0010
2000
0000
3001
0000
2000
0000
3100
0000
,
0002
0000
0103
0000
2000
0000
3001
0000
1000
0010
1000
0000
0001
0010
0001
0010
,
0002
1003
0002
0013
2000
3010
0002
1003
,
0010
0100
0001
0000
0100
0010
0100
0010
2000
0000
3001
0000
2000
0000
3010
0000
,
0002
0000
0013
0000
2000
0000
3001
0000
0010
0100
1000
0000
0100
0010
0100
0010
,
0002
0103
0020
1030
0200
0310
0002
0003
,
1001
0000
0001
0000
1000
0000
0001
0010
0100
0000
0010
0100
1000
0000
0001
0000
,
1000
0000
0001
0100
0010
0000
1000
0010
0100
0000
0001
0000
1000
0000
0001
0010
,
0100
0000
0010
0001
1000
0000
0010
1000
0001
0000
0010
0100
1000
0000
0001
0000
,
1001
0000
0000
0000
0001
0000
1000
0100
0010
0000
0100
0010
0001
0000
1000
0000
,
0010
0000
0100
0001
1000
0000
0010
1000
0001
0000
0010
0000
0100
0000
1000
0001
,
0100
0000
0001
1000
0100
0000
0010
0000
0001
1000
0001
1000
0010
0000
0000
0000
,
1001
0000
0001
0000
1000
0000
0001
0100
1000
0000
0100
0001
1000
0000
0000
0000
,
0010
0000
1000
0100
0001
0000
0100
1000
0001
0000
0000
0000
0010
0000
0001
1000
,
0010
0000
1000
0001
0010
0000
0100
1000
0010
0000
0100
0001
1000
0000
0000
0000
,
1001
0000
1000
0000
0010
0000
0001
0010
1000
0000
0010
0100
0001
0000
0000
0000
,
0100
0000
1000
0100
0001
0000
0100
0010
1000
0000
0000
0000
0001
0000
0010
0001
,
1000
0000
0010
1000
0001
0000
0010
0000
0100
1000
0100
1000
0001
0010
0100
1000
,
0020
0000
0000
0000
,
0030
1000
0010
1000
0100
0000
0000
0000
0110
0000
0000
0000
0010
0000
0001
0000
,
0001
0100
0001
0000
0010
0100
1000
0010
,
0100
0100
0001
0000
0010
0001
0000
0100
,
0110
0010
1000
1000
0001
0000
2000
3100
,
2000
3010
0002
0013
2000
3100
0020
0031
,
1000
0000
0000
0000
0002
0000
0103
0000
0002
0000
0013
0100
2000
0000
3010
0000
,
1010
0110
0101
0110
1001
0000
0001
1000
,
1000
0100
1000
0000
0010
0100
0001
0010
,
0100
0100
2000
0000
3010
0200
0000
0301
,
1001
1000
0100
0010
0002
0000
0103
0010
,
0100
0001
0010
0100
2000
3010
0002
0013
,
1000
0000
1000
0000
0001
0000
1000
0000
0100
0000
0010
0100
2000
0000
3010
0000
,
0002
0013
1010
0000
2001
0001
0000
3001
,
0000
0000
1000
0100
0010
0000
0010
0000
0001
0000
0010
0000
0100
0000
1000
0000
,
0001
1000
0010
0100
0002
0000
1000
0000
0000
0000
1003
0000
0000
0000
0001
0010
,
0100
1000
1010
0010
0100
0102
0000
1003
,
0000
1000
0001
0021
0000
0130
1100
1000
,
0001
0100
0110
0000
1002
0000
1003
0100
,
0010
0001
0010
0001
1000
0010
0100
0001
1000
0000
0100
0000
2000
0000
3010
0000
,
0002
0013
2000
0000
3001
0010
0100
1000
,
0020
0130
2000
3100
0002
0103
0110
0000
,
0001
0010
0100
1000
0001
1000
0100
0010
0001
0000
0001
0000
1000
0000
0100
1000
,
0001
0000
0100
0001
1000
0000
1000
0000
0010
0000
1000
0001
0010
0100
1000
0001
,
0100
0000
0010
1000
0002
0000
0000
0000
0013
0000
0100
1000
0010
0000
0100
0000
,
0220
0330
0000
0000
0000
0000
0000
0000
0001
0000
0000
0000
1000
0000
0000
0000
0001
0000
0000
0000
0000
0000
0000
0000
0010
0000
0000
0000
0100
0000
0000
0000
0010
0000
0000
0000
0100
0000
0000
0000
1000
0000
0000
0000
0000
0000
0000
0000
0010
0000
0000
0000
0100
0000
0000
0000
0010
0000
0000
0000
0100
0000
0000
0000
,
0001
0000
0010
0001
1000
0000
0010
1000
0001
0000
0000
0000
1000
0000
0100
0000
,
0001
0000
0000
0100
0000
0000
2000
0000
0000
0000
0000
0000
3002
0000
0000
0000
0000
0000
0103
0000
0010
0000
1000
0000
,
0010
0000
0100
0000
0001
0000
0020
0000
0000
0001
0000
0000
0000
0000
0000
0001
0000
0000
0100
0000
0000
0000
0000
0000
,
0031
0000
1000
0000
0010
0000
0100
0001
0010
0000
0100
1000
0001
0100
0010
0100
,
0001
0000
1000
0100
0010
0100
1000
0000
0001
0000
0010
0000
0100
0000
1000
0010
,
2000
0000
0000
0000
3001
0000
0100
0000
0100
0000
0010
0000
0100
1000
0100
1000
,
0100
0000
0001
0000
1000
0000
0100
0010
0001
0000
1000
0000
0010
0000
0110
0000
,
0000
0000
0000
0100
0000
0000
0002
0000
0000
0010
0000
0000
2003
0000
0000
0010
0000
0000
3001
0000
0010
0000
0100
0000
,
1000
0000
0001
1000
0002
0000
0000
0000
0000
0000
0003
0000
0100
0000
0010
0000
,
2000
0000
3002
0000
0013
0000
0110
0110
,
1100
0000
0110
0000
0010
0000
0001
1000
0010
1000
0010
1000
0001
0010
0001
1000
,
0010
1000
0100
0010
0001
0000
0100
0000
0010
0000
0100
0000
1000
0000
0100
0001
,
0010
0000
0100
1000
0010
0000
1000
0001
0010
0000
0100
0000
1000
0010
1000
0010
,
0100
0001
0100
0001
1000
0000
0100
0010
0100
0000
0010
0001
2000
0000
3020
0000
,
0032
0000
0023
0000
1030
0000
0100
0000
0010
0000
0100
0000
0001
0000
0100
1000
,
0010
0000
0100
0001
0010
0000
0001
1000
0010
0000
0100
0000
0001
0010
0001
0010
,
0100
1000
0100
1000
0001
0000
0100
0010
0100
0000
0010
1000
0002
0000
0023
0000
,
0230
2300
3010
0000
0110
0100
0101
0001
,
0011
0010
0110
0100
1100
1000
1020
0000
,
0031
0000
0010
0000
1000
0000
0100
0010
0001
0000
0100
0000
0010
1000
0001
1000
,
0002
0000
0000
0000
0013
0100
0010
0100
1000
0000
0010
0100
0001
0000
1000
0000
,
0100
0010
0100
0010
0001
0000
0100
0010
1000
0000
0001
0000
0020
0000
0000
0130
,
1000
0000
1100
0000
1100
0000
1010
0000
0110
0000
0101
0000
0001
0010
0100
1000
,
0001
0100
0010
1000
0001
0000
0010
0000
0100
0000
0010
0000
1000
0000
0010
0001
,
0100
0000
0010
1000
0100
0000
0001
0100
1000
0000
0010
0000
0100
0001
0100
0001
,
0010
0001
0010
0001
1000
0000
0010
0100
0010
0000
0100
0001
2000
0000
3200
0000
,
0302
0000
0203
0000
1300
0000
0010
0000
0100
0000
0010
0000
0001
0000
0010
1000
,
0100
0000
0010
0001
0100
0000
1000
0100
0001
0000
0010
0000
0100
1000
0100
1000
,
0010
1000
0010
1000
0001
0000
0010
0100
0010
0000
0100
1000
0002
0000
0203
0000
,
0320
2030
3100
0000
1100
1000
1010
0110
,
0101
0001
0011
0110
1100
1000
0020
0000
,
0031
0000
0010
0000
1000
0000
0100
0010
0001
0000
0100
0010
1000
0000
0001
1000
,
0002
0000
0000
0000
0103
1000
0100
1000
0100
0000
0001
0100
0001
0000
0010
0000
,
0100
0001
0100
0001
0100
0000
1000
0100
1000
0000
0010
0000
1001
0000
1000
0100
,
0010
0000
0100
0010
0001
0000
1000
0000
0010
0100
0010
0100
0001
1000
0100
0010
,
0001
1000
0010
1000
0002
0000
0000
0000
0000
0000
0000
0000
0000
0000
0000
0000
,
0000
0000
0000
0000
,
0000
0000
0000
0000
,
0000
0003
0000
0000
;

//--------------- dance-double - forcednature ----------------
#NOTEDATA:;
#STEPSTYPE:dance-double;
#DESCRIPTION:forcednature;
#DIFFICULTY:Easy;
#METER:9;
#RADARVALUES:0,0,0,0,0;
#CREDIT:forcednature;
#NOTES:
00000000
00000000
00000000
00000000
,
00000000
00000000
00000000
00000000
,
00000000
00000000
00000000
00000000
,
00020000
00030000
00002000
00003000
00002000
00003000
00020000
00030000
,
00000010
00000000
00010000
00000000
00002000
00003000
00020000
00030000
,
00020000
00030000
00001000
00000000
00100000
00000000
00001000
00000000
,
00020000
00030000
00002000
00003000
00002000
00003000
00020000
00030000
,
00000100
00000000
00010000
00000000
00002000
00003000
00020000
00030000
,
00020000
00030000
00002000
00003000
01000000
00000000
00001000
00000000
,
00020000
00030000
02000000
03000000
20000000
30000000
00200000
00300000
,
10010000
00000000
10000000
01000000
10000000
00000000
00100000
00000000
,
01000000
00100000
01000000
00000000
00010000
00000000
00100000
00010000
,
00100000
00001000
00010000
00000010
,
00001001
00000000
00000001
00000100
00000001
00000000
00000010
00000000
,
00000100
00001000
00000100
00000000
00010000
00000000
00001000
00010000
,
00001000
00100000
00010000
01000000
,
10010000
00000000
10000000
00100000
10000000
00000000
00010000
00000000
,
00100000
00010000
00100000
00000000
00001000
00000000
00010000
00001000
,
00010000
00000100
00001000
00000010
,
00001001
00000000
00000001
00000100
00000001
00000000
00001000
00000000
,
00000100
00001000
00000100
00000000
00010000
00000000
00001000
00010000
,
00001000
01000000
00010000
00100000
,
02200000
00000000
00000000
00000000
,
00000000
00000000
03300000
00000000
10000000
00000000
00000000
01000000
,
00000000
10000000
01000000
00000000
10000000
00000000
00100000
00000000
,
01000000
00000000
00010000
00000000
00000000
01000000
00000000
01000000
,
00010000
00000000
00100000
00000000
00001000
00000000
00020000
00030000
,
00002000
00003000
00002000
00003000
00020000
00030000
00000010
00000000
,
00010000
00000000
00002000
00003000
00020000
00030000
00020000
00030000
,
00002000
00003000
00100000
00000000
00001000
00000000
00010000
00001000
,
00000000
00001000
00010000
00000000
00000100
00000000
00001000
00000000
,
00000010
00000000
00000100
00000001
00000000
00000001
00000100
00000000
,
00000010
00000000
00001000
00000000
00000100
00000000
00020000
00030000
,
00002000
00003000
01000000
00000000
00002000
00003000
00020000
00030000
,
00001000
00010000
00001000
00000000
00100000
00000000
00010000
00000000
,
01100000
00000000
10010000
00000000
10000000
00100000
00000000
00100000
,
00000000
01000000
00100000
00000000
01000000
00010000
01000000
00000000
,
00001000
00000000
00010000
00001000
00000000
00001000
00000000
00010000
,
00000100
00000000
00001000
00000010
00000000
00000220
00000000
00000330
,
00000000
00000000
00000100
00000002
00000000
00000000
00000023
00000000
,
00000130
00000000
00000110
00000000
00001001
00000000
00000001
00000010
,
00000001
00000000
00001000
00000010
00002000
00000000
00003200
00000000
,
00020300
00000000
00032000
00000000
01003000
00010000
01000000
00000000
,
00100000
10000000
01100000
10010000
,
00010000
10000000
00010000
10000000
02000000
00000000
00100000
00000000
,
00100000
03200000
00010000
00010000
,
00301000
00000000
00011000
00000000
00010000
00001000
00010000
00000000
,
00000200
00000300
00000000
00000000
00000000
00000000
00000000
00000000
00000000
00000000
00000000
00000000
00000000
00000000
00000000
00000000
00001000
00000000
00000000
00000000
00000000
00000000
00000000
00000000
00000000
00000000
00000000
00000000
00000000
00000000
00000000
00000000
00001000
00000000
00000000
00000000
00000000
00000000
00000000
00000000
00000010
00000000
00000000
00000000
00000000
00000000
00000000
00000000
00000000
00000000
00000000
00000000
00000000
00000000
00000000
00000000
00000010
00000000
00000000
00000000
00000000
00000000
00000000
00000000
,
00000100
00000000
00000110
00000000
00001001
00000000
00000001
00000100
,
00000000
00000001
00000020
00000000
00000130
00000000
00000110
00000000
,
00001001
00000000
00001000
00000100
00000000
00000100
00000000
00010000
,
00001000
00000000
01000000
00000000
00010000
00000000
00100000
01000000
,
00000000
01000000
10000000
00000000
00010000
10000000
00010000
00000000
,
01000000
00000000
01100000
00000000
00100000
10000000
00000000
00100000
,
10000000
00000000
01000000
00000000
00010000
00000000
00001000
00010000
,
00001000
00010000
00000100
00001000
,
00000010
00000000
00000220
00000000
00000330
00000000
00000100
00000001
,
00000100
00000000
00000010
00000000
00001000
00000000
00000100
00010000
,
00000000
00010000
00000100
00000000
00020000
00000000
00001000
00000000
,
00030010
00000000
00011000
00000000
00001000
00010000
00001000
00000000
,
01000000
00010000
00100000
01000000
,
10000000
01000000
00100000
00000000
00001000
00000000
00010000
00000000
,
00000010
00000000
00001000
00000000
00000010
00000100
00000001
00000000
,
00000010
00000100
00010000
00001000
,
00100000
00010000
00100000
00000000
01000000
00000000
10000000
00000000
,
00100000
00000000
01100000
00000000
01000000
00010000
01000000
00000000
,
00001000
00010000
00000010
00001000
,
00000100
00000010
00000001
00000000
00000100
00000000
00000010
00000000
,
00001000
00000000
00001001
00000000
00000001
00000010
00000100
00000000
,
00010000
00000000
00001000
00000000
00100000
00000000
00010000
10000000
,
00000000
10000000
00010000
00000000
01000000
00000000
00100000
00000000
,
10000000
00000000
10010000
00000000
00010000
00100000
00010000
00000000
,
01000000
00001000
00010000
00000100
,
00001000
00000010
00000100
00000000
00000001
00000000
00001000
00000000
,
00000100
00000000
00000010
00000000
00000001
00000100
00000010
00000000
,
00010000
00001000
00100000
00010000
,
01000000
00100000
10000000
00000000
01000000
00000000
00200000
00000000
,
00301000
00011000
00010000
00000100
,
00010000
00000000
00001000
00010000
00001000
00000000
00011000
00000000
,
00010000
00000000
00001000
00000000
01000000
00000000
00010000
01000000
,
00010000
00000000
00100000
01000000
00000000
01000000
00100000
00000000
,
00010000
00000000
10010000
00000000
10000000
00000000
00100000
01000000
,
00000000
00010000
01000000
00000000
00002000
00000000
00023000
00000000
,
00030010
00002020
00000000
00000000
,
00000000
00000000
00000000
00000000
,
00000000
00000000
00000000
00000000
,
00000000
00003030
00000000
00000000
;

//--------------- dance-double - forcednature ----------------
#NOTEDATA:;
#STEPSTYPE:dance-double;
#DESCRIPTION:forcednature;
#DIFFICULTY:Medium;
#METER:14;
#RADARVALUES:0,0,0,0,0;
#CREDIT:forcednature;
#NOTES:
00000000
00000000
00000000
00000000
,
00000000
00000000
00000000
00000000
,
00000000
00000000
00000000
00000000
,
00011000
01001000
00011000
00101000
,
00001000
00001000
00010000
00000000
00011000
00000000
00010100
00000000
,
00011000
00000000
00010010
00000000
00010000
00010000
00001000
00000000
,
01000000
00010000
00100000
01000000
01100000
00000000
10010000
00000000
,
10000000
00100000
00010000
00100000
00010000
00001000
00010000
00001000
,
00000010
00000100
00000010
00000001
00000100
00000000
00000110
00000000
,
00000010
00000100
00001000
00010000
01000000
00100000
01000000
00000000
,
10010000
00000000
00000000
00000000
10000000
00000000
01000000
00000000
00100000
00000000
00010000
00100000
00010000
00000000
00000000
00000000
,
01000000
00000000
00001000
00000000
00010000
00000000
00001000
00010000
00001000
00000000
00000000
00000000
00010000
00000000
00000100
00000000
,
00001000
00000000
00000010
00001000
00000010
00000000
00000100
00000000
00000001
00000000
00000010
00000000
00001000
00000000
00010000
00000000
,
00000100
00000000
00000000
00000000
00001000
00000000
00000010
00000000
00010000
00000000
00001000
00010000
00001000
00000000
00000000
00000000
,
01000000
00000000
00010000
00000000
00100000
00000000
01000000
00100000
01000000
00000000
00000000
00000000
10000000
00000000
00100000
00000000
,
01000000
00000000
00010000
01000000
00010000
00000000
00100000
00000000
00001000
00000000
00010000
00001000
00010000
00000000
00000000
00000000
,
00011000
00000000
00000000
00000000
00000100
00000000
00001000
00000000
00000010
00000000
00000100
00000010
00000100
00000000
00000000
00000000
,
00000001
00000000
00000010
00000000
00000100
00000000
00010000
00000100
00010000
00000000
00000000
00000000
00001000
00000000
00100000
00000000
,
00010000
00000000
01000000
00010000
01000000
00000000
00100000
00000000
10000000
00000000
00100000
00000000
00010000
00000000
00001000
00000000
,
00010000
00000000
00000000
00000000
00001000
00000000
00000010
00000000
00000001
00000000
00000010
00000100
00000010
00000000
00000000
00000000
,
00000100
00000000
00010000
00000000
00001000
00000000
00010000
00001000
00010000
00000000
00000000
00000000
00100000
00000000
01000000
00000000
,
00010000
00000000
00100000
00010000
00100000
00000000
00001000
00000000
00010000
00000000
00000010
00001000
00000001
00000000
00000000
00000000
,
00002002
00000000
00000000
00000000
00000000
00000000
00000000
00000000
00000000
00000000
00000000
00000000
00000000
00000000
00000000
00003003
,
00000000
00000001
00001000
00000001
00000010
00000000
00000000
00000000
00000110
00000000
00000000
00000000
00000100
00000000
00010000
00000000
,
00000000
00010000
00001000
00000000
01000000
00010000
00000000
01000000
,
00200000
00000000
20300000
00000000
30000000
01000000
00100000
01000000
,
00010000
00001000
00010000
00000000
00001000
00000000
00011000
00000000
,
00010100
00000000
00011000
00000000
00010010
00000000
00000010
00001000
,
00000100
00011000
01001000
00011000
,
00010000
00010000
00100000
00100000
10000000
00000000
01000000
00100000
,
00000000
00100000
01000000
00000000
00020000
00000000
00032000
00000000
,
00003010
00000100
00000010
00000000
00000001
00000100
00000000
00000100
,
00001000
00000000
00010000
00001000
00020000
00000000
00130000
01000000
,
00010000
01000000
00100000
00000000
20000000
30000000
00020000
00030000
,
10000000
10000000
01000000
00000000
00010000
00000000
00002000
00003000
,
00020000
00030000
00011000
00000000
00010200
00000000
00000000
00001300
,
00000000
00000100
00000010
00000001
00000100
00000010
00000100
00001000
,
00010000
00001000
00000000
00000000
00012000
00000000
00000000
00000000
00000000
00000000
01003000
00000000
00000000
00000000
00001000
00000000
,
00010000
00100000
10000000
00100000
01000000
00020000
00000000
00130000
,
00000000
01000000
00100000
00002000
00000000
00013000
00000100
00010000
,
00001000
00000000
00010010
00000000
00001100
00000000
00000100
00001000
,
00000001
00000000
00001000
00000000
00000010
00000000
00000100
00000010
00000100
00000000
00000000
00000000
00002000
00000000
00000000
00000000
,
00023000
00000000
00230000
00000000
01300000
00100000
20000000
00000000
,
32000000
00000000
03010000
00001000
00010000
00000000
00011000
00000000
,
00001000
00000000
00010000
00001000
00010000
00000000
00000100
00000000
00002000
00000000
00000000
00000000
00000010
00000000
00000000
00000000
,
00003001
00000000
00000100
00000001
00000100
00000000
00000010
00001000
00000010
00000000
00010000
00000000
00001000
00000000
00000000
00000000
,
00100000
00000000
00000000
00000000
10020000
00000000
00000000
00000000
01030000
00000000
00000000
00010000
00100000
00000000
00100000
00000000
,
02000000
03000000
00000000
00000000
00000000
00000000
00000000
00000000
00000000
00000000
00000000
00000000
00000000
00000000
00000000
00000000
10000000
00000000
00000000
00000000
00000000
00000000
00000000
00000000
10000000
00000000
00000000
00000000
00000000
00000000
00000000
00000000
00100000
00000000
00000000
00000000
00000000
00000000
00000000
00000000
00010000
00000000
00000000
00000000
00000000
00000000
00000000
00000000
00010000
00000000
00000000
00000000
00000000
00000000
00000000
00000000
00001000
00000000
00000000
00000000
00000000
00000000
00000000
00000000
,
00000100
00000000
00000110
00000000
00001001
00000000
00000001
00000100
,
00001000
00000000
00000000
00000100
00000000
00000000
00000002
00000000
00000000
00000000
00000000
00000000
00000023
00000000
00000000
00000000
00000000
00000000
00000130
00000000
00010000
00000000
00000100
00000000
,
00010000
00000000
00001000
00000000
00010000
00000000
00002000
00000000
00000000
00000000
00000000
00000000
00000000
00000000
00000000
00100000
00000000
00000000
00100000
00000000
00000000
00000000
00000000
00000000
,
00013000
00000000
01000000
00000000
10000000
00000000
01000000
00000000
00010000
00000000
00000000
00000000
00001000
00000000
00010000
00001000
,
00010000
00000000
00000100
00000000
00001000
00000100
00001000
00000000
00000010
00000000
00000100
00000000
00000001
00000000
00000100
00000000
,
00001000
00000000
00011000
00000000
00010000
00100000
00000000
10000000
,
01000000
00000000
00010000
00001000
00100000
00001000
00010000
00000100
,
00000000
00000000
00000000
00000010
00000000
00000000
00000002
00000000
00000000
00000000
00000000
00000000
00002003
00000000
00000000
00000000
00000000
00000000
00003010
00000000
00000100
00000000
00001000
00000000
,
00010000
00000000
00022000
00000000
00000000
00033000
00001000
00010000
,
00200000
00000000
20300000
00000000
30020000
00000000
10030000
10000000
,
01000000
00000000
00010000
00000000
00010000
00000000
00001000
00000000
00000020
00000000
00000000
00000030
00000100
00000010
00000100
00000010
,
00000001
00000000
00000000
00000000
00001000
00000000
00000001
00000000
00000100
00000000
00000010
00000100
00000010
00000000
00001000
00000000
,
00000100
00000010
00001000
00010000
00001000
01000000
00020000
00000000
,
00130000
01000000
10000000
01000000
00010000
00001000
00100000
00001000
,
00010000
00000000
00000000
00000000
00001000
00000000
00000010
00000000
00000001
00000000
00000010
00000100
00000010
00000000
00000100
00000000
,
00010000
00001000
00100000
00010000
01000000
01000000
20000000
00000000
,
31000000
00010000
01000000
00100000
00010000
00001000
00010000
00000100
,
00000010
00000001
00000200
00000000
00002300
00000000
00023000
00000000
,
01030000
00000000
00000000
00000000
00010000
00000000
00001000
00000000
00100000
00000000
00010000
00100000
00020000
00000000
00000000
00000000
,
01030000
00100000
10000000
01000000
00020000
00000000
00032000
00000000
,
00003020
00000000
00000031
00000001
00000100
00001000
00001000
00000100
,
00000001
00000000
00000010
00000000
00001000
00000000
00010000
00000000
00001000
00000000
00000000
00000000
00100000
00000000
00010000
10000000
,
00100000
00100000
00100000
00100000
20000000
32000000
03020000
00032000
,
00023000
00000000
00030000
00000000
00001000
00000000
00000010
00000000
00000001
00000000
00000010
00000100
00000010
00000000
00000100
00000000
,
00010000
00001000
01000000
00010000
01000000
00000000
10020000
00000000
,
01030000
00000000
00100000
01000000
00100000
00000000
10000000
00000000
01000000
00000000
00010000
00000000
00001000
00000000
00100000
00000000
,
00001000
00000000
00000000
00000000
00010000
00000000
00100000
00000000
01000000
00000000
00100000
01000000
00100000
00000000
10000000
00000000
,
00010000
00100000
01000000
00010000
00001000
00000000
00021000
00000000
,
00030100
00000000
00001000
00000100
00001000
00000000
00000010
00000000
00000100
00000000
00000001
00000000
00000020
00000000
00000000
00000000
,
00001030
00010000
00011000
00000000
00100000
00010000
00100000
00010000
,
10000000
00000000
00010000
00000000
00100000
00000000
01000000
00000000
00010000
00000000
00001000
00010000
00002000
00000000
00000000
00000000
,
00003100
00000010
00000100
00000010
00001000
00000010
00000001
00000010
,
00001000
00000000
00000100
00001000
00000200
00000000
00000000
00000000
00010300
00000000
00001000
00000000
00010000
00000000
00001000
00000000
,
00000010
00000000
00001000
00000000
00010000
00000000
00001000
00010000
00001000
00000000
01000000
00000000
00100000
00000000
00000000
00000000
,
10000000
00000000
01000000
00000000
00010000
00000000
00001000
00000000
00010000
00000000
00000100
00001000
00000100
00000000
00000010
00000000
,
00000002
00000003
00002020
00000000
00000000
00000000
00000000
00000000
,
00000000
00000000
00000000
00000000
,
00000000
00000000
00000000
00000000
,
00000000
00003030
00000000
00000000
;

//--------------- dance-double - forcednature ----------------
#NOTEDATA:;
#STEPSTYPE:dance-double;
#DESCRIPTION:forcednature;
#DIFFICULTY:Hard;
#METER:17;
#RADARVALUES:0,0,0,0,0;
#CREDIT:forcednature;
#NOTES:
00000000
00000000
00000000
00000000
,
00000000
00000000
00000000
00000000
,
00000000
00000000
00000000
00000000
,
00002000
00013000
00200000
00310000
00002000
00013000
02000000
03010000
,
00001000
00010000
00001000
00000000
00010000
00000100
00010000
00000100
00020000
00000000
00031000
00000000
00000020
00000000
00001030
00000000
,
00020000
00000000
00031000
00000000
00000200
00000000
00001300
00000000
00010000
00001000
00010000
00000000
00001000
01000000
00001000
01000000
,
00002000
00013000
02000000
03010000
20000000
30010000
02000000
03010000
,
00001000
00010000
00001000
00000000
00010000
00000100
00010000
00000100
00020000
00000000
00031000
00000000
00000200
00000000
00001300
00000000
,
00000002
00000000
00001003
00000000
00000200
00000000
00001300
00000000
00010000
00001000
00010000
00000000
00001000
01000000
00001000
01000000
,
00002000
00013000
00200000
00310000
00000200
00010300
00000020
00010030
,
00011000
00000000
00001000
00000000
00000010
00000000
00000100
00010000
00001000
00000000
00100000
00010000
00100000
00000000
01000000
00000000
,
10000000
00000000
00100000
01000000
00010000
00000000
01000000
00001000
00010000
00000000
00000010
00000000
00001000
00000000
00000001
00000010
,
00000100
00000000
00001000
00000010
00010000
00000000
00001000
00010000
00001000
00000000
00100000
00010000
01000000
00000000
00100000
00000000
,
10000000
00000000
01000000
00000000
00100000
00000000
00010000
01000000
00001000
00000000
00010000
00001000
00010000
00000000
00001000
00000000
,
00000010
00000000
00000001
00000010
00000100
00000000
00001000
00000010
00010000
00000000
00001000
00000000
00010000
00000000
00100000
01000000
,
00010000
00000000
00100000
01000000
10000000
00000000
01000000
00000000
00010000
00001000
00010000
00001000
00100000
00000000
01000000
00000000
,
10010000
00000000
00000000
00000000
00010000
00000000
10000000
01000000
00010000
00000000
00001000
00000010
00000001
00000000
00000000
00000000
,
00001000
00000000
00000001
00000100
00001000
00000000
00010000
00100000
10000000
00000000
00000000
00000000
00100000
00000000
01000000
00010000
,
00100000
00000000
00001000
00010000
00001000
00000000
00010000
00000100
00001000
00000000
00000010
00000100
00000001
00000000
00000000
00000000
,
00001001
00000000
00000000
00000000
00001000
00000000
00000001
00000010
00001000
00000000
00010000
01000000
10000000
00000000
00000000
00000000
,
00010000
00000000
10000000
00100000
00010000
00000000
00001000
00000100
00000001
00000000
00000000
00000000
00000010
00000000
00000100
00001000
,
00000010
00000000
00010000
00001000
00010000
00000000
00100000
00000000
01000000
00010000
01000000
00010000
00100000
01000000
10000000
00010000
,
00200000
00000000
00000000
00000000
,
00300000
00001000
00100000
00001000
00010000
00000000
00000000
00000000
00011000
00000000
00000000
00000000
00001000
00000000
00000010
00000000
,
00000010
00000001
00000010
00000000
00000100
00001000
00000001
00000100
,
00001000
00001000
00010000
00000000
00001000
00100000
00000000
00001000
,
00011000
00010000
00100000
00100000
10000000
00000000
02000000
03010000
,
00002000
00013000
00000020
00010030
00002000
00013000
00200000
00310000
,
00001000
00000000
00000000
00000000
00000200
00000000
00001300
00000000
00020000
00000000
00031000
00010000
00200000
00000000
10300000
00000000
,
10100000
01100000
01010000
00110000
00101000
00000000
00001000
00010000
,
00010000
00001000
00000010
00000000
00000001
00000010
00000100
00001000
,
00000001
00000001
00000200
00000000
00001300
00020000
00000000
01030000
,
01100000
00000000
00100000
00010000
20000000
00000000
30100000
01000000
,
00100000
00010000
00001000
00000100
00000020
00000130
00002000
00003100
,
00000001
00000001
00002000
00003000
00020000
00030000
20000000
30100000
,
00020000
00130000
01100000
00000000
20010000
00010000
00000000
30010000
,
00000000
00000000
10000000
01000000
00010000
00000000
00010000
00000000
00001000
00000000
00000010
00000000
00001000
00000000
00010000
00000000
,
00000100
00001000
00000100
00000010
00000002
00000000
00001000
00000000
00000000
00000000
00001003
00000000
00000000
00000000
00000001
00000100
,
00001000
00001000
00010000
00100000
00010000
00012000
00000000
01003000
,
00000000
00001000
00010000
00021000
00000000
00030100
00001100
00001000
,
00000010
00000100
00000101
00000000
00001020
00000000
00000130
00001000
,
00010000
00001000
00010000
00001000
01000000
00010000
01000000
00100000
10000000
00000000
01000000
00000000
20000000
00000000
30100000
00000000
,
00020000
00130000
00002000
00000000
00103000
10000000
01000000
00010000
,
00002000
00003010
00000002
00000013
00000200
00000310
00000110
00000000
,
00000100
00001000
00000100
00010000
00001000
00100000
00010000
00100000
01000000
00000000
01000000
00000000
10000000
00000000
00100000
10000000
,
00010000
00000000
00100000
00010000
10000000
00000000
10000000
00000000
00100000
00000000
00010000
00001000
00100000
00001000
00010000
00000010
,
00010000
00000000
00001000
00000010
00000002
00000000
00000000
00000000
00000013
00000000
00000100
00001000
00000001
00000000
00000100
00000000
,
00022000
00033000
00000000
00000000
00000000
00000000
00000000
00000000
00000000
00000000
00000000
00000000
00000000
00000000
00000000
00000000
00001000
00000000
00000000
00000000
00000000
00000000
00000000
00000000
00010000
00000000
00000000
00000000
00100000
00000000
00000000
00000000
00010000
00000000
00000000
00000000
00100000
00000000
00000000
00000000
00010000
00000000
00000000
00000000
00000000
00000000
00000000
00000000
00100000
00000000
00000000
00000000
10000000
00000000
00000000
00000000
00100000
00000000
00000000
00000000
10000000
00000000
00000000
00000000
,
00100000
00000000
10000000
01000000
00010000
00000000
00001000
00010000
01000000
00000000
00000000
00000000
00100000
00000000
01000000
00000000
,
00010000
00000000
00000000
00001000
00000000
00000000
00000020
00000000
00000000
00000000
00000000
00000000
00000230
00000000
00000000
00000000
00000000
00000000
00001300
00000000
00000001
00000000
00000100
00000000
,
00001000
00000000
00010000
00000000
00001000
00000000
00020000
00000000
00000000
00000010
00000000
00000000
00000000
00000000
00000000
00001000
00000000
00000000
00001000
00000000
00000000
00000000
00000000
00000000
,
00030010
00000000
00000100
00000000
00001000
00000000
00010000
00001000
00010000
00000000
00100000
00000000
10000000
00010000
01000000
00010000
,
10000000
00000000
00010000
10000000
01000000
10000000
00010000
00000000
00010000
00000000
00100000
00000000
01000000
00000000
10000000
01000000
,
00020000
00000000
00000000
00000000
00031000
00000000
00010000
00000000
00001000
00000000
00000010
00000000
00000100
00000010
00000100
00000010
,
00000001
00000000
00001000
00000000
00000010
00000000
00000100
00000001
00000100
00000000
00001000
00000000
00010000
00000000
00011000
00000000
,
00000000
00000000
00000000
00001000
00000000
00000000
00020000
00000000
00000000
00130000
00000000
00000000
20000000
00000000
00000000
30100000
00000000
00000000
00010000
00000000
00001000
00000000
00010000
00000000
,
00001000
00000000
00010000
00000100
00002000
00000000
00000000
00000000
00000000
00000000
00003000
00000000
00000001
00000000
00000010
00000000
,
00002000
00000000
00023000
00000000
01030000
00000000
01100000
01100000
,
00100000
00000000
00001000
00000000
00010000
00000000
00000010
00001000
00000100
00010000
00001000
00010000
00001000
01000000
00010000
01000000
,
00001000
00010000
00001000
00010000
00000010
00000000
00001000
00000000
00000100
00000000
00000001
00000000
00000100
00000000
00010000
00001000
,
00010000
00000000
00001000
00100000
00010000
00000000
00100000
01000000
10000000
00000000
00100000
00000000
10000000
00100000
10000000
00100000
,
01000000
00010000
01000000
00010000
00100000
00000000
00001000
00010000
00001000
00000000
00010000
00000100
00002000
00000000
00003002
00000000
,
00000023
00000000
00000230
00000000
00010300
00000000
00001000
00000000
00000100
00000000
00001000
00000000
00010000
00000000
00100000
01000000
,
00100000
00000000
01000000
00010000
10000000
00000000
01000000
00100000
00010000
00000000
01000000
00000000
00001000
00010000
00001000
00010000
,
00000010
00001000
00000010
00001000
00000001
00000000
00000010
00000100
00000010
00000000
00001000
00000000
00020000
00000000
00032000
00000000
,
00003020
00000032
00000103
00000000
00000110
00000010
00010010
00010000
,
00011000
00001000
00101000
00100000
01100000
01000000
21000000
00000000
,
30100000
00000000
00010000
00000000
00001000
00000000
00010000
00001000
00010000
00000000
00000100
00000000
00001000
00000010
00000100
00000001
,
00000200
00000000
00000000
00000000
00001300
00010000
00001000
00010000
00100000
00000000
00010000
00001000
00010000
00000000
00000100
00000000
,
00010000
00001000
00010000
00001000
00000010
00000000
00001000
00010000
00001000
00000000
01000000
00000000
00200000
00000000
00000000
00000000
,
10300000
00000000
01000000
00000000
00010000
00000000
00000100
00000000
00001100
00000000
00000001
00000000
00001000
00000100
00000010
00000001
,
00001000
00000010
00010000
00001000
00100000
00000000
00010000
00000000
01000000
00000000
10000000
00000000
01000000
00000000
00001000
00010000
,
00001000
00000000
00010000
00000010
00001000
00000000
00000010
00000100
00000001
00000000
00000010
00000000
00000001
00000010
00000001
00000010
,
00000100
00001000
00000100
00001000
00000010
00000000
00010000
00001000
00010000
00000000
00001000
01000000
00020000
00000000
20030000
00000000
,
32000000
00000000
03200000
00000000
00301000
00000000
00010000
00000000
01000000
00000000
00010000
00000000
00001000
00000000
00000010
00000100
,
00000010
00000000
00000100
00001000
00000001
00000000
00000100
00000010
00001000
00000000
00000100
00000000
00010000
00001000
00010000
00001000
,
00100000
00010000
00100000
00010000
10000000
00000000
00100000
01000000
00100000
00000000
00010000
00000000
00002000
00000000
00023000
00000000
,
00230000
20300000
31000000
00000000
01100000
00100000
00101000
00001000
,
00011000
00010000
00010010
00000010
00000110
00000100
00000102
00000000
,
00000013
00000000
00001000
00000000
00010000
00000000
00001000
00010000
00001000
00000000
01000000
00010000
10000000
00000000
01000000
00100000
,
00020000
00000000
00000000
00000000
01030000
00100000
01000000
00100000
00010000
00000000
00001000
00010000
00001000
00000000
00000010
00000000
,
00000100
00000010
00000100
00000010
00001000
00000000
00010000
00001000
00010000
00000000
00100000
00000000
10000000
00000000
00010000
10000000
,
01000000
00000000
00010000
00001000
00010000
00000000
00001000
00000000
00000010
00000001
00000010
00000001
00001000
00000100
00010000
00001000
,
00100000
00010000
00100000
00010000
02000000
00000000
00000000
00000000
00000000
00000000
00000000
00000000
00000000
00000000
00000000
00000000
,
00000000
00000000
00000000
00000000
,
00000000
00000000
00000000
00000000
,
00000000
03000000
00000000
00000000
;
