#VERSION:0.83;
#TITLE:十六夜セツナ;
#SUBTITLE:;
#ARTIST:Xceon feat. Mayumi Morinaga;
#TITLETRANSLIT:Izayoi setsuna;
#SUBTITLETRANSLIT:;
#ARTISTTRANSLIT:;
#GENRE:HYPER J-POP;
#CREDIT:;
#MUSIC:Izayoi setsuna.ogg;
#BANNER:Izayoi setsuna.png;
#BACKGROUND:Izayoi setsuna-bg.png;
#CDTITLE:./CDTitles/bm IIDX 22 PENDUAL.png;
#SAMPLESTART:6.148;
#SAMPLELENGTH:15.000;
#SELECTABLE:YES;
#OFFSET:0.978;
#BPMS:0.000=160.000
,252.000=106.667
,254.000=160.000
;
#STOPS:254.000=0.375;
#TIMESIGNATURES:0.000=4=4,
252.000=3=4,
258.000=4=4
;
#DISPLAYBPM:160.000;
#BGCHANGES:2.600=Izayoi setsuna.mp4=1.000=0=0=0=StretchNoLoop====,
99999.000=-nosongbg-=1.000=0=0=0=StretchNoLoop====
;
#FGCHANGES:;

//--------------- dance-single - forcednature ----------------
#NOTEDATA:;
#STEPSTYPE:dance-single;
#DESCRIPTION:forcednature;
#DIFFICULTY:Beginner;
#METER:1;
#RADARVALUES:0,0,0,0,0;
#CREDIT:forcednature;
#NOTES:
0000
0000
0000
0000
,
0000
0000
0000
0000
,
0000
0000
0000
0000
,
0000
0000
0000
0000
,
0000
0000
0000
0000
,
0001
0000
0000
0000
,
0000
0000
0000
0000
,
0000
0000
0000
0000
,
0000
0000
0000
0000
,
1000
0000
0000
0000
,
0000
0000
0000
0000
,
0000
0000
0000
0000
,
0000
0000
0000
0000
,
0100
0000
0000
0000
,
0000
0000
0000
0000
,
0000
0000
0000
0000
,
0000
0000
0000
0000
,
0010
0000
0000
0000
,
0000
0000
0000
0000
,
0000
0000
0000
0000
,
0000
0000
0000
0000
,
0001
0000
0000
0000
,
0000
0000
0000
0000
,
0000
0000
0000
0000
,
0000
0000
0000
0000
,
0100
0000
0000
0000
,
0000
0000
0000
0000
,
0000
0000
0000
0000
,
0000
0000
0000
0000
,
0010
0000
0000
0000
,
0000
0000
0000
0000
,
0000
0000
0000
0000
,
0000
0000
0000
0000
,
0000
0000
0000
0000
,
1001
0000
0000
0000
,
0000
0000
0000
0000
,
0000
0000
0000
0000
,
0000
0000
0000
0000
,
1000
0000
0000
0000
,
0000
0000
0000
0000
,
0000
0000
0000
0000
,
0000
0000
0000
0000
,
0100
0000
0000
0000
,
0000
0000
0000
0000
,
0000
0000
0000
0000
,
0000
0000
0000
0000
,
0010
0000
0000
0000
,
0000
0000
0000
0000
,
0000
0000
0000
0000
,
0000
0000
0000
0000
,
0001
0000
0000
0000
,
0000
0000
0000
0000
,
1000
0000
0000
0000
,
0000
0000
0000
0000
,
0200
0000
0000
0000
,
0000
0000
0000
0000
,
0000
0000
0000
0000
,
0000
0000
0000
0000
,
0300
0000
0000
0000
,
0000
0000
0000
0000
,
0010
0000
0000
0000
,
0000
0000
0000
0000
,
0010
0000
0000
0000
,
0000
0000
0000
0000
,
0000
0000
0000
0000
,
0000
0000
0001
0000
,
0000
0000
0000
0000
,
0000
0000
0100
0000
,
0000
0000
0000
0000
,
0000
0000
0010
0000
,
0000
0000
0000
0000
,
0000
0000
1000
0000
,
0000
0000
0000
0000
,
0000
0000
0001
0000
,
0000
0000
0000
0000
,
0000
0000
0010
0000
,
0000
0000
0000
0000
,
0000
0000
0100
0000
,
0000
0000
0000
0000
,
0000
0000
1000
0000
;

//--------------- dance-single - forcednature ----------------
#NOTEDATA:;
#STEPSTYPE:dance-single;
#DESCRIPTION:forcednature;
#DIFFICULTY:Easy;
#METER:4;
#RADARVALUES:0,0,0,0,0;
#CREDIT:forcednature;
#NOTES:
0000
0000
0000
0000
,
0000
0000
0000
0000
,
0000
0000
0000
0000
,
0000
0000
0000
0000
,
1001
0000
0000
0000
,
0001
0000
0001
0000
,
1000
0000
0000
0000
,
0010
0000
0010
0000
,
1000
0000
0000
0000
,
0100
0000
0100
0000
,
0010
0000
0000
0000
,
0001
0000
0001
0000
,
0100
0000
0000
0000
,
1001
0000
0000
0000
,
1000
0000
0000
0000
,
0010
0000
0000
0000
,
0100
0000
0000
0000
,
1001
0000
0000
0000
,
0000
0000
0001
0000
,
0001
0000
0000
0000
,
0010
0000
0000
0000
,
1001
0000
0000
0000
,
0000
0000
1000
0000
,
1000
0000
0000
0000
,
0010
0000
0000
0000
,
1000
0001
1000
0000
,
0001
0000
0000
0000
,
0100
0010
0100
0000
,
0010
0000
0000
0000
,
1001
0000
0000
0000
,
0001
0000
0000
0000
,
0010
0000
0000
0000
,
0100
0000
0000
0000
,
1001
0000
0000
0000
,
1000
0001
1000
0001
,
0100
0000
0000
0000
,
0010
0000
0000
0000
,
0100
0000
0000
0000
,
0001
1000
0001
1000
,
0100
0000
0000
0000
,
0010
0000
0000
0000
,
0001
0000
0000
0000
,
0100
0010
0100
0010
,
1000
0000
0000
0000
,
0010
0000
0000
0000
,
0100
0000
0000
0000
,
1001
0000
0000
0000
,
0110
0000
0000
0000
,
1000
0000
1000
0000
,
0001
0000
0000
0000
,
0200
0000
0000
0000
,
0300
0000
0000
0000
,
0020
0000
0000
0030
,
2000
0000
0000
3000
,
0002
0000
0000
0000
,
0000
0000
0003
0000
,
0020
0000
0000
0000
,
0000
0000
0030
0000
,
0200
0000
0300
0000
,
2000
0000
3000
0000
,
1001
0000
1000
0000
,
0010
0000
0100
0000
,
0110
0000
0010
0000
,
2002
0000
3003
1001
,
0000
0000
0001
0000
,
0000
0000
0010
0000
,
0010
0000
0100
0000
,
0000
0000
1000
0001
,
1000
0001
0100
0000
,
0000
0000
0010
0000
,
0010
0000
1000
0000
,
0000
0000
0001
0010
,
0001
0010
0100
0000
,
0000
0000
1000
0000
,
1000
0000
0001
0000
,
0000
0000
1000
0010
,
1000
0010
0100
0000
,
0000
0000
0001
0000
,
0001
0000
1000
0000
,
0001
0000
2002
0000
,
0000
0000
0000
0000
,
0000
0000
3003
0000
;

//--------------- dance-single - forcednature ----------------
#NOTEDATA:;
#STEPSTYPE:dance-single;
#DESCRIPTION:forcednature;
#DIFFICULTY:Medium;
#METER:9;
#RADARVALUES:0,0,0,0,0;
#CREDIT:forcednature;
#NOTES:
0000
0000
0000
0000
,
0000
0000
0000
0000
,
0000
0000
0000
0000
,
0000
0000
0000
0000
,
0001
0000
0000
0001
0000
0000
1000
0000
0010
0000
0000
0000
0000
0000
0000
0000
,
0100
0001
0100
0010
,
1000
0010
1000
0000
0001
0000
0000
0000
,
0010
0100
1000
0100
,
0010
0001
0010
0000
0100
1000
0100
0000
,
0010
0001
1000
0010
,
0100
0001
0100
0000
0010
0000
0000
0000
,
1000
0001
0010
0001
,
0100
0000
0000
0100
0000
0000
0010
0000
1000
0000
0000
0000
0000
0000
0000
0000
,
1001
0000
0001
0010
,
0100
0010
0100
0000
1000
0000
0001
0000
,
0100
0000
0001
1000
,
0010
0100
0010
0000
0100
0000
0001
0000
,
0020
0000
0130
1000
,
0100
0001
0100
1000
,
0100
0010
0001
0010
,
0001
0000
1000
0001
1000
0000
0010
0000
,
0200
0000
0301
0100
,
0010
0000
1000
0000
0010
0000
0100
0010
,
0100
0001
1000
0010
,
1001
0000
0000
0000
0001
1000
0001
0000
,
1001
1000
0100
0010
,
0100
0010
0100
0000
2000
0000
3000
0000
,
1001
0001
0100
0010
,
0100
0010
0100
0000
0001
0000
1000
0000
,
2002
3003
0001
0010
,
0100
0010
0100
0000
1000
0000
0001
0000
,
0100
0100
0001
1000
,
0100
1000
0100
0000
0010
0001
0010
0000
,
0110
0000
2002
3003
,
1010
0001
0011
1000
,
0010
0100
0010
0000
1000
0000
0000
0000
,
0101
1000
1100
0001
,
0010
0100
0010
0000
0100
1000
0100
0000
,
1001
0010
1001
0100
,
0001
1000
0001
0000
0010
0000
0000
0000
,
0110
1000
0110
0001
,
1000
0000
0000
1000
0000
0000
0010
0000
0100
0000
0000
0000
0001
0000
0000
0000
,
0011
0100
1010
0100
,
0001
1000
0001
0000
0100
0000
0000
0000
,
1010
0100
0011
0100
,
1000
0001
1000
0000
0010
0000
0100
0000
,
2002
3003
1000
0100
,
2002
3003
0001
0100
,
0010
0000
0100
0010
0100
0000
0010
0000
,
1000
0000
0000
1000
0000
0000
0001
0000
0010
0000
0000
0000
0100
0000
0010
0000
,
0200
0300
2000
3000
,
0010
0000
0100
0000
0001
0000
1000
0010
,
0200
0300
0002
0003
,
0010
0000
0010
0000
0001
1000
0001
0000
,
0200
0000
0000
0300
0020
0000
0000
0030
,
2000
3002
2003
3000
,
0200
0000
0000
0300
0020
0000
0000
0030
,
0002
2003
3002
0003
,
1001
1000
0100
0010
,
1001
0001
0100
0010
,
1000
0000
0000
1000
0000
0000
0001
0000
0010
0000
0000
0000
0100
0000
0000
0000
,
0110
0010
0001
0100
,
0110
0010
1001
0110
,
2002
0000
3003
1100
,
0001
0000
0100
0000
0010
1000
0001
0000
,
0100
0001
0011
1000
,
1010
0000
0001
0000
0010
0100
1000
0000
,
0010
0100
0001
0000
0101
0000
1000
0000
,
1100
0000
0001
0000
0100
0010
1000
0000
,
0001
0010
0110
1000
,
0110
0000
0000
0000
0001
0000
0000
0000
0100
0000
0000
0100
0000
0000
0010
0000
,
2000
3000
0101
0010
,
1001
0000
0010
0000
0100
0001
0100
0000
,
0010
1000
1100
0010
,
1001
0000
0010
0000
0100
1000
0100
0000
,
0010
0001
0010
0000
1001
0000
0100
0000
,
1010
0000
0100
0000
0001
1000
0001
0000
,
0010
0100
1100
0001
,
0101
0000
0000
0000
1000
0000
0000
0000
0010
0000
0000
0010
0000
0000
0100
0000
,
0001
0000
1000
0001
2000
0000
0000
0000
,
0000
0000
0000
0000
,
0000
0000
3000
0000
;

//--------------- dance-single - forcednature ----------------
#NOTEDATA:;
#STEPSTYPE:dance-single;
#DESCRIPTION:forcednature;
#DIFFICULTY:Hard;
#METER:13;
#RADARVALUES:0,0,0,0,0;
#CREDIT:forcednature;
#NOTES:
0000
0000
0000
0000
,
0000
0000
0000
0000
,
0000
0000
0000
0000
,
0000
0000
0000
0000
,
0001
0000
0000
1000
0000
0000
0001
0000
2002
0000
0000
0000
3003
0000
0000
0000
,
1000
0100
0000
0000
0100
1000
0000
0000
0001
0100
0000
0000
0100
0001
0000
0000
,
1000
0010
0100
0001
1000
0000
0001
0010
,
0100
1000
0000
0000
1000
0100
0000
0000
0010
0001
0000
0000
0001
0010
0000
0000
,
0100
1000
0010
0100
0001
0000
0010
0010
,
0001
1000
0000
0000
1000
0001
0000
0000
0010
0100
0000
0000
0100
0010
0000
0000
,
0001
0100
0010
1000
0001
0000
1000
0001
,
0010
0100
0000
0000
0100
0010
0000
0000
0001
1000
0000
0000
1000
0001
0000
0000
,
0100
0000
0000
0010
0000
0000
0100
0000
0110
0000
0000
0000
1001
0000
0000
0000
,
1000
0100
1000
0000
1000
0001
1000
0000
,
1000
0010
1000
0000
1000
0001
0010
0010
,
0001
0100
0001
0000
0001
1000
0001
0000
,
0001
0010
0001
0000
0001
1000
0010
0000
,
1001
0000
0001
0010
0100
0000
0010
0100
,
1000
0000
0010
1000
0001
0100
0001
1000
,
0010
0000
0100
0001
1000
0100
1000
0001
,
0010
0100
1000
0100
0010
0001
2000
0000
,
3010
0000
0010
0100
0001
0000
0001
1000
,
0100
0000
0010
0100
1000
0100
0010
0001
,
1000
0000
0010
0100
0001
1000
0100
1000
,
0001
0000
0100
0000
0010
0000
1000
0000
0100
0000
0000
0010
0002
0000
0000
0000
,
0103
0001
0100
0001
1000
0010
1000
0010
,
0100
0000
0001
0100
2000
0000
3000
0000
,
0100
0001
0100
0001
1000
0100
1000
0100
,
0010
0000
1000
0010
0002
0000
0013
0000
,
2002
0000
0000
3003
0000
0000
0001
0000
0100
0000
0001
0000
1000
0000
0100
0000
,
1000
0001
0100
0010
0100
0000
0001
1000
,
0002
0010
2003
0010
,
3001
1000
0001
1000
0010
0100
0001
1000
,
0020
0030
2002
3003
,
1000
0100
0000
0000
0100
0010
0000
0000
0001
1000
0000
0000
1000
0010
0000
0000
,
0100
0001
1000
0010
0100
0000
0001
1000
,
0100
1000
0000
0000
1000
0010
0000
0000
0100
0001
0000
0000
0001
1000
0000
0000
,
0100
0010
0001
1000
0010
0000
0100
0100
,
0001
1000
0000
0000
1000
0010
0000
0000
0100
0001
0000
0000
0001
1000
0000
0000
,
0100
0010
0001
1000
0010
0000
0100
0001
,
1000
0100
0000
0000
0100
0010
0000
0000
0001
0100
0000
0000
0100
0010
0000
0000
,
1000
0000
0000
0001
0000
0000
1000
0000
1001
0000
0000
0000
0001
0000
0010
0000
,
0100
1000
0000
0000
1000
0001
0000
0000
0100
0010
0000
0000
0010
1000
0000
0000
,
0001
0010
0100
1000
0001
0000
0100
0010
,
1000
0001
0000
0000
0001
0010
0000
0000
0100
1000
0000
0000
1000
0010
0000
0000
,
0100
0001
0010
0100
1000
0000
0010
0010
,
0200
0300
0001
0010
,
2002
0000
3003
0000
0110
0000
1000
0001
,
0020
0130
2001
3010
,
0110
0000
0000
0001
0000
0000
1000
0000
0100
0000
0000
0000
0020
0000
0000
0000
,
0031
1000
0001
1000
0010
0100
0001
0000
,
0010
0100
1000
0000
0010
0100
0001
0000
,
1001
0000
1000
0001
0100
0000
0010
0000
,
1001
0000
0001
1000
0100
0010
0001
0000
,
2002
0003
0200
3300
,
0010
0000
0001
0010
0001
0000
1000
0000
,
2002
3000
0200
0303
,
0220
0000
0330
0000
,
1001
0000
1000
0100
0010
0000
0100
0000
,
1001
0000
0001
0100
0010
0000
0100
0000
,
1001
0000
0000
1000
0000
0000
0010
0000
0100
0000
0001
0000
0100
0000
0001
0000
,
1000
0000
0000
1000
0000
0000
0100
0000
0010
0000
0000
0010
0000
0000
0001
0000
,
0100
0000
0000
0100
0000
0000
0010
0000
1000
0000
0000
0001
1000
0000
0001
0000
,
0020
0000
0030
1001
,
1000
0100
0000
0000
0010
0001
0000
0000
1000
0000
0010
0000
0100
0000
0001
0000
,
0010
0000
0000
0000
0100
0000
1000
0000
0001
0100
0000
0000
0010
1000
0000
0000
,
0001
0010
0000
0000
0100
1000
0000
0000
0010
0000
0100
0000
0001
0000
1000
0000
,
0001
0000
0100
0000
0010
0000
0010
0000
1000
0001
0000
0000
0010
0100
0000
0000
,
1000
0100
0000
0000
0010
0001
0000
0000
1000
0000
0010
0000
0100
0000
0001
0000
,
1000
0000
0000
0000
0100
0000
0010
0000
0001
0100
0000
0000
0010
1000
0000
0000
,
0001
0010
0000
0000
0100
1000
0000
0000
0010
0000
0000
0010
0000
0000
0100
0000
,
0110
0000
0000
0000
0001
0000
1000
0000
0100
0010
0000
0000
0001
0100
0000
0000
,
0010
1000
0000
0000
0001
0010
0000
0000
0100
0000
1000
0000
0001
0000
0100
0000
,
0010
0000
0000
0000
0100
0000
0001
0000
1000
0100
0000
0000
0010
0001
0000
0000
,
0100
0010
0000
0000
1000
0001
0000
0000
0010
0000
0100
0000
1000
0000
0010
0000
,
0100
0000
0001
0000
0010
0000
0010
0000
0001
1000
0000
0000
0010
0100
0000
0000
,
0001
0010
0000
0000
0100
1000
0000
0000
0001
0000
0100
0000
1000
0000
0100
0000
,
0001
0000
0000
0000
0100
0000
0010
0000
1000
0001
0000
0000
0010
0001
0000
0000
,
0100
0010
0000
0000
1000
0100
0000
0000
1001
0000
0000
0001
0000
0000
0010
0000
,
0110
0000
0100
1000
2002
0000
0000
0000
,
0000
0000
0000
0000
,
0000
0000
3003
0000
;

//--------------- dance-single - forcednature ----------------
#NOTEDATA:;
#STEPSTYPE:dance-single;
#DESCRIPTION:forcednature;
#DIFFICULTY:Challenge;
#METER:16;
#RADARVALUES:0,0,0,0,0;
#CREDIT:forcednature;
#NOTES:
0000
0000
0000
0000
,
0000
0000
0000
0000
,
0000
0000
0000
0000
,
0000
0000
0000
0000
,
1001
0000
0000
1100
0000
0000
0011
0000
2002
0000
0000
0000
3003
0000
0000
0000
,
1000
0010
0100
0000
0010
0000
1000
0000
0001
0010
0100
0000
0010
0000
0001
0000
,
0101
1000
1100
0001
1001
0000
0001
1000
,
0001
0010
0100
0000
0010
0000
0001
0000
1000
0010
0100
0000
0010
0000
1000
0000
,
0100
0010
0100
0010
0001
1000
0001
1000
0100
0010
0001
0010
0100
0000
1000
0000
,
0001
0100
0010
0000
0100
0000
0001
0000
1000
0100
0010
0000
0100
0000
1000
0000
,
1010
0001
0011
1000
1001
0000
1000
0010
,
0100
0001
1000
0001
0100
0000
0010
0000
1000
0001
0010
0001
1000
0000
0100
0000
,
0110
0000
0000
1100
0000
0000
0011
0000
1001
0000
0000
0000
1000
0001
1000
0001
,
1000
0010
0100
0010
1000
0100
0010
0100
,
1000
0000
0001
0000
0100
0000
0001
0000
1000
0000
0010
0000
1000
0001
0010
0100
,
1000
0001
0010
0001
0100
0010
0100
0001
,
1001
0000
0000
1000
0100
0000
1000
0000
0010
0100
0010
0000
0100
0001
0100
0010
,
1000
0100
1000
0100
0001
0100
1000
0001
,
0010
0000
0100
0000
0010
0000
0100
0000
1000
0000
0001
0000
0100
0010
0100
0000
,
0001
1000
0001
1000
0010
0001
0010
1000
,
0001
0000
0010
0100
2000
0000
3010
0100
0002
0000
1003
0000
0001
0100
0010
1000
,
0001
0010
0001
0010
1000
0010
0001
1000
,
0100
0000
0010
0000
0100
0000
0010
0000
0001
0000
1000
0000
0010
0100
0010
0000
,
1000
0001
1000
0001
0100
1000
0100
0001
,
1001
0000
0000
1000
0010
0000
1000
0001
0020
0000
0031
1000
0200
0000
0000
0000
,
1300
0001
0001
0010
0100
0010
1000
0010
,
0001
1000
0100
1000
2002
0000
3003
0000
,
0001
1000
1000
0010
0100
0010
0001
0010
,
2000
0000
3200
0000
0320
0000
0032
0000
0203
0000
0300
0000
0010
0100
0010
0100
,
0010
0000
0000
1000
0010
0000
1000
0010
1000
0000
0100
1000
0100
0000
0010
0000
,
0001
0100
0010
0000
1000
0100
0010
0000
0110
0000
0000
0000
0010
0000
0100
0000
,
1001
0001
0020
0130
1001
1000
0020
0130
,
0001
1000
0001
1000
0100
0010
0100
0010
0001
1000
0010
0100
0001
1000
0100
0010
,
0002
1003
2002
3003
,
1000
0010
0100
0010
1000
0000
0001
0000
1000
0100
0010
0100
1000
0000
0001
0000
,
0011
1000
1010
0001
1001
0000
0001
0100
,
0001
0010
0100
0010
0001
0000
1000
0000
0001
0100
0010
0100
0001
0000
1000
0000
,
0100
0010
0001
0010
0100
1000
0001
1000
0100
0010
0001
1000
0010
0000
0100
0000
,
0001
1000
0001
0010
0100
0000
0010
0000
0001
1000
0001
0100
0010
0000
1000
0000
,
1100
0001
0101
1000
1001
0000
0001
1000
,
0010
0100
0001
0100
0010
0000
1000
0000
0001
0010
0100
0010
0001
0000
1000
0000
,
1001
0000
0000
1100
0000
0000
0011
0000
1001
0000
0000
0000
0001
1000
0001
1000
,
0010
0100
0010
1000
0010
0000
0100
0000
0001
1000
0001
0100
0001
0000
0010
0000
,
0011
1000
1010
0001
1001
0000
0001
0100
,
0001
1000
0010
1000
0001
0000
0010
0000
0100
1000
0001
1000
0100
0000
0010
0000
,
0001
1000
0010
1000
0001
0100
0010
1000
0001
1000
0100
0010
0001
0000
0100
0000
,
0220
0000
0330
1000
0000
1000
0000
0100
,
0220
0000
0330
0000
1001
0000
1000
0001
,
0102
0013
2100
3010
,
1001
0000
0000
0101
0000
0000
1010
0000
1001
0000
0000
0000
0001
1000
0001
1000
,
0001
0000
0000
0010
0100
0000
0010
0000
0001
0000
0000
0100
0010
0000
0100
0000
,
0001
0000
0000
1000
0001
0000
0010
0000
0100
0000
1000
0000
0010
0100
0001
1000
,
0020
0000
0030
0100
0001
0000
1000
0000
0100
0000
0000
0010
0001
0000
1000
0000
,
0010
0100
0010
0000
0100
0000
0010
0000
1000
0001
1000
0001
0100
0010
1000
0001
,
0020
0230
2300
3002
,
0013
0100
1000
0001
0100
0000
0001
1000
,
0020
0230
0302
2003
,
3200
0000
0300
0000
,
1002
0000
1003
0100
0000
1000
0000
0010
,
2001
3001
0200
0310
,
1001
0000
0000
1100
0000
0000
0100
0000
1001
0000
0001
0000
0100
0000
0010
0000
,
1000
0100
0010
0100
0000
0010
0001
0000
0010
0100
1000
0100
0000
0010
0001
0000
,
0100
0010
1000
0010
0000
0100
0010
0000
0100
0001
0100
0010
1000
0010
0100
0001
,
0020
0000
0000
0000
0030
0000
1001
0001
,
0010
0100
1000
0100
0010
0000
0001
0000
1000
0010
0100
0000
0001
0010
0100
0000
,
1001
0000
0000
0000
0002
0000
0203
0000
0310
1000
0001
1000
0010
0000
0100
0000
,
0001
1000
0100
1000
0001
0000
0010
0000
0001
0100
0001
1000
0100
1000
0001
0100
,
0010
1000
0001
0010
0200
0000
2300
0000
3010
0100
0001
0100
0010
0000
1000
0000
,
0001
0010
0100
0010
0001
0000
1000
0000
0010
0100
0001
0000
0010
0100
1000
0000
,
1001
0000
0000
0000
0002
0000
0203
0000
0310
1000
0001
1000
0010
0000
0100
0000
,
0001
1000
0100
1000
0001
0000
0010
0000
1001
0000
0000
1100
0000
0000
0011
0000
,
1001
0000
0000
0000
1000
0001
1000
0001
0010
0100
1000
0100
0010
0000
0001
0000
,
0100
0010
1000
0010
0100
0000
0001
0000
0010
0001
0100
0000
0010
1000
0100
0000
,
1001
0000
0000
0000
0002
0000
0023
0000
0130
1000
0001
1000
0100
0000
0010
0000
,
0001
1000
0010
1000
0001
0000
0100
0000
0001
0010
0100
1000
0001
0100
0010
1000
,
0100
0010
0001
1000
0020
0000
0230
0000
0301
1000
0010
1000
0001
0000
0100
0000
,
0001
1000
0100
1000
0001
0000
0010
0000
0100
1000
0010
0000
0100
0001
0010
0000
,
1001
0000
0000
0000
0002
0000
0023
0000
0130
1000
0010
0100
0001
0000
1000
0000
,
0010
0100
0001
1000
0100
0000
0010
0000
1001
0000
0000
1100
0000
0000
0011
0000
,
0001
0100
0010
1000
0001
0010
0100
1000
0020
0000
0000
0000
0000
0000
0000
0000
,
0000
0000
0000
0000
,
0000
0000
0030
0000
;

//--------------- dance-double - forcednature ----------------
#NOTEDATA:;
#STEPSTYPE:dance-double;
#DESCRIPTION:forcednature;
#DIFFICULTY:Easy;
#METER:4;
#RADARVALUES:0,0,0,0,0;
#CREDIT:forcednature;
#NOTES:
00000000
00000000
00000000
00000000
,
00000000
00000000
00000000
00000000
,
00000000
00000000
00000000
00000000
,
00000000
00000000
00000000
00000000
,
00011000
00000000
00000000
00000000
,
00010000
00000000
00001000
00000000
,
00010000
00000000
00000000
00000000
,
00000100
00000000
00000100
00000000
,
00001000
00000000
00000000
00000000
,
00000010
00000000
00001000
00000000
,
00000010
00000000
00000000
00000000
,
00000100
00000000
00000100
00000000
,
00000001
00000000
00000000
00000000
,
00001001
00000000
00000000
00000000
,
00001000
00000000
00000000
00000000
,
00000100
00000000
00000000
00000000
,
00010000
00000000
00001000
00000000
,
00011000
00000000
00000000
00000000
,
00000000
00000000
01000000
00000000
,
01000000
00000000
00000000
00000000
,
00010000
00000000
00000000
00000000
,
10010000
00000000
00000000
00000000
,
00000000
00000000
10000000
00000000
,
10000000
00000000
00000000
00000000
,
01000000
00000000
00000000
00000000
,
00100000
00010000
00100000
00000000
,
00010000
00000000
00000000
00000000
,
01000000
00010000
01000000
00000000
,
00010000
00000000
00000000
00000000
,
10010000
00000000
00000000
00000000
,
00010000
00000000
00000000
00000000
,
00100000
00000000
00000000
00000000
,
00001000
00000000
00000000
00000000
,
00011000
00000000
00000000
00000000
,
00001000
00010000
00001000
00010000
,
00000100
00000000
00000000
00000000
,
00001000
00000000
00000000
00000000
,
00000001
00000000
00000000
00000000
,
00001000
00000001
00001000
00000001
,
00000100
00000000
00000000
00000000
,
00000010
00000000
00000000
00000000
,
00001000
00000000
00000000
00000000
,
00000100
00001000
00000100
00001000
,
00000001
00000000
00000000
00000000
,
00000100
00000000
00000000
00000000
,
00000010
00000000
00000000
00000000
,
00011000
00000000
00000000
00000000
,
00011000
00000000
00000000
00000000
,
01000000
00000000
01000000
00000000
,
00010000
00000000
00000000
00000000
,
00200000
00000000
00000000
00000000
,
00000000
00000000
00300000
00000000
,
00002000
00000000
00000000
00003000
,
00020000
00000000
00000000
00030000
,
00000200
00000000
00000000
00000000
,
00000000
00000000
00000300
00000000
,
00002000
00000000
00000000
00000000
,
00000000
00000000
00003000
00000000
,
00000002
00000000
00000003
00000000
,
00000200
00000000
00000300
00000000
,
00001001
00000000
00001000
00000000
,
00000100
00000000
00010000
00000000
,
00011000
00000000
00001000
00000000
,
00022000
00000000
00033000
00011000
,
00000000
00000000
00100000
00000000
,
00000000
00000000
00010000
00000000
,
00010000
00000000
01000000
00000000
,
00000000
00000000
00100000
10000000
,
00100000
10000000
00010000
00000000
,
00000000
00000000
01000000
00000000
,
01000000
00000000
00001000
00000000
,
00000000
00000000
00010000
00001000
,
00010000
00001000
00100000
00000000
,
00000000
00000000
00001000
00000000
,
00010000
00000000
00000100
00000000
,
00000000
00000000
00001000
00000001
,
00001000
00000001
00000100
00000000
,
00000000
00000000
00000010
00000000
,
00000010
00000000
00001000
00000000
,
00000000
00000000
00002002
00000000
,
00000000
00000000
00000000
00000000
,
00000000
00000000
00003003
00000000
;

//--------------- dance-double - forcednature ----------------
#NOTEDATA:;
#STEPSTYPE:dance-double;
#DESCRIPTION:forcednature;
#DIFFICULTY:Medium;
#METER:9;
#RADARVALUES:0,0,0,0,0;
#CREDIT:forcednature;
#NOTES:
00000000
00000000
00000000
00000000
,
00000000
00000000
00000000
00000000
,
00000000
00000000
00000000
00000000
,
00000000
00000000
00000000
00000000
,
00001000
00000000
00000000
00001000
00000000
00000000
00010000
00000000
00002000
00000000
00000000
00000000
00003000
00000000
00000000
00000000
,
00010000
00100000
10000000
00100000
,
01000000
00010000
01000000
00000000
00001000
00000000
00010000
00000000
,
00000100
00001000
00000100
00000001
,
00000200
00000000
00000000
00000000
00000300
00000000
00001000
00000001
,
00001000
00000010
00000001
00000010
,
00001000
00000010
00001000
00000000
00000100
00000000
00010000
00001000
,
00010000
00100000
10000000
00100000
,
01000000
00000000
00000000
01000000
00000000
00000000
00010000
00000000
02000000
00000000
00000000
00000000
03000000
00000000
00000000
00000000
,
00100000
10000000
01000000
10000000
,
00100000
10000000
01000000
00010000
,
00001000
00000010
00000001
00000010
,
00001000
00000010
00000001
00000100
,
00002000
00000000
00000000
00000000
00013000
00000000
00001000
00010000
,
00001000
00100000
00010000
00100000
,
00001000
00010000
00000100
00001000
,
00000100
00000010
00000001
00000100
,
00000020
00000000
00000000
00000000
00001030
00000000
00000010
00000100
,
00000010
00001000
00000100
00010000
,
00001000
01000000
00010000
01000000
,
01100000
00000000
00000000
00000000
00010000
10000000
00010000
00000000
,
10000000
01000000
00010000
00001000
,
00000100
00000001
00000020
00000030
,
00000001
00000100
00001000
00010000
,
01000000
10000000
00100000
00000000
,
20020000
30030000
10000000
01000000
,
00100000
01000000
00100000
00000000
00010000
00000000
01000000
00000000
,
00001000
00001000
00010000
00000100
,
00001000
00001000
00000001
00000100
,
00000010
00000100
00000010
00000000
00000220
00000000
00000330
00000000
,
00000100
00000001
00000100
00001000
,
00000100
00000010
00000100
00000000
00000001
00000000
00001000
00000000
,
00000010
00010000
00001000
00010000
,
00200000
00000000
00300000
00000000
,
10000000
01000000
00010000
01000000
,
00100000
01000000
00100000
00000000
00010000
00000000
01000000
00000000
,
00001000
00010000
00001000
00100000
,
00001000
00000000
00000000
00001000
00000000
00000000
00010000
00000000
00001000
00000000
00000000
00000000
00000000
00000000
00000000
00000000
,
00010000
00000100
00001000
00000100
,
00000010
00000001
00000010
00000000
00000100
00000000
00010000
00000000
,
00001000
00000010
00000001
00000010
,
00000200
00000000
00000000
00000000
00000300
00000000
00010000
00001000
,
00010000
00000000
00001000
00100000
,
00011000
00000000
00000000
00000000
00000100
00000000
00010000
00001000
,
00010000
00000010
00010000
00001000
,
01000000
00000000
00000000
01000000
00000000
00000000
00010000
00000000
02000000
00000000
00000000
00000000
03000000
00000000
00000000
00000000
,
00100000
10000000
01000000
10000000
,
00100000
00000000
00010000
00000000
00001000
00010000
00001000
00000000
,
00010000
00001000
00000010
00000001
,
00000100
00000000
00000001
00000000
00000010
00000001
00000010
00000000
,
00000200
00000000
00000000
00000300
,
00020000
00000000
00000000
00030000
,
00002000
00000000
00000000
00003000
00200000
00000000
00000000
00300000
,
00020000
00000000
00000000
00030000
,
10010000
00000000
10000000
01000000
,
01100000
00000000
00100000
00001000
,
00011000
00000100
00011000
01000000
,
00011000
00000000
00000000
00001000
00010000
00000000
00000000
00010000
,
00001000
00000000
00000000
00001000
00010000
00000000
00011000
00000000
,
00000020
00000000
00000030
00001001
,
00000001
00000000
00000100
00000000
00000010
00000100
00000010
00000000
,
00001000
00000100
00000010
00001000
,
00010000
00001000
00022000
00000000
,
00033000
00000000
00010000
00001000
00010000
00000000
00100000
00000000
,
10000000
00000000
00100000
00000000
01000000
00100000
01000000
00000000
,
00010000
00000000
00100000
00010000
00100000
00000000
00001000
00000000
,
00010000
00000100
00000220
00000000
,
00000330
00000000
00000001
00001000
00000001
00000000
00000100
00000000
,
00000010
00000000
00000100
00000000
00001000
00010000
00001000
00000000
,
00010000
00000000
00100000
01000000
00100000
00000000
01000000
00000000
,
00010000
10000000
20020000
00000000
,
30030000
00000000
10000000
00010000
10000000
00000000
01000000
00000000
,
00100000
00000000
01000000
00000000
00010000
00001000
00010000
00000000
,
00001000
00000000
00000010
00000100
00000010
00000000
00000100
00000000
,
00001000
00000001
00002002
00003003
,
00001000
00000100
00010000
00001000
00020000
00000000
00000000
00000000
,
00000000
00000000
00000000
00000000
,
00000000
00000000
00030000
00000000
;

//--------------- dance-double - forcednature ----------------
#NOTEDATA:;
#STEPSTYPE:dance-double;
#DESCRIPTION:forcednature;
#DIFFICULTY:Hard;
#METER:12;
#RADARVALUES:0,0,0,0,0;
#CREDIT:forcednature;
#NOTES:
00000000
00000000
00000000
00000000
,
00000000
00000000
00000000
00000000
,
00000000
00000000
00000000
00000000
,
00000000
00000000
00000000
00000000
,
00001000
00000000
00000000
00010000
00000000
00000000
00001000
00000000
00022000
00000000
00000000
00000000
00033000
00000000
00000000
00000000
,
00010000
00000000
00000000
00010000
00100000
00000000
00000000
00100000
10000000
00000000
00000000
10000000
01000000
00000000
00000000
00000000
,
00100000
00001000
00010000
00000100
00010000
00000000
00001000
00000010
,
00000001
00000000
00000000
00000001
00000100
00000000
00000000
00000100
00001000
00000000
00000000
00001000
00000100
00000000
00000000
00000000
,
00000001
00001000
00000001
00000010
00001000
00000000
00010000
00010000
,
00001000
00000000
00000000
00001000
00100000
00000000
00000000
00100000
00010000
00000000
00000000
00010000
01000000
00000000
00000000
00000000
,
00100000
10000000
01000000
10000000
00010000
00000000
00100000
00001000
,
00010000
00000000
00000000
00010000
00000100
00000000
00000000
00000100
00001000
00000000
00000000
00001000
00000010
00000000
00000000
00000000
,
00000100
00000000
00000000
00000001
00000000
00000000
00000100
00000000
00000110
00000000
00000000
00000000
00001001
00000000
00000000
00000000
,
00001000
00000100
00010000
00000000
00001000
01000000
00010000
00000000
,
00100000
00001000
00010000
00000000
00000010
00001000
00000002
00000000
,
00000013
00000100
00001000
00000000
00000010
00010000
00001000
00000000
,
00100000
00001000
00010000
00000000
00001000
01000000
00010000
00000000
,
10010000
00000000
10000000
00000000
00100000
00000000
01000000
00100000
,
01000000
00000000
00010000
01000000
00001000
00000000
00010000
00000000
,
00000100
00000000
00001000
00000000
00000100
00000010
00000001
00000000
,
00000100
00000010
00001000
00000010
00001000
00000100
00020000
00000000
,
00031000
00000000
00100000
00000000
00010000
00000000
01000000
00100000
,
10000000
00000000
01000000
00100000
00010000
00000000
01000000
00000000
,
00001000
00000000
00010000
00000000
00000100
00001000
00000100
00000000
,
00000010
00000001
00001000
00000001
00001000
00000100
00020000
00000000
,
00031000
00000010
00001000
00000010
00000001
00000010
00000001
00000010
,
00001000
00010000
00002000
00003000
,
00010000
00100000
00010000
00100000
10000000
00100000
10000000
00100000
,
00010000
00000000
00001000
00010000
00002000
00000000
00003010
00000000
,
00000220
00000000
00000000
00000330
00000000
00000000
00000100
00000000
00000010
00000000
00000001
00000000
00000100
00000000
00000010
00000000
,
00001000
00000100
00000010
00000100
00010000
00000000
00001000
00100000
,
00020000
01000000
20030000
01000000
,
30010000
00100000
00010000
00100000
00001000
00010000
00000010
00001000
,
00000200
00000300
00002002
00003003
,
00000001
00000000
00000000
00000001
00000100
00000000
00000000
00000100
00001000
00000000
00000000
00001000
00010000
00000000
00000000
00000000
,
00100000
01000000
00010000
10000000
00100000
00000000
01000000
00010000
,
10000000
00000000
00000000
10000000
01000000
00000000
00000000
01000000
00010000
00000000
00000000
00010000
00001000
00000000
00000000
00000000
,
00000010
00000100
00001000
00000100
00000001
00000000
00000100
00000100
,
00001000
00000000
00000000
00001000
00000010
00000000
00000000
00000010
00010000
00000000
00000000
00010000
00001000
00000000
00000000
00000000
,
00010000
00100000
01000000
00100000
10000000
00000000
00100000
01000000
,
00010000
00000000
00000000
00010000
00100000
00000000
00000000
00100000
00001000
00000000
00000000
00001000
00010000
00000000
00000000
00000000
,
00000010
00000000
00000000
00001000
00000000
00000000
00000010
00000000
00000110
00000000
00000000
00000000
00000100
00000000
00000001
00000000
,
00001000
00000000
00000000
00001000
00000100
00000000
00000000
00000100
00010000
00000000
00000000
00010000
00001000
00000000
00000000
00000000
,
00100000
00010000
10000000
00100000
00010000
00000000
00100000
10000000
,
01000000
00000000
00000000
01000000
00100000
00000000
00000000
00100000
00001000
00000000
00000000
00001000
00010000
00000000
00000000
00000000
,
00000100
00001000
00000001
00000100
00001000
00000000
00000100
00000100
,
00000002
00000003
00000010
00001000
,
00022000
00000000
00033000
00000000
00100000
00000000
00010000
10000000
,
02000000
03020000
00032000
00003020
,
00000031
00000000
00000000
00000001
00000000
00000000
00000100
00000000
00001000
00000000
00000000
00000000
00011000
00000000
00000000
00000000
,
00010000
00100000
00010000
00000000
00100000
10000000
00100000
00000000
,
10000000
01000000
10000000
00000000
01000000
00000000
00010000
00000000
,
00001000
00000010
00001000
00000000
00000010
00000001
00000010
00000000
,
00001001
00000000
00001000
00000100
00010000
00010000
00001000
00000000
,
00022000
00030000
02000000
03003000
,
01000000
00000000
00100000
10000000
00010000
00000000
00100000
00000000
,
00002000
00000000
00020000
00003000
,
00000200
00000000
00030300
00000000
,
00001001
00000000
00000001
00000100
00001000
00000000
00010000
00000000
,
00011000
00000000
00001000
00010000
00100000
00000000
10000000
00000000
,
01000000
00000000
00000000
10000000
00000000
00000000
01000000
00000000
00100000
00000000
00010000
00000000
00100000
00000000
00001000
00000000
,
00010000
00000000
00000000
00010000
00000000
00000000
00000100
00000000
00001000
00000000
00000000
00001000
00000000
00000000
00000001
00000000
,
00000100
00000000
00000000
00000100
00000000
00000000
00000010
00000000
00001000
00000000
00000000
00000100
00001000
00000000
00000100
00000000
,
00020000
00000000
00030000
00011000
,
00010000
00000000
00100000
00000000
10000000
00010000
01000000
00100000
,
10000000
00000000
00000000
00000000
01000000
00000000
00100000
00000000
00010000
00000000
00000000
00010000
01000000
00000000
00000000
01000000
,
00001000
00000000
00000000
00001000
00010000
00000000
00000000
00000000
00000010
00000000
00000100
00000000
00001000
00000000
00000100
00000000
,
00000001
00000000
00001000
00000000
00000010
00000000
00000010
00000000
00010000
00000000
00000000
00010000
00001000
00000000
00000000
00001000
,
00100000
00000000
00000000
00100000
00010000
00000000
00000000
00000000
01000000
00000000
00100000
00000000
10000000
00000000
00010000
00000000
,
00100000
00000000
00000000
00000000
01000000
00000000
10000000
00000000
01000000
00000000
00000000
01000000
00010000
00000000
00000000
00010000
,
00001000
00000000
00000000
00001000
00000010
00000000
00000000
00000000
00000001
00000000
00000000
00000001
00000000
00000000
00001000
00000000
,
00001001
00000000
00000000
00000000
00000001
00000000
00000100
00000000
00000010
00000000
00000000
00000010
00001000
00000000
00000000
00001000
,
00000100
00000000
00000000
00000100
00000001
00000000
00000000
00000000
00000100
00000000
00001000
00000000
00000100
00000000
00010000
00000000
,
00001000
00000000
00000000
00000000
00100000
00000000
00010000
00000000
01000000
00000000
00000000
01000000
00010000
00000000
00000000
00010000
,
00100000
00000000
00000000
00100000
10000000
00000000
00000000
00000000
00100000
00000000
00010000
00000000
01000000
00000000
00001000
00000000
,
00010000
00000000
00000100
00000000
00001000
00000000
00001000
00000000
00000010
00000000
00000000
00000010
00000100
00000000
00000000
00000100
,
00001000
00000000
00000000
00001000
00010000
00000000
00000000
00000000
00100000
00000000
01000000
00000000
10000000
00000000
01000000
00000000
,
00010000
00000000
00000000
00000000
01000000
00000000
00100000
00000000
10000000
00000000
00000000
10000000
01000000
00000000
00000000
01000000
,
00010000
00000000
00000000
00010000
00001000
00000000
00000000
00000000
00000010
00000000
00000000
00000100
00000000
00000000
00001000
00000000
,
00001100
00000000
00000100
00010000
00022000
00000000
00000000
00000000
,
00000000
00000000
00000000
00000000
,
00000000
00000000
00033000
00000000
;

//--------------- dance-double - forcednature ----------------
#NOTEDATA:;
#STEPSTYPE:dance-double;
#DESCRIPTION:forcednature;
#DIFFICULTY:Challenge;
#METER:16;
#RADARVALUES:0,0,0,0,0;
#CREDIT:forcednature;
#NOTES:
00000000
00000000
00000000
00000000
,
00000000
00000000
00000000
00000000
,
00000000
00000000
00000000
00000000
,
00000000
00000000
00000000
00000000
,
00001000
00000000
00010000
00001000
00000000
00010000
00001000
00000000
00022000
00000000
00000000
00000000
00033000
00000000
00000000
00000000
,
00010000
00001000
00000010
00000000
00000100
00000000
00000010
00000000
00000100
00001000
00000001
00000000
00000100
00000000
00000001
00000000
,
00000010
00000000
00001000
00000000
00010000
00000000
01000000
00000000
10000000
00000000
00000000
10000000
00100000
00000000
01000000
00000000
,
00010000
00100000
01000000
00000000
00100000
00000000
00010000
00000000
10000000
00100000
01000000
00000000
00010000
00000000
00100000
00000000
,
00001000
00010000
00001000
00010000
00000010
00001000
00000010
00001000
00000001
00000100
00000010
00001000
00000001
00000000
00000010
00000000
,
00000100
00001000
00000001
00000000
00000100
00000000
00000010
00000000
00001000
00000100
00010000
00000000
00000100
00000000
00001000
00000000
,
00000001
00000000
00000100
00000000
00001000
00000000
00010000
00000000
01000000
00000000
00000000
01000000
00100000
00000000
00010000
00000000
,
01000000
00010000
10000000
00010000
01000000
00000000
00100000
00000000
10000000
00010000
00100000
00010000
00100000
00000000
00001000
00000000
,
00010000
00000000
00001000
00010000
00000000
00001000
00010000
00000000
00001000
00000000
00000010
00000000
00000001
00001000
00000001
00001000
,
00000001
00000100
00000010
00000100
00001000
00010000
00001000
00000100
,
00000010
00000000
00010000
00000000
00001000
00000000
01000000
00000000
00010000
00000000
10000000
00000000
00100000
01000000
00010000
10000000
,
01000000
00100000
01000000
00010000
00001000
00100000
00001000
00010000
,
00000100
00000000
00000000
00000100
00001000
00000000
00000010
00000000
00000100
00000010
00000100
00000000
00000001
00000100
00000010
00001000
,
00000001
00000100
00000001
00000100
00001000
00000100
00000001
00000100
,
00001000
00000000
00010000
00000000
00001000
00000000
00010000
00000000
00100000
00000000
10000000
00000000
00100000
01000000
00100000
00000000
,
10000000
01000000
10000000
01000000
00010000
01000000
10000000
01000000
,
00010000
00000000
00001000
00010000
00001000
00000000
00010000
00000100
00001000
00000000
00000010
00000000
00000100
00000010
00001000
00000001
,
00000100
00000001
00000100
00000001
00000100
00001000
00010000
00001000
,
00010000
00000000
00100000
00000000
10000000
00000000
00100000
00000000
01000000
00000000
00010000
00000000
00100000
01000000
00100000
00000000
,
01000000
10000000
01000000
00100000
01000000
00010000
00001000
00010000
,
00000010
00000000
00000000
00000010
00001000
00000000
00000001
00000010
00000100
00000000
00001000
00000010
00000200
00000000
00000000
00000000
,
00000301
00000010
00000100
00001000
00010000
00100000
01000000
10000000
,
00100000
01000000
00001000
00010000
00200000
00000000
00300000
00000000
,
10000000
00100000
01000000
00010000
00001000
00000010
00000100
00000001
,
00000010
00000000
00000100
00000000
00010000
00000000
00001000
00000000
00000010
00000000
00000000
00000010
00000001
00000000
00000100
00000010
,
00001000
00000000
00000000
00000100
00001000
00000000
00000100
00000000
00010000
00001000
00010000
00000000
00001000
00100000
00010000
00000000
,
01000000
00100000
10000000
00000000
01000000
00100000
00010000
00000000
01000000
00000000
00000000
00001000
00010000
00000000
00001000
00000000
,
00000010
00000010
00001000
00010000
00100000
00100000
00010000
00001000
,
00010000
00001000
00010000
00001000
01000000
00010000
01000000
00010000
10000000
00100000
01000000
00010000
01000000
00001000
00010000
00001000
,
00100000
01000000
20020000
30030000
,
10000000
00100000
01000000
00000000
00010000
00000000
00100000
00000000
01000000
00100000
00010000
00000000
01000000
00000000
00001000
00000000
,
00010000
00000000
00100000
00000000
00001000
00000000
00000010
00000000
00000100
00000000
00000000
00000100
00000001
00000000
00000010
00000000
,
00000100
00001000
00000001
00000000
00000100
00000000
00000010
00000000
00001000
00000100
00010000
00000000
00001000
00000000
00100000
00000000
,
00010000
01000000
00010000
01000000
00001000
00010000
00001000
00010000
00000010
00001000
00000001
00000100
00000010
00000000
00001000
00000000
,
00000100
00000010
00000001
00000000
00000100
00000000
00000010
00000000
00001000
00000100
00010000
00000000
00001000
00000000
00100000
00000000
,
00010000
00000000
01000000
00000000
00001000
00000000
00000100
00000000
00010000
00000000
00000000
00010000
01000000
00000000
00100000
00000000
,
10000000
00010000
10000000
00010000
01000000
00000000
00001000
00000000
00010000
00001000
00010000
00000100
00001000
00000000
00000010
00000000
,
00010000
00000000
00001000
00010000
00000000
00001000
00010000
00000000
00011000
00000000
00000000
00000000
00001000
00000000
00000010
00000000
,
00000001
00000010
00000100
00000010
00000001
00000000
00001000
00000000
00000010
00001000
00000010
00010000
00001000
00000000
00100000
00000000
,
01000000
00000000
00010000
00000000
00001000
00000000
00000010
00000000
00000001
00000000
00000000
00000001
00000100
00000000
00000010
00000000
,
00001000
00000100
00010000
00001000
00010000
00000000
00100000
00000000
01000000
00100000
01000000
00010000
10000000
00000000
01000000
00000000
,
00100000
00010000
00100000
00001000
00010000
00001000
00010000
00000100
00001000
00000001
00000100
00000010
00001000
00000000
00000001
00000000
,
00000010
00001000
00000000
00001000
00000000
00010000
00001000
00010000
,
01000000
00000000
00010000
00000000
00000000
00000000
00010000
00000000
00001000
00000000
00000000
00001000
00100000
00000000
00010000
00000000
,
01000000
00010000
00100000
00001000
00010000
00000010
00001000
00000100
,
00010000
00000000
00001000
00010000
00000000
00001000
00010000
00000000
00011000
00000000
00000000
00000000
00001000
00010000
00001000
00010000
,
00001000
00000000
00000000
00100000
00010000
00000000
00100000
00000000
00001000
00000000
00000000
01000000
00010000
00000000
01000000
00000000
,
00001000
00000000
00000000
00010000
00000010
00000000
00010000
00000000
00001000
00000000
00000010
00000000
00000100
00000010
00000001
00001000
,
00000100
00000000
00000000
00010000
00001000
00000000
00010000
00000000
00000010
00000000
00000000
00010000
00001000
00000000
00010000
00000000
,
00100000
00000000
00100000
00000000
01000000
00000000
00100000
00000000
10000000
00010000
10000000
00010000
01000000
00100000
10000000
00010000
,
00200000
02300000
23000000
32000000
,
03010000
00001000
00010000
00000100
00001000
00000000
00000001
00000100
,
00000002
00000023
00002030
00003020
,
00000230
00000000
00000000
00000000
00000300
00000000
00001000
00000001
,
00000100
00001000
00000000
00001000
00000000
00001000
00010000
00000000
,
00100000
10000000
00000000
10000000
01000000
00000000
10000000
00010000
,
00100000
00000000
00010000
00100000
00000000
00001000
00010000
00000000
00000010
00000000
00001000
00000010
00000100
00000000
00000001
00000000
,
00000010
00000100
00000010
00000100
00000000
00001000
00000100
00000000
00010000
00001000
00010000
00001000
00000000
00100000
00010000
00000000
,
01000000
00100000
01000000
00100000
00000000
01000000
00010000
00000000
10000000
01000000
10000000
00010000
01000000
00001000
00010000
00001000
,
00200000
00000000
00000000
00000000
00300000
00000000
00000001
00000100
,
00000010
00001000
00000001
00001000
00000010
00000000
00010000
00000000
00001000
00100000
00010000
00000000
00100000
01000000
10000000
00000000
,
00100000
00000000
00000000
00100000
01000000
00000000
00010000
00000000
00100000
00001000
00010000
00001000
00100000
00000000
00001000
00000000
,
00010000
00000100
00001000
00000100
00010000
00000000
00001000
00000000
00010000
00000010
00010000
00000100
00001000
00000100
00010000
00001000
,
01000000
00010000
01000000
00100000
10000000
00000000
01000000
00000000
00100000
00010000
00100000
00001000
00010000
00000000
00000010
00000000
,
00001000
00000001
00000100
00000001
00001000
00000000
00000100
00000000
00010000
00001000
00100000
00000000
00001000
00010000
00000010
00000000
,
00000100
00000000
00000000
00000100
00000001
00000000
00000010
00000000
00000100
00001000
00000100
00010000
00001000
00000000
00100000
00000000
,
00010000
01000000
00010000
10000000
00100000
00000000
01000000
00000000
00001000
00000000
00010000
00001000
00000000
00010000
00001000
00000000
,
00011000
00000000
00000000
00000000
00001000
00010000
00001000
00010000
00000010
00001000
00000010
00010000
00001000
00000000
00010000
00000000
,
00000100
00001000
00000100
00010000
00001000
00000000
00010000
00000000
00100000
01000000
00010000
00000000
00100000
01000000
10000000
00000000
,
00010000
00000000
00000000
00010000
01000000
00000000
00001000
00000000
00010000
00000100
00001000
00000100
00010000
00000000
00000010
00000000
,
00001000
00000001
00000100
00000001
00001000
00000000
00000100
00000000
00010000
00001000
00010000
00001000
00100000
00010000
00100000
01000000
,
10000000
00010000
10000000
00100000
01000000
00000000
00010000
00000000
00100000
00001000
00010000
00000100
00010000
00000000
00001000
00000000
,
00010000
00000010
00001000
00000010
00000100
00000000
00000001
00000000
00000010
00000100
00001000
00000000
00000010
00010000
00001000
00000000
,
00100000
00000000
00000000
00100000
00010000
00000000
01000000
00000000
00100000
10000000
00100000
01000000
00010000
00000000
00100000
00000000
,
00001000
00010000
00000100
00001000
00000100
00000000
00000010
00000000
00001000
00000000
00010000
00001000
00000000
00010000
00001000
00000000
,
00010000
00000100
00001000
00000100
00010000
00001000
01000000
00010000
00200000
00000000
00000000
00000000
00000000
00000000
00000000
00000000
,
00000000
00000000
00000000
00000000
,
00000000
00000000
00300000
00000000
;
