#VERSION:0.83;
#TITLE:異心前進♪ぴょんぴょんぴょん;
#SUBTITLE:;
#ARTIST:天土;
#TITLETRANSLIT:Ishin zenshin pyon pyon pyon;
#SUBTITLETRANSLIT:;
#ARTISTTRANSLIT:Ameto;
#GENRE:EUROBEAT;
#CREDIT:;
#MUSIC:Ishin zenshin pyon pyon pyon.ogg;
#BANNER:Ishin zenshin pyon pyon pyon.png;
#BACKGROUND:Ishin zenshin pyon pyon pyon-bg.png;
#CDTITLE:./CDTitles/bm IIDX 30 RESIDENT.png;
#SAMPLESTART:73.651;
#SAMPLELENGTH:15.000;
#SELECTABLE:YES;
#OFFSET:-0.261;
#BPMS:0.000=170.000;
#STOPS:;
#TIMESIGNATURES:0.000=4=4;
#BGCHANGES:0.000=../BGAs/19po.mp4=1.000=0=0=0=StretchNoLoop====,
99999.000=-nosongbg-=1.000=0=0=0=StretchNoLoop====
;
#FGCHANGES:;

//--------------- dance-single - BlindedVanguard vs. forcednature ----------------
#NOTEDATA:;
#STEPSTYPE:dance-single;
#DESCRIPTION:BlindedVanguard vs. forcednature;
#DIFFICULTY:Beginner;
#METER:3;
#RADARVALUES:0.234586,0.271516,0,0,0,202,202,0,0,0,0,0,0,0,0.234586,0.271516,0,0,0,202,202,0,0,0,0,0,0,0;
#CHARTNAME:;
#CHARTSTYLE:;
#CREDIT:BlindedVanguard vs. forcednature;
#NOTES:
0000
0000
0000
0000
,
0000
0000
0000
0000
,
0000
0000
0000
0000
,
0000
0000
0000
0000
,
0000
0000
0000
0000
,
0001
0001
0001
0000
,
1000
1000
1000
0000
,
0010
0000
0100
0000
,
0001
0000
1000
1000
,
1000
1000
1000
0000
,
0010
0010
0010
0000
,
0100
0100
0100
0000
,
0001
0000
0010
0000
,
0100
0000
1000
0000
,
0001
0001
0001
0000
,
1000
1000
1000
0000
,
0010
0000
0100
0000
,
0001
0000
1000
0000
,
0100
0000
0010
0010
,
0010
0000
0100
0000
,
1000
0000
0010
0010
,
0010
0000
0100
0000
,
0001
0000
1000
1000
,
1000
0000
0100
0000
,
0010
0000
0001
0000
,
1000
0000
0000
0000
,
0010
0010
0010
0010
,
0010
0000
0100
0000
,
0001
0000
1000
1000
,
1000
0000
0100
0000
,
0010
0000
0001
0001
,
0001
0000
0100
0000
,
0010
0000
1000
0000
,
0100
0000
0000
0000
,
0010
0010
0010
0010
,
0010
0000
0001
0001
,
0001
0000
0100
0000
,
0010
0000
1000
0000
,
0001
0001
0001
0000
,
0010
0000
0100
0000
,
1000
0000
0001
0000
,
0100
0100
0100
0000
,
0010
0010
0010
0000
,
1000
1000
1000
1000
,
1000
0000
0010
0000
,
0100
0100
0100
0000
,
0001
0000
1000
0000
,
0100
0100
0100
0100
,
0100
0000
0010
0000
,
0001
0001
0001
0000
,
1000
0000
0010
0000
,
0100
0100
0100
0100
,
0100
0000
0010
0010
,
0000
1000
1000
1000
,
0000
0001
0000
0010
,
0010
0000
0100
0000
,
1000
0000
0001
0001
,
0000
0100
0100
0100
,
0000
0010
0000
1000
,
1000
0000
0001
0001
,
0001
0000
0000
0000
,
0010
0000
0000
0000
,
0100
0000
1000
0000
,
0001
0000
0100
0000
,
0010
0000
1000
0000
,
0001
0001
0001
0001
,
0001
0000
0010
0010
,
0010
0000
0100
0000
,
1000
0000
0001
0000
,
0100
0100
0100
0000
,
0010
0010
0010
0000
,
1000
1000
1000
0000
,
0001
0000
0010
0000
,
0100
0100
0100
0000
,
0010
0010
0010
0000
,
0001
0001
0001
0000
,
0100
0100
0100
0000
,
0010
0000
1000
0000
,
0001
0000
0010
0000
,
0100
0100
0100
0000
,
1000
1000
1000
0000
,
0001
0000
0100
0000
,
0010
0010
0010
0010
,
0000
0100
0100
0000
;

//--------------- dance-single - BlindedVanguard vs. forcednature ----------------
#NOTEDATA:;
#STEPSTYPE:dance-single;
#DESCRIPTION:BlindedVanguard vs. forcednature;
#DIFFICULTY:Easy;
#METER:7;
#RADARVALUES:0.360008,0.407884,0.178843,0.178843,0,310,288,22,22,0,0,0,0,0,0.360008,0.407884,0.178843,0.178843,0,310,288,22,22,0,0,0,0,0;
#CHARTNAME:;
#CHARTSTYLE:;
#CREDIT:BlindedVanguard vs. forcednature;
#NOTES:
0000
0000
0000
0000
,
0000
0000
0000
0000
,
0000
0000
0000
0000
,
0000
0000
0000
0000
,
0000
0000
0000
0000
,
0001
1000
2002
3003
,
1000
0001
2002
3003
,
0001
0001
0010
0010
,
0100
0100
1000
1000
,
0010
0100
2002
3003
,
0001
0010
0100
0010
,
0001
0100
0010
0100
,
0001
0010
0100
1000
,
0001
0100
0010
1001
,
1000
0100
0010
0100
,
1000
0010
0100
0010
,
1000
0100
0010
1000
,
0010
0001
0100
0010
,
1000
0000
0000
0001
0000
0010
0000
0200
,
0000
0310
0001
0100
,
0010
1000
1001
1001
,
0001
0010
0100
1000
,
0001
0100
1000
0100
,
0020
0030
0200
0300
,
0002
0003
2000
3000
,
0100
0010
0001
0100
,
0010
1000
0001
1001
,
1000
0010
1000
0100
,
0010
0001
1001
1001
,
1000
0010
0100
0001
,
1000
0100
0001
0100
,
0020
0030
0200
0300
,
2000
3000
0002
0003
,
0100
0010
1000
0100
,
0010
0001
1000
1001
,
0001
0100
0010
1000
,
0100
0100
0010
0010
,
0100
1000
0001
0000
,
0100
0010
1000
0001
,
1000
0100
0010
0001
,
1000
0010
0100
0001
,
1000
0100
0010
0000
,
0001
0100
1000
0000
,
0100
0010
1000
1001
,
1000
0100
0010
0001
,
0010
0100
1000
0000
,
0001
0100
0010
1000
,
0001
0010
0100
1001
,
1000
0100
0010
0001
,
0010
0100
1000
0000
,
0001
0100
0010
1000
,
0001
0010
0100
1001
,
1000
0010
0100
0001
,
0000
0101
0101
0101
,
0000
0001
0000
1000
,
0100
0010
0100
0001
,
0100
0010
0001
1000
,
0000
1010
1010
1010
,
0000
1000
0000
0001
,
1000
0100
0001
0100
,
0020
0030
0200
0300
,
1000
0010
0100
0001
,
2000
3000
0002
0003
,
0010
0100
1000
0001
,
0100
0010
1000
0001
,
0010
0000
0000
0100
0000
1000
1000
0000
,
0002
0103
0001
0010
,
0200
1000
1300
0100
,
1000
0010
0100
0001
,
0010
0010
0100
1001
,
1000
0100
0001
0100
,
1000
0010
0001
0010
,
1000
0010
0100
0001
,
1000
0100
0010
0001
,
0100
0010
0100
1001
,
1000
0010
0100
0010
,
1000
0100
0010
0100
,
1000
0010
0100
0001
,
1000
0100
0010
1001
,
0001
0100
0010
0100
,
0001
0010
0100
0010
,
0001
0100
0010
0001
,
0010
1000
0100
0010
,
0001
0000
1000
2000
0000
3000
0000
0000
;

//--------------- dance-single - BlindedVanguard vs. forcednature ----------------
#NOTEDATA:;
#STEPSTYPE:dance-single;
#DESCRIPTION:BlindedVanguard vs. forcednature;
#DIFFICULTY:Medium;
#METER:11;
#RADARVALUES:0.514464,0.509855,0.203231,0.235747,0.101615,443,418,25,29,0,0,0,0,0,0.514464,0.509855,0.203231,0.235747,0.101615,443,418,25,29,0,0,0,0,0;
#CHARTNAME:;
#CHARTSTYLE:;
#CREDIT:BlindedVanguard vs. forcednature;
#NOTES:
0000
0000
0000
0000
,
0000
0000
0000
0000
,
0000
0000
0000
0000
,
0000
0000
0000
0000
,
0000
0000
0000
0000
,
0001
0000
0000
0001
0000
0000
0010
0000
0100
0000
0000
0000
1001
0000
0000
0000
,
1000
0000
0000
1000
0000
0000
0010
0000
0100
0000
0000
0000
1001
0000
0000
0000
,
0001
0010
0001
0000
1000
0010
1000
0000
,
0001
0100
0000
0010
0000
1000
0100
0010
,
0001
1000
2002
3003
,
0001
0000
0100
0000
0010
0000
0000
0000
0100
0000
0000
0001
0000
0000
1000
0000
,
0100
0000
0010
0000
0001
0000
0000
0000
1000
0000
0000
0010
0000
0000
0100
0000
,
0000
0001
1000
0000
0001
0010
0000
0100
,
0000
0000
1000
0000
0001
0000
0000
0000
1000
0000
0000
0010
0000
0000
0100
0000
,
0001
0000
0010
0000
0100
0000
0000
0000
0010
0000
0000
0001
0000
0000
1000
0000
,
0010
0000
0100
0000
0001
0000
0000
0000
1000
0000
0000
0100
0000
0000
0010
0000
,
0001
0000
0000
1000
0000
0010
0000
0100
0000
0000
0010
0000
0001
0000
0000
0000
,
0010
0000
0000
1000
0000
0000
0100
0000
0010
0000
0000
0001
0000
0000
0100
0000
,
0010
1000
0001
0010
0000
0100
0000
2001
,
0000
3001
0100
0010
1000
0000
0010
0100
,
0001
1000
0000
1100
0000
0011
0000
0001
,
0000
1000
0001
0010
0100
0000
1000
0010
,
0100
0000
1000
0100
0000
0010
0000
2000
,
0000
0010
3002
0010
,
2003
0100
3002
0100
,
2003
0000
0010
0000
3100
0000
1000
0100
,
0000
0001
0000
0100
0000
0010
0001
2000
,
0000
3001
0100
0010
0100
0000
0001
0010
,
0100
1000
0000
1100
0000
0011
0000
0002
,
0000
1003
0010
0100
0001
0000
0100
0010
,
1000
0000
0100
0001
0000
0100
0000
0020
,
0000
0001
0230
1300
,
0020
1000
0230
0301
,
0010
0000
0100
0000
1000
0000
0010
0100
,
0000
0001
0000
1000
0000
1001
0000
0000
,
0001
0000
0010
0100
0000
1000
0100
0010
,
0001
0101
1000
1100
,
0001
0000
0100
0010
0000
0100
0001
0000
,
1000
0100
0001
0100
,
1000
0000
0010
0000
0100
0000
0000
0000
0001
0000
0000
1000
0000
0000
0001
0000
,
0010
0100
1000
0000
0010
0100
0001
0000
,
1000
0000
0100
0100
0010
0000
0001
0100
,
0000
0010
1000
0000
1001
0000
1000
0100
,
0000
0001
0100
1000
0000
0001
1001
0000
,
0001
1000
0100
1000
0000
0010
0100
0000
,
0001
0010
1000
0000
0020
0000
0031
0000
,
1000
0010
0000
0100
0000
0001
0000
1000
,
0100
0010
0001
1000
0000
0010
0100
0000
,
0001
1000
0010
1000
0000
0100
0010
0000
,
0001
0000
0100
1000
0200
0000
0301
0000
,
1000
0100
0000
0010
0000
0001
0000
1000
,
0010
0100
0001
1000
0000
0100
0010
0000
,
0001
0100
1000
0100
0001
0000
1000
0100
,
0010
0011
1100
0011
,
0000
0010
0001
1000
0000
0010
1000
0001
,
0010
0100
0010
0100
0000
0002
0000
0003
,
0100
1000
0010
0100
0001
0000
0010
0100
,
1000
1010
0101
1010
,
0000
0010
1000
0100
0000
0010
0001
0100
,
0010
1000
0001
0100
0000
0001
0010
0100
,
2000
0010
3002
0010
,
2003
0000
3010
1000
0000
0001
0100
0000
,
0002
0010
2003
0010
,
3001
0010
0100
0000
1000
0010
0100
0000
,
0001
1000
0100
0010
0001
1000
0010
0100
,
0001
0001
0000
0010
0000
0100
0100
0000
,
2100
0000
0000
0000
3001
0000
0000
0000
1000
0000
0000
0010
0000
0000
0100
0000
,
0002
1000
0100
0013
,
0001
0011
1000
1100
,
1000
0000
0000
0010
0000
0000
0100
0000
0000
0000
2000
0000
0000
0000
3000
0000
,
0100
0010
1000
0100
0010
0001
1000
0000
,
0001
0100
1000
0100
0020
0000
0130
0000
,
0001
0010
0100
1000
0001
1000
0100
0010
,
0000
0001
1000
0000
0100
0000
1000
0010
,
0000
1010
0000
0101
0000
2002
0000
3003
,
1000
0000
0100
0000
0010
0000
0000
0000
0100
0000
0000
1000
0000
0000
0010
0000
,
0001
0000
0010
0000
1000
0000
0000
0000
0001
0000
0000
0010
0000
0000
0100
0000
,
0000
1000
0001
0000
1000
0010
0000
0100
,
0000
0000
0001
0000
1000
0000
0000
0000
0001
0000
0000
0010
0000
0000
0100
0000
,
1000
0000
0010
0000
0100
0000
0000
0000
0010
0000
0000
1000
0000
0000
0100
0000
,
0001
0000
0100
0000
1000
0000
0000
0000
0001
0000
0000
0100
0000
0000
0010
0000
,
1000
0000
0000
0001
0000
0010
0000
0100
0000
0000
0010
0000
1000
0000
0000
0000
,
0010
0000
0000
0001
0000
0000
0100
0000
0010
0000
0000
1000
0000
0000
0100
0000
,
0010
0001
1000
0020
0000
0030
0000
0000
;

//--------------- dance-single - BlindedVanguard vs. forcednature ----------------
#NOTEDATA:;
#STEPSTYPE:dance-single;
#DESCRIPTION:BlindedVanguard vs. forcednature;
#DIFFICULTY:Hard;
#METER:13;
#RADARVALUES:0.577175,0.611826,0.21136,0.341427,0.166649,497,471,26,42,0,0,0,0,0,0.577175,0.611826,0.21136,0.341427,0.166649,497,471,26,42,0,0,0,0,0;
#CHARTNAME:;
#CHARTSTYLE:;
#CREDIT:BlindedVanguard vs. forcednature;
#NOTES:
0000
0000
0000
0000
,
0000
0000
0000
0000
,
0000
0000
0000
0000
,
0000
0000
0000
0000
,
0000
0000
0000
0000
,
0001
0000
0000
0001
0010
0000
0100
0000
2000
0000
0001
0000
3001
0000
0000
0000
,
1000
0000
0000
1000
0010
0000
0100
0000
0001
0000
0000
0000
1001
0000
0000
0000
,
0001
0001
0001
0000
1000
1000
1000
0000
,
0010
0010
0000
0100
0000
0001
0010
0100
,
1000
0110
2002
3003
,
0001
0000
0100
0000
0010
0000
0100
0000
0001
0000
0000
0010
0000
0000
0100
0000
,
0001
0000
0100
0000
0010
0000
0001
0000
1000
0000
0000
0010
0000
0000
0100
0000
,
0000
0000
0010
0000
1000
0000
0000
0100
1000
0000
0001
0000
0010
0000
0001
0000
,
0000
0000
0100
0000
0010
0100
0000
0000
0001
0000
0000
1000
0000
0000
0010
0000
,
1000
0000
0100
0000
0010
0000
0100
0000
1000
0000
0000
0010
0000
0000
0100
0000
,
1000
0000
0100
0000
0010
0000
1000
0000
0001
0000
0000
0010
0000
0000
0100
0000
,
1000
0000
0000
0001
0000
0100
0000
0010
0000
0000
0100
0000
1000
0000
0000
0000
,
0100
0000
0000
0010
0000
0000
1000
0000
0100
0000
0000
0010
0000
0000
0001
0000
,
1000
0010
0100
0001
0000
1000
0000
2001
,
0000
3100
1000
0100
0010
0000
0001
0100
,
0010
0100
0000
0101
0000
1010
0000
0001
,
0000
0010
0100
1000
0100
0000
1000
0001
,
0100
0000
1000
0100
0000
0010
0000
2000
,
0000
0010
3002
0010
,
2003
0100
3002
0100
,
2003
0000
0010
0000
0001
0000
3100
1000
,
0000
1100
0000
0011
0000
0001
1000
1002
,
0000
0103
0001
0100
0010
0000
1000
0100
,
0010
0100
0000
1100
0000
0011
0000
2000
,
0000
3010
0100
0001
0100
0000
0001
1000
,
0100
0000
0010
1000
0000
0010
0000
0002
,
0000
0010
2003
0010
,
3002
0100
2003
0100
,
3002
0000
0010
0000
1000
0000
0103
0001
,
0000
0101
0000
1010
0000
1001
0000
0000
,
0002
0000
0013
0100
0000
0010
0001
1000
,
0100
0010
0001
1000
1000
0010
0100
0001
,
1000
0000
0100
0002
0000
0100
0103
0000
,
0020
0032
2003
3200
,
1300
0000
0010
0000
0100
0000
0010
0000
0001
0000
0000
0010
0000
0000
0100
0000
,
0001
0010
0100
0010
1000
0010
0100
0010
,
0002
0000
0013
0010
0200
0000
2300
0100
,
0000
3002
0100
0000
0013
0000
0001
1000
,
0000
0010
0100
0001
0000
1000
1001
0000
,
0001
0010
0100
2000
0000
0100
0000
3010
,
1000
0010
0100
0002
0000
1000
1003
0000
,
0001
0010
0100
1000
0000
0100
0000
1000
,
0001
0100
0010
0001
0000
0010
2000
0000
,
3001
0010
0100
2000
0000
0100
0000
3010
,
1000
0010
0100
0002
0000
1000
1003
0000
,
0001
0010
0100
1000
0000
0100
0000
1000
,
0001
0100
0010
0001
0000
0010
0100
0000
,
0001
0010
0100
1000
0001
0000
1000
0001
,
0100
1010
0101
1010
,
0000
0010
1000
0100
0000
0010
0001
0100
,
0001
0010
0100
0010
0000
2000
0000
3010
,
0001
0100
0010
1000
0001
0000
1000
0001
,
0010
1100
0011
1100
,
0000
0100
1000
0010
0000
0100
0001
0010
,
0001
0100
0010
0100
0000
0010
0001
0010
,
1000
1100
0001
0101
,
1000
0000
0002
0010
0000
2003
0010
0000
,
3001
0011
1000
1010
,
1000
0100
0010
0100
0001
0100
1000
0001
,
1000
0010
0100
0001
1000
0100
0010
0100
,
0001
0100
0000
1000
0000
0001
0001
0000
,
0102
0000
0000
0000
1000
0000
0000
0000
0013
0000
0010
0001
0000
0000
0100
0000
,
0020
1000
0100
1030
,
0002
0000
0000
0013
0000
0010
0100
0000
0100
1000
0000
1000
,
0001
0000
0100
0001
0000
0000
0010
0000
0000
0000
2000
0000
0000
0000
3000
0000
,
0010
0000
0100
1000
0100
0000
0010
0000
0001
0000
0100
0000
0010
0000
1000
0000
,
0100
0000
0010
0001
0010
0000
0100
0000
2000
0000
0000
0000
0010
0000
0000
0000
,
3001
0000
0010
0000
0100
0010
0100
0000
1000
0000
0010
0000
0200
0000
0001
0000
,
0000
0320
1000
0000
0130
0001
0010
0100
,
1000
0000
0001
0000
0100
0000
0010
0000
1000
0001
1000
0001
1000
0000
0000
0000
,
0001
0000
0010
0000
0100
0000
0010
0000
0001
0000
0000
0100
0000
0000
0010
0000
,
0001
0000
0010
0000
0100
0000
0001
0000
1000
0000
0000
0100
0000
0000
0010
0000
,
0000
0000
0100
0000
1000
0010
0000
0010
1000
0000
0001
0000
0100
0000
0001
0000
,
0000
0000
0010
0000
0100
0010
0000
0010
0100
0000
0000
1000
0000
0000
0001
0000
,
1000
0000
0010
0000
0100
0000
0010
0000
1000
0000
0000
0100
0000
0000
0010
0000
,
1000
0000
0010
0000
0100
0000
1000
0000
0001
0000
0000
0100
0000
0000
0010
0000
,
1000
0000
0001
1000
0000
0100
0000
0010
0000
0000
0100
0000
0001
0000
0000
0000
,
0100
0010
0000
0010
0000
0000
0001
0000
0100
0000
0100
0010
0000
0000
1000
0000
,
0001
0000
0010
0100
1000
0000
2000
0000
0000
0000
3000
0000
0000
0000
0000
0000
;

//--------------- dance-single - BlindedVanguard vs. forcednature ----------------
#NOTEDATA:;
#STEPSTYPE:dance-single;
#DESCRIPTION:BlindedVanguard vs. forcednature;
#DIFFICULTY:Challenge;
#METER:15;
#RADARVALUES:0.780405,0.849758,0.292652,0.512141,0.577175,672,636,36,63,4,0,0,0,0,0.780405,0.849758,0.292652,0.512141,0.577175,672,636,36,63,4,0,0,0,0;
#CHARTNAME:;
#CHARTSTYLE:;
#CREDIT:BlindedVanguard vs. forcednature;
#NOTES:
0000
0000
0000
0000
,
0000
0000
0000
0000
,
0000
0000
0000
0000
,
0000
0000
0000
0000
,
0000
0000
0000
0000
,
0001
1000
0000
0001
1000
0000
0001
0000
0200
0000
0010
0000
0301
0000
0000
0000
,
1000
0001
0000
1000
0001
0000
1000
0000
0100
0000
0000
0000
1001
0000
0000
0000
,
0001
0001
0001
0100
0010
0010
0010
1000
,
0001
0001
0010
0100
0010
0001
0001
0100
,
0101
1010
1001
MMMM
,
1000
0000
0100
0000
0010
0000
0100
1000
0020
0000
0000
0100
0000
0000
1030
0000
,
0001
0000
0010
0000
0100
0000
0010
0001
0200
0000
0000
0010
0000
0000
0302
0000
,
0000
0000
0013
0000
0002
0010
0000
2003
0010
0000
3001
0000
1000
0010
0200
0000
,
0000
0000
0301
0000
1000
0010
0000
0100
0001
0000
1000
0100
0000
0010
0001
0000
,
1000
0000
0010
0000
0100
0000
0010
1000
0200
0000
0000
0010
0000
0000
1300
0000
,
0001
0000
0100
0000
0010
0000
0100
0001
0020
0000
0000
0100
0000
0000
0031
0000
,
1000
0000
0010
1000
0000
0010
0000
0100
0000
0001
0010
0000
2000
0000
3010
0000
,
0001
0100
0000
0001
0000
0100
0001
0000
1000
0000
0002
0010
0000
2003
0010
0000
,
3001
0000
0100
0010
0100
0010
1000
0000
0000
0000
0001
0000
0000
0000
2001
0000
,
0000
3100
0010
0100
1000
0010
0100
0010
,
0001
0010
1000
1100
0000
0110
0000
1002
,
0000
0103
0010
0100
0001
0010
0100
0010
,
1000
0010
0001
0100
0000
0110
0000
1010
,
0000
1000
0100
1000
0002
0010
0000
0010
,
2003
0010
0000
0010
3002
0100
0000
0100
,
2003
0000
0100
0000
3001
0010
0100
0110
,
0000
0000
0010
0000
0001
0000
1000
0000
0010
0100
0010
0100
0001
0000
2001
0000
,
0000
3010
0100
0010
0001
1000
0100
0001
,
0010
0100
1000
1010
0000
0110
0000
1002
,
0000
0013
0100
0010
1000
0001
0100
1000
,
0010
0100
0001
0010
0000
0011
0000
0201
,
0000
0000
0310
1000
0010
0000
0100
0000
0002
0000
1000
0000
0000
0000
0010
0000
,
2003
0000
0100
0000
3002
0010
0000
1000
,
1003
0000
0100
0000
0001
0000
0100
0000
1000
0000
0010
1000
0020
0000
0100
0000
,
0000
0000
0130
0000
0001
0000
0010
0000
0001
1000
0001
1000
0100
1000
0100
1000
,
0002
0000
0023
0230
0000
0320
0032
2003
,
3001
0000
0100
0010
1000
0000
0010
0100
0001
0000
1000
0100
0010
0000
0001
0010
,
0100
1000
0010
0200
0001
0000
0310
0000
,
0100
0001
1000
0001
0010
0001
0100
0001
,
1000
0100
0010
0000
0001
1000
0010
0000
0100
0001
0010
0001
0000
1000
0010
0000
,
1000
0001
0010
0000
0100
1000
0010
0000
0100
0001
1000
0000
0010
1000
0100
0000
,
1000
0001
0010
0100
1000
0000
0002
0100
,
0000
2003
0010
0000
3001
1000
1000
1001
,
0000
0000
0001
0000
0010
0000
0100
0000
1000
0010
0100
0001
2000
0000
3000
0000
,
0001
0000
0010
0100
0010
0000
0001
1000
0001
0000
0100
0000
0010
0000
0000
0000
,
1000
0100
0000
1000
0100
0000
0010
0001
0000
0001
0010
0000
0011
0000
0000
0000
,
0001
0000
0100
0000
0010
0100
0001
0000
1000
0000
0010
0000
0100
0010
1000
0000
,
0001
0010
1000
0010
0000
2002
0000
3003
,
1000
0000
0010
0100
0010
0000
1000
0001
1000
0000
0100
0000
0010
0000
0000
0000
,
0001
0100
0000
0001
0100
0000
0010
1000
0000
1000
0010
0000
1010
0000
0000
0000
,
1000
0000
0100
0000
0010
0100
1000
0000
0001
0000
0010
0000
0100
0010
0001
0000
,
1000
0000
0010
0000
0100
0000
0001
1000
0001
1000
0001
0000
0020
0000
0000
0000
,
0031
0000
0100
0000
1000
0000
0100
0000
0001
0000
0010
0100
1000
0000
0020
0000
,
0000
0130
1001
0100
1001
0100
1001
0100
,
0000
0000
0001
0010
0001
0000
0100
0000
0010
0000
1000
0010
1000
0000
0100
0000
,
0010
0001
0100
0000
0010
1000
0100
0000
0000
0000
2010
0000
0000
0000
3010
0100
,
0010
0000
1000
0000
0100
0000
1000
0000
0001
0000
0100
0010
1000
0000
0100
0000
,
0000
0010
1001
0010
1001
0010
1001
0010
,
0000
0000
0001
0000
0100
0010
0100
0000
0001
0000
1000
0000
0100
0010
0100
0000
,
1000
0000
0010
0000
0100
0000
0001
0000
0010
0000
0100
1000
0001
1000
0100
0010
,
0002
1000
0010
1000
,
0013
0000
0000
0000
0001
0000
0100
0000
0000
0000
0010
0100
0010
0000
1000
0000
,
1001
0000
0000
0001
0010
0000
0100
0000
0010
0001
0000
0001
0100
0000
0010
0000
,
1000
0100
1000
0000
0001
0100
0001
0000
0100
0010
0100
0010
0100
0000
0001
0000
,
0010
0100
1000
0000
0100
0010
0001
0000
0100
0000
0010
0100
0001
0000
1000
0000
,
0100
1100
0000
0101
0000
2002
0000
3003
,
0012
0000
0000
0000
0000
0000
0000
0000
0103
0000
0010
0100
0000
0010
1000
0000
,
0200
0000
0000
0300
1000
0001
1000
0001
0010
0000
0001
0000
0100
0000
0010
0000
,
2000
0000
0000
0000
0000
0000
0000
0000
0000
0000
0000
0000
3001
0000
0000
0000
0010
0000
0000
0000
0001
0000
0000
0000
0010
0000
0000
0000
0100
0000
0000
0000
0010
0000
0000
0000
0100
0000
0000
0000
0000
0000
1000
0000
0000
0100
0000
0000
,
0020
0000
0030
0020
0000
0030
0002
0000
0003
0000
0100
0000
0110
0000
0000
0000
,
0010
0000
1000
0010
0100
0000
0001
0100
0010
0000
1000
0001
0010
0000
0100
0000
,
1000
0010
1000
0010
0100
0001
0100
0001
2000
0000
0000
0000
0000
0000
0000
0000
,
3001
0000
0010
0001
0010
0000
0100
0000
1000
0010
1000
0000
0001
0000
0020
0000
,
0000
0130
2000
0000
3010
0010
0100
0110
,
0000
0000
1001
0000
0000
0000
1000
0001
1000
0001
0020
0000
0000
0000
0000
0000
,
0031
0000
0100
0000
0010
0000
0100
0001
0020
0000
0000
0130
0000
0000
0010
0000
,
1000
0000
0010
0000
0100
0000
0010
0001
0200
0000
0000
0010
0000
0000
0302
0000
,
0000
0000
0013
0000
0002
0010
0000
2003
0100
0000
3001
0000
1000
0010
0200
0000
,
0000
0000
0301
0000
1000
0001
0000
0010
0100
0000
1000
0001
0000
0100
0010
0000
,
1000
0000
0100
0000
0010
0000
0100
1000
0020
0000
0000
0130
0000
0000
0010
0000
,
0001
0000
0010
0000
0100
0000
0010
1000
0200
0000
0000
0010
0000
0000
1300
0000
,
0001
0000
0100
0001
0000
0100
0000
0010
0000
1000
0100
0000
0002
0000
0103
0000
,
1000
0010
1000
0001
0000
0100
0001
0000
1000
0100
0010
0001
1000
0010
0100
0001
,
0010
0000
0100
1000
0001
0000
0002
0000
0000
0000
0003
0000
0000
0000
0000
0000
;

//--------------- dance-double - BlindedVanguard vs. forcednature ----------------
#NOTEDATA:;
#STEPSTYPE:dance-double;
#DESCRIPTION:BlindedVanguard vs. forcednature;
#DIFFICULTY:Easy;
#METER:7;
#RADARVALUES:0,0,0,0,0;
#CREDIT:BlindedVanguard vs. forcednature;
#NOTES:
00000000
00000000
00000000
00000000
,
00000000
00000000
00000000
00000000
,
00000000
00000000
00000000
00000000
,
00000000
00000000
00000000
00000000
,
00000000
00000000
00000000
00000000
,
00001000
00010000
00022000
00033000
,
00010000
00001000
00022000
00033000
,
00100000
00100000
00010000
00010000
,
01000000
01000000
00100000
00100000
,
10000000
00010000
20020000
30030000
,
00010000
00100000
01000000
00100000
,
00010000
01000000
00001000
00010000
,
00000000
00000100
00001000
00000100
,
00000000
00000010
00000001
00001001
,
00001000
00000010
00000100
00000010
,
00001000
00000100
00010000
00000100
,
00000000
00010000
00001000
00010000
,
00000000
00100000
01000000
00100000
,
10000000
00000000
00000000
01000000
00000000
01000000
00000000
00200000
,
00000000
00310000
00100000
00010000
,
01000000
00001000
00011000
00011000
,
00000000
00010000
00000100
00001000
,
00000010
00000100
00000000
00000001
,
00000020
00000030
00000200
00000300
,
00002000
00003000
00000002
00000003
,
00000100
00001000
00010000
00001000
,
00010000
00100000
10000000
10010000
,
00000000
00010000
00100000
00001000
,
00010000
00001000
00011000
00011000
,
00000000
00010000
00000010
00001000
,
00000010
00000100
00000000
00000001
,
00002000
00003000
00000200
00000300
,
00020000
00030000
00002000
00003000
,
01000000
00010000
01000000
00100000
,
10000000
10000000
00010000
10010000
,
00000000
10000000
01000000
00100000
,
00001000
00001000
00010000
00010000
,
00000100
00001000
00000001
00000000
,
00000100
00000010
00001000
00000100
,
00010000
00001000
00010000
00100000
,
01000000
00100000
10000000
00010000
,
10000000
01000000
00100000
00000000
,
00001000
00010000
00001000
00000000
,
00010000
00000100
00001000
00001001
,
00000001
00000100
00000010
00001000
,
00000010
00010000
00001000
00000000
,
01000000
00010000
00100000
01000000
,
10000000
00100000
01000000
10010000
,
00010000
00100000
00001000
00010000
,
00000100
00001000
00000100
00000000
,
00001000
00000010
00000100
00000001
,
00000010
00000001
00001000
00001001
,
00000001
00000100
00001000
00010000
,
00000000
00011000
00011000
00011000
,
00000000
00001000
00000000
00001000
,
01000000
00010000
01000000
00100000
,
10000000
01000000
00010000
00001000
,
00000000
00011000
00011000
00011000
,
00000000
00000100
00000000
00000100
,
00001000
00000010
00000100
00000001
,
00000020
00000000
00000000
00000000
,
00000030
00000000
00000000
00000000
,
00002002
00003003
00002002
00003003
,
00000001
00000001
00000100
00000100
,
00000010
00001000
00000100
00010000
,
00001000
00000000
00000000
00001000
00000000
00001000
00000000
00000000
,
00022000
00000000
00033000
00000000
,
00200000
00010000
00310000
00100000
,
00010000
01000000
00100000
10000000
,
01000000
01000000
00100000
10010000
,
00010000
01000000
00010000
01000000
,
00001000
00010000
00000010
00001000
,
00000100
00000010
00000001
00000100
,
00001000
00010000
00001000
00010000
,
00100000
10000000
00010000
10010000
,
10000000
01000000
00100000
01000000
,
10000000
00010000
00100000
00010000
,
01000000
00001000
00010000
00001000
,
00000010
00000001
00001000
00001001
,
00000001
00000100
00000010
00000100
,
00000001
00001000
00000100
00001000
,
00000010
00010000
00001000
00010000
,
00001000
01000000
00010000
00100000
,
00000000
00000000
00010000
00020000
00000000
00000000
00030000
00000000
;

//--------------- dance-double - BlindedVanguard vs. forcednature ----------------
#NOTEDATA:;
#STEPSTYPE:dance-double;
#DESCRIPTION:BlindedVanguard vs. forcednature;
#DIFFICULTY:Medium;
#METER:11;
#RADARVALUES:0,0,0,0,0;
#CREDIT:BlindedVanguard vs. forcednature;
#NOTES:
00000000
00000000
00000000
00000000
,
00000000
00000000
00000000
00000000
,
00000000
00000000
00000000
00000000
,
00000000
00000000
00000000
00000000
,
00000000
00000000
00000000
00000000
,
00001000
00000000
00000000
00001000
00000000
00000000
00010000
00000000
00200000
00000000
00000000
00000000
00300000
00000000
00000000
00000000
,
00010000
00000000
00000000
00010000
00000000
00000000
00001000
00000000
00000020
00000000
00000000
00000000
00000030
00000000
00000000
00000000
,
00000001
00000100
00000001
00000000
00001000
00000100
00001000
00000000
,
00000010
00000100
00000000
00001000
00000000
00010000
00000000
00100000
,
01000000
01100000
20020000
30030000
,
10000000
00000000
01000000
00000000
00100000
00000000
00000000
00000000
01000000
00000000
00000000
00010000
00000000
00000000
00001000
00000000
,
00010000
00000000
00000000
00000000
00001000
00000000
00000000
00000000
00000010
00000000
00000000
00000001
00000000
00000000
00000100
00000000
,
00000000
00000010
00001000
00000000
00000100
00010000
00000000
00010000
,
00000000
00000000
00001000
00000000
00010000
00000000
00000000
00000000
00100000
00000000
00000000
10000000
00000000
00000000
00100000
00000000
,
10000000
00000000
00000000
00000000
01000000
00000000
00000000
00000000
00100000
00000000
00000000
00010000
00000000
00000000
01000000
00000000
,
00010000
00000000
00000000
00000000
00100000
00000000
00000000
00000000
00001000
00000000
00000000
00010000
00000000
00000000
00000100
00000000
,
00001000
00000000
00000000
00000010
00000000
00001000
00000000
00000010
00000000
00000000
00000100
00000000
00000001
00000000
00000000
00000000
,
00001000
00000000
00000000
00000100
00000000
00000000
00001000
00000000
00000100
00000000
00000000
00010000
00000000
00000000
00001000
00000000
,
00000000
00010000
00100000
10000000
00000000
01000000
00000000
02200000
,
00000000
03300000
00000000
00000000
00100000
00000000
00010000
00000000
00100000
00000000
00000000
00000000
00001000
00000000
00010000
00000000
,
00001000
00000000
00010000
00000100
00000000
00001000
00000000
00001001
,
00000000
00000001
00000100
00000001
00000100
00000000
00000010
00000100
,
00000010
00000000
00001000
00000100
00000000
00010000
00000000
00022000
,
00000000
00033000
00020000
00000100
,
00032000
01000000
00023000
00000010
,
00032000
00000000
00100000
00000000
00013000
00000000
00010000
00000100
,
00000000
00001000
00000000
00000010
00000000
00000100
00000001
00000200
,
00000000
00000300
00000010
00001000
00000010
00000000
00010000
00001000
,
00010000
00001000
00000000
00100000
00000000
00010000
00000000
20020000
,
00000000
30030000
00000000
00000000
10000000
00000000
01000000
00000000
10000000
00000000
00000000
00000000
00100000
00000000
10000000
00000000
,
00100000
00000000
01000000
00010000
00000000
00100000
00000000
00022000
,
00000000
00033000
00020000
00000100
,
00032000
01000000
00023000
00000010
,
00031000
00000000
00001000
00000000
00001000
00010000
00000000
00011000
,
00000000
00000000
00100000
00000000
00000000
00000000
01000000
00000000
00000000
00000000
20020000
00000000
00000000
30030000
00000000
00000000
,
10000000
00000000
00100000
01000000
00000000
00100000
10000000
00100000
,
10000000
01000000
00010000
00001000
,
00000010
00000000
00000100
00000010
00000000
00000001
00000010
00000000
,
00000001
00000100
00001000
00010000
,
00100000
00000000
00000000
00000000
01100000
00000000
00000000
00000000
01000000
00000000
00000000
00010000
00000000
00000000
01000000
00000000
,
00020000
00000000
00130000
00000000
00001000
00010000
00001000
00000000
,
00010000
00000000
00000100
00000100
00001000
00000000
00000010
00001000
,
00000000
00000000
00000001
00000000
00000010
00000000
00000000
00000000
00000220
00000000
00000000
00000330
00000000
00000000
00000100
00000000
,
00000000
00001000
00000001
00000100
00000000
00000010
00000010
00000000
,
00001001
00000000
00001000
00000100
00000000
00000100
00010000
00000000
,
00001000
00010000
00001000
00000000
00200000
00000000
00310000
00000000
,
10000000
00100000
00000000
00100000
00000000
01000000
00000000
00010000
,
10000000
00010000
00000000
00100000
00000000
00001000
00000000
00010000
,
00001000
00010000
00001000
00010000
00000000
00000100
00001000
00000000
,
00000010
00000000
00000100
00000010
00000200
00000000
00000301
00000000
,
00001000
00000010
00000000
00000010
00000000
00010000
00000000
00001000
,
00010000
00001000
00010000
00001000
00000000
00100000
00010000
00000000
,
01000000
00010000
10000000
00010000
01000000
00000000
00001000
00010000
,
00000000
00011000
00011000
00011000
,
00000000
00000100
00001000
00000100
00000000
00001000
00000010
00001000
,
00000001
00000010
00000001
00000010
00000000
00000200
00000000
00000300
,
00001000
00000001
00000010
00000001
00001000
00000000
00000100
00010000
,
00000000
00011000
00011000
00011000
,
00000000
00100000
00010000
00100000
00000000
01000000
10000000
01000000
,
10000000
00000000
00100000
01000000
00000000
00010000
00100000
00001000
,
00020000
00000000
00000000
00000000
,
00030000
00000000
00001000
00010000
00000000
00010000
00001000
00000000
,
00011000
00000100
00011000
00000010
,
00001000
00000010
00001000
00000000
00000001
00000010
00000001
00000000
,
00000100
00000010
00000100
00000010
00001000
00000100
00010000
00000000
,
00001000
00001000
00000000
00001000
00000000
00100000
00001000
00000000
,
00022000
00000000
00000000
00000000
00033000
00000000
00000000
00000000
00010000
00000000
00000000
00100000
00000000
00000000
10000000
00000000
,
00200000
00000000
00000000
00300000
,
01100000
01010000
00010000
00100000
,
00001000
00000000
00000000
00010000
00000000
00000000
00001000
00000000
00000000
00000000
00000020
00000000
00000000
00000000
00000030
00000000
,
00000100
00001000
00000100
00001000
00000001
00000100
00000010
00000000
,
00010000
00000100
00001000
00000100
00020000
00000000
00030000
00000000
,
00001000
00100000
00010000
00100000
00001000
00010000
00002000
00000000
,
00003000
00000000
01000000
00000000
00010000
00000000
00000000
00000000
00200000
00000000
00000000
00300000
00000000
00000000
01100000
00000000
,
00000000
01100000
00000000
01000000
00000000
20020000
00000000
30030000
,
10000000
00000000
01000000
00000000
00100000
00000000
00000000
00000000
00010000
00000000
00000000
01000000
00000000
00000000
00010000
00000000
,
00100000
00000000
00000000
00000000
00001000
00000000
00000000
00000000
00010000
00000000
00000000
00001000
00000000
00000000
00000010
00000000
,
00000000
00000001
00000010
00000000
00000100
00000010
00000000
00000001
,
00000000
00000000
00000100
00000000
00000001
00000000
00000000
00000000
00001000
00000000
00000000
00000010
00000000
00000000
00001000
00000000
,
00000010
00000000
00000100
00000000
00000010
00000000
00000000
00000000
00001000
00000000
00000000
00000100
00000000
00000000
00010000
00000000
,
00001000
00000000
00010000
00000000
00001000
00000000
00000000
00000000
00100000
00000000
00000000
00010000
00000000
00000000
01000000
00000000
,
00010000
00000000
00000000
10000000
00000000
00100000
00000000
10000000
00000000
00000000
00100000
00000000
01000000
00000000
00000000
00000000
,
00010000
00000000
00000000
00100000
00000000
00000000
00010000
00000000
01000000
00000000
00000000
00001000
00000000
00000000
00010000
00000000
,
00000000
00000010
00001000
00002000
00000000
00003000
00000000
00000000
;

//--------------- dance-double - BlindedVanguard vs. forcednature ----------------
#NOTEDATA:;
#STEPSTYPE:dance-double;
#DESCRIPTION:BlindedVanguard vs. forcednature;
#DIFFICULTY:Hard;
#METER:13;
#RADARVALUES:0,0,0,0,0;
#CREDIT:BlindedVanguard vs. forcednature;
#NOTES:
00000000
00000000
00000000
00000000
,
00000000
00000000
00000000
00000000
,
00000000
00000000
00000000
00000000
,
00000000
00000000
00000000
00000000
,
00000000
00000000
00000000
00000000
,
00010000
00001000
00000000
00010000
00001000
00000000
00001000
00000000
00200000
00000000
00000000
00000000
00300000
00000000
00000000
00000000
,
00001000
00010000
00000000
00001000
00010000
00000000
00010000
00000000
00000020
00000000
00000000
00000000
00000030
00000000
00000000
00000000
,
00001000
00001000
00001000
00000000
00000001
00000001
00000001
00000000
,
00000100
00001000
00000000
00010000
00000000
00100000
00000000
10000000
,
01000000
01100000
20020000
30030000
,
00010000
00000000
01000000
00000000
00100000
00000000
10000000
00000000
01000000
00000000
00000000
00100000
00000000
00000000
01000000
00000000
,
10000000
00000000
00010000
00000000
00100000
00000000
00001000
00000000
00010000
00000000
00000000
00000010
00000000
00000000
00001000
00000000
,
00000000
00000000
00000001
00000000
00000010
00000000
00000000
00000100
00000010
00000000
00000001
00000000
00001000
00000000
00000010
00000000
,
00000000
00000000
00010000
00000000
00001000
00010000
00000000
00000000
00001000
00000000
00000000
00100000
00000000
00000000
00010000
00000000
,
10000000
00000000
00100000
00000000
01000000
00000000
00100000
00000000
10000000
00000000
00000000
01000000
00000000
00000000
00010000
00000000
,
00001000
00000000
00010000
00000000
00000010
00000000
00001000
00000000
00000100
00000000
00000000
00000010
00000000
00000000
00000001
00000000
,
00001000
00000000
00000000
00000010
00000000
00000100
00000000
00000010
00000000
00000000
00010000
00000000
00001000
00000000
00000000
00000000
,
01000000
00000000
00000000
00010000
00000000
00000000
00100000
00000000
01000000
00000000
00000000
10000000
00000000
00000000
00100000
00000000
,
01000000
00001000
00010000
00000010
00000000
00000110
00000000
00002001
,
00000000
00003001
00000010
00000100
00000010
00000000
00000001
00000100
,
00001000
00000100
00000000
00000101
00000000
00001010
00000000
00010000
,
00000000
00001000
00100000
00010000
01000000
00000000
00100000
10000000
,
01000000
00000000
00010000
00001000
00000000
00000010
00000000
00000002
,
00000000
00000100
00002003
00000010
,
00003200
00001000
00020300
00001000
,
00230000
00000000
01000000
00000000
10000000
00000000
01300000
00010000
,
00000000
00110000
00000000
00101000
00000000
00001000
00010000
00012000
,
00000000
00013000
00000100
00001000
00000010
00000000
00000100
00000001
,
00000010
00000100
00000000
00001100
00000000
00010100
00000000
00020000
,
00000000
00031000
00100000
00010000
01000000
00000000
00100000
10000000
,
01000000
00000000
00100000
00001000
00000000
00010000
00000000
00200000
,
00000000
10000000
02300000
00010000
,
03002000
00010000
00003020
00000100
,
00000032
00000000
00000100
00000000
00001000
00000000
00000013
00000100
,
00000000
00010100
00000000
00011000
00000000
01001000
00000000
00000000
,
02000000
00000000
03010000
00100000
00000000
01000000
00100000
00001000
,
00010000
00000010
00001000
00000001
00000001
00001000
00000100
00010000
,
00001000
00000000
00010000
00200000
00000000
10000000
10300000
00000000
,
00020000
02030000
03002000
00023000
,
00030100
00000000
00001000
00000000
00000100
00000000
00000010
00000000
00000001
00000000
00000000
00000100
00000000
00000000
00001000
00000000
,
00010000
00001000
00010000
00100000
10000000
00100000
01000000
00100000
,
00020000
00000000
00031000
00001000
00020000
00000000
00030200
00001000
,
00000000
00000320
00000001
00000000
00000130
00000000
00001000
00000001
,
00000000
00000000
00000100
00000000
00001000
00000000
00010000
00000000
00000000
00000000
00001000
00010000
00001000
00000000
00000000
00000000
,
00011000
00000000
00010000
00100000
10000000
00100000
00000000
01000000
,
00010000
00000000
00100000
01000000
10000000
01000000
00000000
00100000
,
00010000
00100000
00001000
00010000
00000000
00011000
00000000
00001000
,
00000010
00000001
00000010
00000100
00000000
00001000
00000001
00001000
,
00000010
00000100
00001000
00000100
00000000
00000010
00001000
00000010
,
00010000
00001000
00100000
00010000
00000000
01000000
01000000
00000000
,
00100000
10000000
01000000
10000000
00000000
01100000
00000000
00100000
,
00001000
00010000
00000010
00010000
00001000
01000000
00010000
00000000
,
10000000
01000000
00100000
00010000
01000000
00001000
00010000
00000010
,
00001000
00001100
00000011
00001100
,
00000000
00000001
00000100
00000001
00000000
00001000
00000100
00001000
,
00000010
00010000
00001000
00010000
00000000
00002000
00000000
00103000
,
00010000
01000000
00100000
10000000
00010000
00000000
10000000
00010000
,
00100000
11000000
00110000
11000000
,
00000000
00010000
00100000
00001000
00000000
00010000
00000010
00001000
,
00000001
00000010
00000100
00000010
00000000
00000001
00000100
00000010
,
00002000
00000100
00000001
00000100
,
00003001
00000000
00001000
00000010
00000000
00010000
00001000
00000000
,
00011000
00000000
00100000
00010000
01000000
00000000
00100000
10000000
,
01000000
10000000
00100000
10000000
01000000
00100000
00010000
01000000
,
00001000
00010000
00001000
00010000
00000010
00001000
00000001
00000010
,
00000100
00001000
00000000
00001001
00000000
00000010
00000010
00000000
,
00000220
00000000
00000000
00000000
00000000
00000000
00000330
00000000
00000001
00000000
00000001
00001000
00000000
00000000
00000100
00000000
,
00010000
00001000
00010000
00001000
00100000
00010000
01000000
00100000
,
20000000
32000000
03020000
00032000
,
00013000
00000000
00000000
00010000
00000000
00000000
00000010
00000000
00000000
00000000
00002000
00000000
00000000
00000000
00003000
00000000
,
00000100
00000000
00000010
00000100
00000010
00000000
00000001
00000000
00001000
00000000
00000010
00000000
00010000
00000000
00001000
00000000
,
01000000
00000000
00100000
01000000
00100000
00000000
10000000
00000000
00020000
00000000
00000000
00000000
00000000
00000000
00000000
00000000
,
00130000
00000000
00001000
00000000
00010000
00001000
00010000
00000000
00000100
00000000
00001000
00000000
00000002
00000000
00000100
00000000
,
00000000
00002003
00000010
00000000
00003001
00000010
00000100
00001000
,
00000000
00000000
00001100
00000000
00000000
00000000
00010000
00000000
00001000
00010000
00001000
00010000
00001000
00000000
00000000
00000000
,
00100000
00000000
00010000
00000000
01000000
00000000
00010000
00000000
00100000
00000000
00000000
01000000
00000000
00000000
10000000
00000000
,
00100000
00000000
00000000
00000000
01000000
00000000
00010000
00000000
00100000
00000000
00000000
00001000
00000000
00000000
00010000
00000000
,
00000000
00000000
00000010
00000000
00001000
00000010
00000000
00000010
00001000
00000000
00000001
00000000
00000010
00000000
00000100
00000000
,
00000000
00000000
00010000
00000000
00001000
00010000
00000000
00010000
00001000
00000000
00000000
01000000
00000000
00000000
00010000
00000000
,
00100000
00000000
01000000
00000000
00100000
00000000
01000000
00000000
10000000
00000000
00000000
00010000
00000000
00000000
01000000
00000000
,
00001000
00000000
00010000
00000000
00001000
00000000
00010000
00000000
00000010
00000000
00000000
00001000
00000000
00000000
00000001
00000000
,
00000010
00000000
00000001
00001000
00000000
00000001
00000000
00001000
00000000
00000000
00000100
00000000
00010000
00000000
00000000
00000000
,
00001000
00010000
00000000
00001000
00000000
00000000
00100000
00000000
00010000
00000000
00010000
01000000
00000000
00000000
00100000
00000000
,
00000000
00000000
10000000
00010000
00100000
00000000
00200000
00000000
00000000
00000000
00300000
00000000
00000000
00000000
00000000
00000000
;

//--------------- dance-double - BlindedVanguard vs. forcednature ----------------
#NOTEDATA:;
#STEPSTYPE:dance-double;
#DESCRIPTION:BlindedVanguard vs. forcednature;
#DIFFICULTY:Challenge;
#METER:16;
#RADARVALUES:0,0,0,0,0;
#CREDIT:BlindedVanguard vs. forcednature;
#NOTES:
00000000
00000000
00000000
00000000
,
00000000
00000000
00000000
00000000
,
00000000
00000000
00000000
00000000
,
00000000
00000000
00000000
00000000
,
00000000
00000000
00000000
00000000
,
00001000
00010000
00000000
00001000
00010000
00000000
00100000
00000000
20000000
00000000
00000000
00000000
30200000
00000000
00000000
00000000
,
00310000
00001000
00000000
00010000
00001000
00000000
00000010
00000000
00000002
00000000
00000000
00000000
00000023
00000000
00000000
00000000
,
00001030
00010000
00000100
00010000
00001000
00100000
00001000
00010000
,
00100000
10000000
00000000
11000000
00000000
01000000
10000000
00100000
,
01100000
00011000
00000110
MMMMMMMM
,
00000001
00000000
00000100
00000000
00000010
00000000
00000100
00000001
00000020
00000000
00000000
00000100
00000000
00000000
00000031
00000000
,
00001000
00000000
00000100
00000000
00010000
00000000
00001000
00100000
00020000
00000000
00000000
01000000
00000000
00000000
20030000
00000000
,
00000000
00000000
31000000
00000000
20000000
00100000
00000000
30020000
00100000
00000000
10030000
00000000
00010000
00100000
00002000
00000000
,
00000000
00000000
00013000
00000000
00001000
00000010
00000000
00000001
00000010
00000000
00000100
00001000
00000000
00000001
00000100
00000000
,
00001000
00000000
00010000
00000000
00001000
00000000
00100000
00010000
02000000
00000000
00000000
00100000
00000000
00000000
03010000
00000000
,
10000000
00000000
00100000
00000000
01000000
00000000
00100000
10000000
02000000
00000000
00000000
00100000
00000000
00000000
13000000
00000000
,
01000000
00000000
00100000
00010000
00000000
01000000
00000000
00001000
00000000
00010000
00001000
00000000
00000020
00000000
00000031
00000000
,
00000100
00000001
00000000
00000100
00000000
00001000
00000100
00000000
00000010
00000000
00002000
00000100
00000000
00003002
00000100
00000000
,
00001003
00000000
00000100
00010000
00000100
00010000
00001000
00000000
00000000
00000000
00100000
00000000
00000000
00000000
01020000
00000000
,
00000000
00130000
01000000
00100000
10000000
00100000
00001000
00010000
,
00000100
00000010
00000001
00000101
00000000
00001010
00000000
00002100
,
00000000
00003010
00000100
00000010
00000001
00000010
00010000
00001000
,
01000000
00100000
10000000
11000000
00000000
00110000
00000000
02010000
,
00000000
03100000
01000000
00001000
00020000
00100000
00000000
00100000
,
00032000
00000010
00000000
00000010
00023000
01000000
00000000
01000000
,
00032000
00000000
00000100
00000000
00013000
00100000
10000000
10100000
,
00000000
00000000
00100000
00000000
01000000
00000000
00010000
00000000
00100000
01000000
00100000
01000000
10000000
00000000
10020000
00000000
,
00000000
01030000
00100000
01000000
10000000
01000000
00001000
00010000
,
00000010
00000100
00000001
00000011
00000000
00001100
00000000
00002001
,
00000000
00003100
00000010
00000100
00000001
00000100
00010000
00001000
,
00100000
01000000
10000000
10100000
00000000
01010000
00000000
00210000
,
00000000
00000000
00301000
01000000
00001000
00000000
00010000
00000000
00002000
00000000
00000010
00000000
00000000
00000000
00000010
00000000
,
00023000
00000000
00100000
00000000
00032000
00000100
00000000
00010000
,
00013000
00000000
00001000
00000000
00000010
00000000
00001000
00000000
00010000
00000000
00000100
00010000
00000200
00000000
00001000
00000000
,
00000000
00000000
00000010
00000000
00000310
00000000
00000001
00000000
00000100
00000001
00000100
00000001
00000010
00000001
00000010
00000001
,
00002000
00000000
00003020
00000230
00000000
00002300
00023000
00230000
,
01300000
00000000
00100000
10000000
00010000
00000000
00100000
01000000
10000000
00000000
01000000
00100000
00001000
00000000
00010000
00001000
,
00010000
00000010
00001000
00000002
00000100
00000000
00000013
00000000
,
00000001
00000010
00001000
00000010
00000001
00000100
00001000
00010000
,
00100000
01000000
00100000
00000000
10000000
01000000
00100000
00000000
00010000
01000000
00001000
01000000
00000000
00010000
00100000
00000000
,
00001000
00010000
00000010
00000000
00001000
00000100
00000010
00000000
00000001
00001000
00000010
00000000
00000100
00000001
00000010
00000000
,
00000100
00010000
00001000
00100000
01000000
00000000
00200000
00001000
,
00000000
00320000
01000000
00000000
00130000
00001000
00001000
00011000
,
00000000
00000000
00010000
00000000
00001000
00000000
00000100
00000000
00000010
00000100
00000001
00001000
00000020
00000000
00000030
00000000
,
00000100
00000000
00000001
00000010
00000001
00000000
00001000
00000010
00001000
00000000
00000100
00000000
00000010
00000000
00000000
00000000
,
00001000
00010000
00000000
00001000
00010000
00000000
00100000
01000000
00000000
01000000
00100000
00000000
01100000
00000000
00000000
00000000
,
01000000
00000000
00010000
00000000
00100000
01000000
10000000
00000000
01000000
00000000
00010000
00000000
00001000
00010000
00001000
00000000
,
00000100
00000001
00000010
00000001
00000000
00000220
00000000
00000330
,
00001000
00000000
00000010
00010000
00001000
00000000
00010000
00001000
00100000
00000000
01000000
00000000
01000000
00000000
00000000
00000000
,
00010000
00001000
00000000
00010000
00001000
00000000
00000010
00000100
00000000
00000100
00000010
00000000
00000110
00000000
00000000
00000000
,
00000100
00000000
00001000
00000000
00000010
00000100
00000001
00000000
00000100
00000000
00000010
00000000
00001000
00000100
00010000
00000000
,
00001000
00000000
00001000
00000000
00010000
00000000
00100000
01000000
00100000
01000000
00100000
00000000
20000000
00000000
00000000
00000000
,
31000000
00000000
00010000
00000000
00001000
00000000
00100000
00000000
00010000
00000000
10000000
00100000
01000000
00000000
00002000
00000000
,
00000000
00003000
0101MMMM
00000000
MMMM1100
00000000
0101MMMM
00000000
,
00000000
00000000
00001000
00010000
00001000
00000000
00100000
00000000
01000000
00000000
00010000
00001000
00010000
00000000
00000010
00000000
,
00000100
00000001
00000010
00000000
00000100
00001000
00000010
00000000
00000000
00000000
00012000
00000000
00000000
00000000
00013000
00000100
,
00001000
00000000
00000100
00000000
00010000
00000000
00000010
00000000
00001000
00000000
00000001
00000010
00000100
00000000
00020000
00000000
,
00000000
00030000
MMMM1100
00000000
0101MMMM
00000000
MMMM1100
00000000
,
00000000
00000000
00010000
00001000
00010000
00000000
00000010
00000000
00000100
00000000
00001000
00010000
00001000
00000000
00100000
00000000
,
01000000
10000000
00100000
00000000
01000000
00010000
00100000
00000000
00001000
00000000
00010000
00001000
00010000
00001000
01000000
00010000
,
00200000
00000000
00000000
00000000
,
00300000
00000000
00000000
00000000
01000000
00000000
10000000
00000000
00000000
00000000
00100000
01000000
00100000
00000000
01000000
00000000
,
01010000
00000000
00000000
00010000
00100000
00000000
00001000
00000000
00010000
00000100
00000000
00000100
00001000
00000000
00000010
00000000
,
00000100
00000001
00000100
00000000
00000001
00000010
00000001
00000000
00001000
00000010
00001000
00000010
00000100
00000000
00001000
00000000
,
00010000
00001000
00010000
00000000
00001000
00100000
00010000
00000000
01000000
00000000
00100000
10000000
00010000
00000000
00100000
00000000
,
00001000
00101000
00000000
00010010
00000000
00022000
00000000
00033000
,
00010200
00000000
00000000
00000000
00000000
00000000
00000000
00000000
00000310
00000000
00000001
00000010
00000000
00000100
00000010
00000000
,
00002000
00000000
00000000
00003000
00010000
00001000
00010000
00001000
00100000
00000000
00010000
00000000
01000000
00000000
00100000
00000000
,
20000000
00000000
00000000
00000000
00000000
00000000
00000000
00000000
00000000
00000000
00000000
00000000
31000000
00000000
00000000
00000000
00010000
00000000
00000000
00000000
01000000
00000000
00000000
00000000
00010000
00000000
00000000
00000000
00001000
00000000
00000000
00000000
00010000
00000000
00000000
00000000
00001000
00000000
00000000
00000000
00000000
00000000
00010000
00000000
00000000
00001000
00000000
00000000
,
00000020
00000000
00000030
00000020
00000000
00000030
00000002
00000000
00000003
00000000
00000100
00000000
00000110
00000000
00000000
00000000
,
00000010
00000000
00001000
00000010
00010000
00000000
00001000
00010000
00001000
00000000
00100000
00010000
01000000
00000000
00100000
00000000
,
10000000
01000000
10000000
00100000
01000000
00010000
01000000
00001000
00020000
00000000
00000000
00000000
00000000
00000000
00000000
00000000
,
00030010
00000000
00001000
00000010
00001000
00000000
00000001
00000000
00000010
00000100
00001000
00000000
00000010
00000000
00020000
00000000
,
00000000
00130000
20000000
00000000
31000000
01000000
00100000
00101000
,
00000000
00000000
00010100
00000000
00000000
00000000
00000100
00001000
00000100
00001000
00000020
00000000
00000000
00000000
00000000
00000000
,
00000031
00000000
00000010
00000000
00000100
00000000
00000010
00001000
00000200
00000000
00000000
00010300
00000000
00000000
00001000
00000000
,
00100000
00000000
01000000
00000000
00100000
00000000
00010000
01000000
00002000
00000000
00000000
00100000
00000000
00000000
00023000
00000000
,
00000000
00000000
00030010
00000000
00020000
00001000
00000000
00030200
00001000
00000000
00000310
00000000
00000100
00001000
00000002
00000000
,
00000000
00000000
00000103
00000000
00000010
00001000
00000000
00010000
01000000
00000000
00010000
00100000
00000000
01000000
10000000
00000000
,
00100000
00000000
01000000
00000000
00100000
00000000
00010000
00001000
00020000
00000000
00000000
00030100
00000000
00000000
00010000
00000000
,
00001000
00000000
00000010
00000000
00000001
00000000
00000010
00000100
00002000
00000000
00000000
00000001
00000000
00000000
00003010
00000000
,
00010000
00000000
00001000
00010000
00000000
00100000
00000000
01000000
00000000
00100000
10000000
00000000
02000000
00000000
03100000
00000000
,
01000000
00010000
00001000
00010000
00000000
00001000
00100000
00000000
00001000
00010000
00001000
00010000
00000010
00001000
00000001
00000100
,
00000010
00000000
00000100
00001000
00010000
00000000
00020000
00000000
00000000
00000000
00030000
00000000
00000000
00000000
00000000
00000000
;
