#VERSION:0.83;
#TITLE:In Scottish Highlands;
#SUBTITLE:;
#ARTIST:Thomas Howard Lichtenstein;
#TITLETRANSLIT:;
#SUBTITLETRANSLIT:;
#ARTISTTRANSLIT:;
#GENRE:;
#CREDIT:;
#MUSIC:In Scottish Highlands.ogg;
#BANNER:In Scottish Highlands.png;
#BACKGROUND:In Scottish Highlands-bg.png;
#CDTITLE:./CDTitles/jubeat.png;
#SAMPLESTART:72.834;
#SAMPLELENGTH:15.000;
#SELECTABLE:YES;
#OFFSET:1.027;
#BPMS:0.000=145.000;
#STOPS:;
#TIMESIGNATURES:0.000=4=4;
#BGCHANGES:0.000=../BGAs/19po.mp4=1.000=0=0=0=StretchNoLoop====,
99999.000=-nosongbg-=1.000=0=0=0=StretchNoLoop====
;
#FGCHANGES:;

//--------------- dance-single - forcednature ----------------
#NOTEDATA:;
#STEPSTYPE:dance-single;
#DESCRIPTION:forcednature;
#DIFFICULTY:Beginner;
#METER:3;
#RADARVALUES:0,0,0,0,0;
#CREDIT:forcednature;
#NOTES:
0000
0000
0000
0000
,
0000
0000
0000
0000
,
0000
0000
0000
0000
,
0000
0000
0000
0000
,
0000
0000
1001
0000
,
1000
0000
1000
0000
,
0001
0000
0001
0000
,
0100
0000
0010
0000
,
0100
0000
0000
0000
,
0001
0000
0001
0000
,
1000
0000
1000
0000
,
0100
0000
0010
0000
,
0110
0000
0000
0000
,
1000
0000
0000
0000
,
0001
0000
0000
0000
,
0100
0000
0010
0000
,
0110
0000
0000
0000
,
0001
0000
0000
0000
,
1000
0000
0000
0000
,
0100
0000
0010
0000
,
0110
0000
0000
0000
,
0001
0000
0001
0000
,
1000
0000
1000
0000
,
0010
0000
0100
0000
,
0110
0000
0000
0000
,
1000
0000
1000
0000
,
0001
0000
0001
0000
,
0010
0000
0100
0000
,
0110
0000
0000
0000
,
1000
0000
0000
0000
,
0001
0000
0000
0000
,
0100
0000
0000
0000
,
0001
0000
0000
0000
,
0010
0000
0000
0000
,
0100
0000
0000
0000
,
0010
0000
0000
0000
,
0001
0001
0001
0000
,
1000
0000
0000
0000
,
0010
0000
0000
0000
,
0100
0000
0100
0000
,
0001
0000
0000
0000
,
0010
0000
0000
0000
,
0100
0000
0000
0000
,
1000
0000
1000
0000
,
0010
0000
0000
0000
,
1000
0000
0001
0000
,
1000
0000
0001
0000
,
0010
0000
0100
0000
,
0110
0000
0000
0000
,
0001
0000
1000
0000
,
0001
0000
1000
0000
,
0100
0000
0010
0000
,
0110
0000
0000
0000
,
1000
0000
0000
0000
,
0001
0000
0000
0000
,
0100
0000
0000
0000
,
0010
0010
0010
0000
,
1000
0000
0000
0000
,
0001
0000
0000
0000
,
0010
0000
0000
0000
,
0100
0100
0100
0000
,
0010
0010
0010
0010
;

//--------------- dance-single - forcednature ----------------
#NOTEDATA:;
#STEPSTYPE:dance-single;
#DESCRIPTION:forcednature;
#DIFFICULTY:Easy;
#METER:7;
#RADARVALUES:0,0,0,0,0;
#CREDIT:forcednature;
#NOTES:
0000
0000
0000
0000
,
0000
0000
0000
0000
,
0000
0000
0000
0000
,
0000
0000
0000
0000
,
1000
0001
2002
3003
,
1000
0100
1000
0100
,
0010
0001
0010
0001
,
1000
1000
0010
1000
,
0001
0001
0010
0001
,
1000
0010
1000
0010
,
0100
0001
0100
0001
,
0020
0030
0200
0300
,
1000
0001
2002
3003
,
1000
0010
1010
0000
,
0001
0010
0011
0000
,
1000
0100
0010
0001
,
2002
0000
3003
0000
,
0001
0100
0101
0000
,
1000
0100
1100
0000
,
0001
0100
0010
1000
,
0000
0001
1000
0001
0000
0000
0000
0000
,
1001
0000
1000
0100
,
1001
0000
0001
0100
,
0010
0010
1000
0001
,
0010
0010
0001
1000
,
1001
0000
1000
0100
,
1001
0000
0001
0100
,
0110
0000
1001
0000
,
1000
0001
2002
3003
,
1000
0000
0100
1000
,
0010
0100
0001
0010
,
0100
0000
0010
0001
,
0100
0010
1000
0100
,
1000
0010
0000
0010
,
1000
0001
0000
0001
,
1000
0100
0010
0001
,
0100
0010
0220
0330
,
0001
0100
0101
0000
,
1000
0100
1100
0000
,
0001
0010
0100
1000
,
2002
0000
3003
0000
,
1000
0010
1010
0000
,
0001
0010
0011
0000
,
1000
0010
0100
0001
,
0000
1000
0001
1000
0000
0000
0000
0000
,
0002
0103
0001
0001
,
2000
3100
1000
1000
,
0010
0100
0110
0000
,
1000
0001
1001
0000
,
2000
3010
1000
1000
,
0002
0013
0001
0001
,
1001
0000
0110
0000
,
0001
1000
1001
0000
,
0001
0000
0000
0000
1000
0001
1000
0000
,
0010
0000
0000
0000
1000
0001
1000
0000
,
0100
0000
0000
0000
1000
0001
1000
0000
,
0010
0100
0110
1001
,
1000
0000
0000
0000
0001
1000
0001
0000
,
0100
0000
0000
0000
0001
1000
0001
0000
,
0010
0000
0000
0000
0001
1000
0001
0000
,
1000
0000
0010
0000
0100
0010
0100
0000
,
0001
0010
0110
1001
;

//--------------- dance-single - forcednature ----------------
#NOTEDATA:;
#STEPSTYPE:dance-single;
#DESCRIPTION:forcednature;
#DIFFICULTY:Medium;
#METER:10;
#RADARVALUES:0,0,0,0,0;
#CREDIT:forcednature;
#NOTES:
0000
0000
0000
0000
,
0000
0000
0000
0000
,
0000
0000
0000
0000
,
0000
0000
0000
0000
,
1000
0100
0010
0001
2002
0000
3003
0000
,
2000
0000
3010
0000
0001
0010
1000
0000
,
0002
0000
0103
0000
1000
0100
0001
0000
,
0011
1100
0011
1000
,
1010
0101
1010
0001
,
2000
0000
3100
0000
0001
0100
1000
0000
,
0002
0000
0013
0000
1000
0010
0001
0000
,
0100
0100
0100
0000
0010
0010
0010
0000
,
0100
0010
1000
0001
2002
0000
3003
0000
,
1100
0000
1010
0000
0010
0100
0001
0000
,
0101
0000
0011
0000
0010
0100
1000
0000
,
0001
0000
1000
0000
0010
0100
0001
1000
,
0020
0100
1030
0001
,
0101
0000
1100
0000
1000
0010
1000
0000
,
1100
0000
0101
0000
0001
0010
0001
0000
,
1000
0000
0010
0000
0100
0001
0100
0010
,
0000
1000
0001
2002
0000
0000
3003
0000
,
0002
0000
0013
0000
1000
0010
0001
0000
,
2000
0000
3100
0000
0001
0100
1000
0000
,
1100
1010
0011
0100
,
0011
1010
1100
1000
,
0002
0000
0103
0000
1000
0100
0001
0000
,
2000
0000
3010
0000
0001
0010
1000
0000
,
0100
0100
0100
0000
0010
0010
0010
0000
,
0100
0010
0001
1000
2002
0000
3003
0000
,
0001
0100
0001
0100
0010
0000
1001
0000
,
1000
0100
1000
0000
0001
0100
0001
0000
,
1000
0010
1000
0010
0100
0000
1001
0000
,
0001
0010
0001
0000
1000
1000
0010
0000
,
0100
0001
0100
0010
0000
1000
0010
0000
,
1000
0100
0010
0100
0000
0010
0001
0000
,
1000
0010
1000
0010
0100
0001
0100
0000
,
0210
0310
2002
3003
,
1100
0000
1010
0000
0001
1000
0001
0000
,
0101
0000
0011
0000
1000
0001
1000
0000
,
1010
0000
0110
0000
0100
0001
0100
0000
,
0020
1000
0130
0001
,
0101
0000
0011
0000
1000
0010
1000
0000
,
1100
0000
1010
0000
0001
0100
0001
0000
,
0020
0000
0001
0000
0130
0000
1000
0100
,
0000
1000
0001
2002
0000
0000
3003
0000
,
1010
0000
1000
0100
0010
0001
0100
0000
,
0101
0000
0001
0010
0100
1000
0010
0000
,
1010
0011
1010
0100
,
0011
1010
0011
0100
,
1001
0000
0001
0010
0100
1000
0010
0000
,
1001
0000
1000
0100
0010
0001
0100
0000
,
0010
0010
0010
0000
0100
0100
0100
0000
,
0010
0100
0001
1000
2002
0000
3003
0000
,
1100
0000
0001
0100
0010
0010
0010
0000
,
0101
0000
1000
0100
0010
0010
0010
0000
,
1001
0000
1000
0010
0100
0100
0100
0000
,
0001
0010
0100
1000
0010
0010
0010
0000
,
0110
0000
0100
0001
1000
1000
1000
0000
,
1100
0000
0001
0010
0100
0100
0100
0000
,
0110
0000
0010
0001
1000
1000
1000
0000
,
0010
0100
0001
1000
0010
0010
0010
0000
,
0100
0001
0010
0100
1000
0000
1001
0000
;

//--------------- dance-single - forcednature ----------------
#NOTEDATA:;
#STEPSTYPE:dance-single;
#DESCRIPTION:forcednature;
#DIFFICULTY:Hard;
#METER:15;
#RADARVALUES:0,0,0,0,0;
#CREDIT:forcednature;
#NOTES:
0000
0000
0000
0000
,
0000
0000
0000
0000
,
0000
0000
0000
0000
,
0000
0000
0000
0000
,
0001
0100
0010
1000
0001
0010
0100
1000
0020
0000
0000
0000
0030
0000
0000
0000
,
1000
0000
0100
1000
0001
0000
0200
0000
0000
0000
0310
0000
1000
0000
0001
0000
,
0010
0000
0100
1000
0001
0000
1001
0000
0000
0000
1000
0000
0010
0000
1000
0100
,
1000
0000
0001
0100
0001
0000
1000
0010
0100
0000
0001
0000
1000
0000
0001
0100
,
0001
0000
1000
0100
1000
0000
0010
0100
0001
0000
0010
0000
0100
0000
1000
0000
,
0001
0000
0100
0001
1000
0000
0200
0000
0000
0000
0310
0000
0001
0000
1000
0000
,
0010
0000
0100
0001
1000
0000
1001
0000
0000
0000
0001
0000
0010
0000
0100
1000
,
0001
0100
0101
0000
1000
0100
1100
0000
,
1010
0000
0110
0000
0101
0000
0110
0000
2002
0000
0000
0000
3003
0000
1000
0100
,
0010
0000
0100
0010
0001
0000
1000
0000
1100
0000
0001
0000
0101
0000
0000
0000
,
0010
0000
0100
0010
1000
0000
0001
0000
0101
0000
1000
0000
1100
0000
0000
0000
,
1000
0000
0100
0010
0001
0000
0100
0010
1000
0000
0000
1000
0001
0000
0010
0000
,
0200
0000
1000
0000
1300
0000
0010
0000
0110
0000
0000
0000
1001
0000
0001
0010
,
0100
0000
0010
0100
1000
0000
0001
0000
0101
0000
1000
0000
1100
0000
0000
0000
,
1000
0000
0100
0010
0001
0000
1000
0000
1100
0000
0001
0000
0101
0000
0000
0000
,
0001
0000
0010
0100
1000
0000
0010
0100
0001
0000
0000
0001
1000
0000
0100
0000
,
0000
1001
0110
1001
0000
1000
0010
0100
,
0001
0000
0100
0001
1000
0000
1200
0000
0000
0000
0310
0000
0001
0000
1000
0000
,
0010
0000
0100
0001
1000
0000
1001
0000
0000
0000
0001
0000
0010
0000
0001
0100
,
0001
0000
1000
0100
1000
0000
0001
0010
0100
0000
1000
0000
0001
0000
1000
0100
,
0010
0000
0001
0100
0010
0000
1000
0001
1000
0000
0010
0000
0100
0000
0001
0000
,
1000
0000
0100
1000
0001
0000
0201
0000
0000
0000
0310
0000
1000
0000
0001
0000
,
0010
0000
0100
1000
0001
0000
1001
0000
0000
0000
1000
0000
0010
0000
0100
0001
,
1000
0100
1100
0000
0001
0100
0101
0000
,
0011
0110
1100
0110
1001
1000
0001
0100
,
0010
0000
0000
1000
0001
0000
1000
0000
0100
0000
0002
0000
0000
0000
0103
0010
,
0100
1000
0001
0100
0001
1000
0100
0010
,
0001
0000
0000
0100
0020
0000
0000
0000
1030
0001
0100
0001
1000
0100
1000
0001
,
0010
0001
1000
0010
0100
0001
1000
0001
0100
0000
0010
0000
0110
0000
0000
0000
,
0001
0000
1000
0000
0100
0000
0002
0000
0003
0000
0100
0010
0100
0000
1000
0000
,
0001
0000
1000
0000
0010
0000
0002
0000
0003
0000
0010
0100
0010
0000
1000
0000
,
0000
0002
0023
2030
3002
0203
2300
3002
,
0103
0010
0100
0010
0100
0000
0010
0000
2002
0000
0000
0000
3003
0000
1000
0100
,
0010
0000
0100
0010
0001
0000
1000
0000
1100
0000
0010
0000
1001
0000
0000
0000
,
0010
0000
0100
0010
1000
0000
0001
0000
0101
0000
0010
0000
1001
0000
0000
0000
,
1000
0000
0100
0010
0001
0000
0100
0010
1000
0000
0000
1000
0001
0000
0010
0000
,
0002
0000
0100
0000
1003
0000
0010
0000
0110
0000
0000
0000
1001
0000
0001
0010
,
0100
0000
0010
0100
1000
0000
0001
0000
0101
0000
0010
0000
1001
0000
0000
0000
,
1000
0000
0100
0010
0001
0000
1000
0000
1100
0000
0010
0000
1001
0000
0000
0000
,
0001
0000
0010
0100
1000
0000
0010
0100
0001
1000
0001
1000
0100
0010
0100
0010
,
0000
1001
0110
1001
0000
1000
0010
0100
,
0001
0000
0010
0100
1000
0000
1020
0000
0000
0000
0130
0000
0101
0000
0001
0000
,
1000
0000
0100
0010
0001
0000
0101
0000
0000
0000
1000
0000
0010
0000
0100
0001
,
0010
0000
0100
1000
0010
0000
1000
0001
0100
0000
0010
0000
1000
0000
0100
0010
,
0001
0000
0100
0010
1000
0000
0100
1000
0001
0000
0100
0000
0010
0000
1000
0000
,
1100
0000
0100
0010
0001
0000
0201
0000
0000
0000
0310
0000
1000
0000
0001
0000
,
0011
0000
0010
0100
1000
0000
1010
0000
0000
0000
0001
0000
0100
0000
0010
1000
,
0001
0011
1100
0000
1000
1010
0101
0000
,
0011
0000
1100
0000
1010
0000
0101
0000
2002
0000
0000
0000
3003
0000
0001
1000
,
0002
0000
0000
0013
0100
0010
0001
1000
0010
0000
0100
0000
0110
0000
1000
0001
,
2000
0000
0000
3010
0100
0010
1000
0001
0010
0000
0100
0000
0110
0000
0001
1000
,
0002
0000
0000
0103
0010
0100
0001
1000
0100
0000
0010
0000
0110
0000
0000
0000
,
0100
1000
0010
0100
0001
0010
0100
1000
0010
0000
0110
0000
1001
0000
1000
0001
,
0010
0000
0100
0010
0001
0100
0010
1000
0100
0000
0010
0000
1001
0000
0001
1000
,
0010
0000
0100
0010
1000
0100
0010
0001
0100
0000
0010
0000
1001
0000
1000
0001
,
0100
0000
0010
0100
0001
0010
0100
1000
0010
0000
0100
0000
1001
0000
0000
0000
,
0001
0100
0010
1000
0100
0010
0001
1000
0010
0000
0100
0000
1001
0000
0000
0000
,
0010
1000
0100
1000
0001
0010
0100
1000
0010
0000
0000
0000
1001
0000
0000
0000
;

//--------------- dance-double - forcednature ----------------
#NOTEDATA:;
#STEPSTYPE:dance-double;
#DESCRIPTION:forcednature;
#DIFFICULTY:Easy;
#METER:7;
#RADARVALUES:0,0,0,0,0;
#CREDIT:forcednature;
#NOTES:
00000000
00000000
00000000
00000000
,
00000000
00000000
00000000
00000000
,
00000000
00000000
00000000
00000000
,
00000000
00000000
00000000
00000000
,
00001000
00010000
00022000
00033000
,
00000100
00001000
00000100
00001000
,
00000001
00000010
00000001
00000010
,
00000001
00000001
00000100
00000001
,
00001000
00001000
00000100
00001000
,
00000010
00010000
00000010
00010000
,
00001000
01000000
00001000
01000000
,
00020000
00030000
20000000
30000000
,
00010000
10000000
20020000
30030000
,
00010000
00010000
00100000
00000000
,
00001000
00001000
00010000
00000000
,
00000100
00001000
00000001
00001000
,
00002002
00000000
00003003
00000000
,
00001000
00000100
00001100
00000000
,
00010000
00001000
00011000
00000000
,
01000000
00010000
01000000
00100000
,
00000000
10000000
00010000
10000000
00000000
00000000
00000000
00000000
,
10010000
00000000
00010000
00100000
,
00001000
00000000
00010000
00000100
,
00001000
00001000
00000010
00001000
,
00000100
00000100
00000010
00000001
,
00001001
00000000
00001000
00000100
,
00000110
00000000
00000010
00000001
,
00000100
00000100
00001000
00001000
,
00010000
00001000
00022000
00033000
,
00010000
00000000
00001000
01000000
,
00010000
01000000
00001000
00010000
,
00001000
00000000
00100000
00010000
,
01000000
00100000
10000000
01000000
,
00100000
00010000
00000000
00010000
,
01000000
00001000
00000000
00001000
,
00010000
00000100
00001000
00000010
,
00001000
00000001
00002002
00003003
,
00001000
00001000
00000100
00000000
,
00010000
00010000
00001000
00000000
,
01000000
00010000
00100000
01000000
,
02200000
00000000
03300000
00000000
,
00010000
01000000
00110000
00000000
,
00010000
00100000
00110000
00000000
,
00001000
00010000
00000100
00001000
,
00000000
00000001
00001000
00000001
00000000
00000000
00000000
00000000
,
00002000
00003010
00001000
00001000
,
00000200
00001300
00000100
00000100
,
00010000
00001000
00011000
00000000
,
00001000
00010000
00011000
00000000
,
02000000
03010000
01000000
01000000
,
00200000
10300000
00100000
00100000
,
10010000
00000000
01100000
00000000
,
00010000
10000000
10010000
00000000
,
00010000
00000000
00000000
00000000
00100000
00010000
00100000
00000000
,
00001000
00000000
00000000
00000000
00010000
00001000
00010000
00000000
,
00000100
00000000
00000000
00000000
00001000
00000100
00001000
00000000
,
00000010
00000100
00000110
00001001
,
00001000
00000000
00000000
00000000
00000010
00001000
00000010
00000000
,
00010000
00000000
00000000
00000000
00001000
00010000
00001000
00000000
,
01000000
00000000
00000000
00000000
00010000
01000000
00010000
00000000
,
10000000
00000000
01000000
00000000
00100000
01000000
00100000
00000000
,
00010000
01000000
00001000
00011000
;

//--------------- dance-double - forcednature ----------------
#NOTEDATA:;
#STEPSTYPE:dance-double;
#DESCRIPTION:forcednature;
#DIFFICULTY:Medium;
#METER:11;
#RADARVALUES:0,0,0,0,0;
#CREDIT:forcednature;
#NOTES:
00000000
00000000
00000000
00000000
,
00000000
00000000
00000000
00000000
,
00000000
00000000
00000000
00000000
,
00000000
00000000
00000000
00000000
,
00001000
00010000
00001000
00010000
00022000
00000000
00033000
00000000
,
00002000
00000000
00013000
00000000
00001000
00010000
00100000
00000000
,
02000000
00000000
03100000
00000000
01000000
00010000
10000000
00000000
,
11000000
10100000
11000000
00010000
,
00110000
00101000
00011000
00000100
,
00002000
00000000
00003010
00000000
00001000
00000100
00000010
00000000
,
00000002
00000000
00000103
00000000
00000001
00000010
00000100
00000000
,
00010000
00010000
00010000
00000000
00001000
00001000
00001000
00000000
,
00100000
00010000
00100000
01000000
02200000
00000000
03300000
00000000
,
11000000
00000000
10100000
00000000
00100000
01000000
00010000
00000000
,
01010000
00000000
01001000
00000000
00001000
00010000
00000010
00000000
,
00001000
00000000
00000010
00000000
00000100
00000001
00001000
00000001
,
00000020
00000100
00000031
00000010
,
00000011
00000000
00000101
00000000
00000100
00000010
00001000
00000000
,
00001100
00000000
00010100
00000000
00010000
00001000
00100000
00000000
,
00010000
00000000
01000000
00000000
00100000
10000000
00010000
10000000
,
00000000
00010000
10000000
20020000
00000000
00000000
30030000
00000000
,
00020000
00000000
00130000
00000000
00001000
00010000
00001000
00000000
,
00020000
00000000
00030100
00000000
00001000
00000100
00000010
00000000
,
00000011
00000101
00000110
00001000
,
00001100
00010100
00011000
01000000
,
00020000
00000000
00130000
00000000
00010000
10000000
00100000
00000000
,
02000000
00000000
03010000
00000000
01000000
00001000
00010000
00000000
,
00000010
00000010
00000010
00000000
00001000
00001000
00001000
00000000
,
00000100
00000010
00000001
00001000
00002002
00000000
00003003
00000000
,
00000001
00000100
00000001
00000100
00000010
00000000
00001001
00000000
,
00001000
00000100
00010000
00000000
00001000
00100000
00010000
00000000
,
01000000
00100000
01000000
00100000
10000000
00000000
10010000
00000000
,
00010000
00100000
00001000
00000000
00010000
00010000
00010000
00000000
,
00000100
00001000
00000100
00010000
00000000
00001000
00010000
00000000
,
00000010
00001000
00000100
00001000
00000000
00000100
00000010
00000000
,
00000001
00000100
00000001
00000100
00000010
00001000
00000010
00000000
,
00020000
00031000
00022000
00033000
,
01001000
00000000
01010000
00000000
00010000
10000000
00010000
00000000
,
00110000
00000000
00101000
00000000
00010000
00001000
00010000
00000000
,
00011000
00000000
00010100
00000000
00000100
00001000
00000100
00000000
,
00000020
00000001
00000130
00000010
,
00000011
00000000
00000101
00000000
00000100
00000010
00001000
00000000
,
00001100
00000000
00010100
00000000
00010000
00001000
00010000
00000000
,
00002000
00000000
01000000
00000000
00013000
00000000
00001000
00010000
,
00000000
00100000
00100000
00200000
00000000
00000000
00300000
00000000
,
10010000
00000000
10000000
01000000
00100000
00010000
01000000
00000000
,
01010000
00000000
00010000
00100000
00001000
00010000
00001000
00000000
,
00011000
00001100
00011000
00100000
,
00011000
01010000
00011000
00000010
,
00000110
00000000
00000100
00000001
00001000
00000001
00000010
00000000
,
00000110
00000000
00000100
00010000
00001000
00100000
00010000
00000000
,
01000000
01000000
01000000
00000000
00100000
00100000
00100000
00000000
,
01000000
00010000
10000000
00010000
20020000
00000000
30030000
00000000
,
11000000
00000000
00010000
01000000
00001000
00001000
00001000
00000000
,
00011000
00000000
00010000
00000100
00000010
00000010
00000010
00000000
,
00000110
00000000
00000100
00001000
00000001
00000001
00000001
00000000
,
00000100
00001000
00010000
00001000
00010000
00010000
00010000
00000000
,
00011000
00000000
00001000
00100000
00010000
00010000
00010000
00000000
,
10010000
00000000
10000000
00100000
01000000
01000000
01000000
00000000
,
01100000
00000000
00010000
00100000
00001000
00001000
00001000
00000000
,
00010000
00000100
00001000
00000010
00010000
00010000
00010000
00000000
,
00001000
01000000
00010000
10000000
00100000
00000000
01100000
00000000
;

//--------------- dance-double - forcednature ----------------
#NOTEDATA:;
#STEPSTYPE:dance-double;
#DESCRIPTION:forcednature;
#DIFFICULTY:Hard;
#METER:16;
#RADARVALUES:0,0,0,0,0;
#CREDIT:forcednature;
#NOTES:
00000000
00000000
00000000
00000000
,
00000000
00000000
00000000
00000000
,
00000000
00000000
00000000
00000000
,
00000000
00000000
00000000
00000000
,
00001000
00010000
00001000
00010000
00001000
00010000
00001000
00010000
00002000
00000000
00000000
00000000
00003000
00000000
00000000
00000000
,
00011000
00000000
00001000
00010000
00100000
00000000
02000000
00000000
00000000
00000000
03100000
00000000
00010000
00000000
00001000
00000000
,
00011000
00000000
00010000
00001000
00000010
00000000
00000110
00000000
00000000
00000000
00000100
00000000
00001000
00000000
00000001
00000100
,
00000010
00000000
00001000
00000100
00000010
00000000
00000100
00010000
00001000
00000000
00100000
00000000
00010000
00000000
00100000
01000000
,
10000000
00000000
00100000
01000000
00010000
00000000
10000000
01000000
00100000
00000000
00010000
00000000
01000000
00000000
00001000
00000000
,
00011000
00000000
00010000
00001000
00000010
00000000
00000200
00000000
00000000
00000000
00000310
00000000
00001000
00000000
00010000
00000000
,
00011000
00000000
00001000
00010000
00100000
00000000
01100000
00000000
00000000
00000000
01000000
00000000
00010000
00000000
00100000
01000000
,
10000000
01000000
00010000
00000000
00001000
00000100
00000001
00000000
,
00001001
00000000
00001001
00000000
00000110
00000000
00000110
00000000
00002002
00000000
00000000
00000000
00003003
00000000
00000001
00000100
,
00000010
00000000
00000100
00000010
00001000
00000000
00000100
00000000
00010100
00000000
00001000
00000000
00011000
00000000
00000000
00000000
,
00100000
00000000
00010000
00100000
01000000
00000000
10000000
00000000
10100000
00000000
00010000
00000000
01010000
00000000
00000000
00000000
,
01000000
00000000
00010000
00100000
00010000
00000000
01000000
00001000
00010000
00000000
00000000
00010000
00001000
00000000
00000010
00000000
,
00000002
00000000
00000000
00000000
00000103
00000000
00000010
00000000
00000110
00000000
00000000
00000000
00001001
00000000
00001000
00000100
,
00000010
00000000
00000100
00010000
00001000
00000000
00100000
00000000
00110000
00000000
00001000
00000000
00011000
00000000
00000000
00000000
,
01000000
00000000
00010000
00100000
01000000
00000000
10000000
00000000
11000000
00000000
00010000
00000000
00110000
00000000
00000000
00000000
,
00001000
00000000
00010000
00001000
01000000
00000000
00001000
00010000
00000100
00000000
00000000
00000100
00000010
00000000
00000001
00000000
,
00000000
00001001
00000110
00001001
00000000
00001000
00000010
00010000
,
00011000
00000000
00001000
00010000
01000000
00000000
00200000
00000000
00000000
00000000
01300000
00000000
00010000
00000000
00001000
00000000
,
00011000
00000000
00010000
00001000
00000100
00000000
00000110
00000000
00000000
00000000
00000010
00000000
00000100
00000000
00000001
00000010
,
00000100
00000000
00001000
00000010
00010000
00000000
00001000
01000000
00010000
00000000
00100000
00000000
10000000
00000000
00100000
01000000
,
00010000
00000000
00100000
00001000
00010000
00000000
00001000
01000000
00010000
00000000
00100000
00000000
00001000
00000000
00010000
00000000
,
00011000
00000000
00010000
00001000
00000100
00000000
00000020
00000000
00000000
00000000
00000130
00000000
00001000
00000000
00010000
00000000
,
00011000
00000000
00001000
00010000
01000000
00000000
01100000
00000000
00000000
00000000
00100000
00000000
01000000
00000000
00100000
00010000
,
10000000
00100000
00010000
00000000
00001000
00000010
00000001
00000000
,
00001001
00001001
00000110
00000110
00001001
00001000
00000001
00000100
,
00002000
00000000
00000000
00000000
00013000
00000000
00100000
00000000
10000000
00000000
02000000
00000000
00000000
00000000
03100000
00010000
,
10000000
10000000
10000000
00000000
00100000
01000000
00100000
00010000
,
00002000
00000000
00000000
00000000
00003200
00000000
00000000
00000000
00000301
00000100
00000001
00000100
00000010
00001000
00000001
00000010
,
00000100
00001000
00000100
00010000
00001000
00100000
00010000
00100000
01000000
00000000
00100000
00000000
01100000
00000000
00000000
00000000
,
00010000
00000000
10000000
00000000
01000000
00000000
00020000
00000000
00030000
00000000
00010000
00001000
00000010
00000000
00000100
00000000
,
00001000
00000000
00000001
00000000
00000100
00000000
00002000
00000000
00003000
00000000
00001000
00010000
00100000
00000000
01000000
00000000
,
00000000
20000000
32000000
03200000
00320000
00032000
00003200
00000302
,
00000013
00000100
00000010
00000100
00000010
00000000
00000100
00000000
00002002
00000000
00000000
00000000
00003003
00000000
00000001
00000100
,
00000010
00000000
00001000
00000100
00000010
00000000
00000100
00000000
00010100
00000000
00001000
00000000
00011000
00000000
00000000
00000000
,
00100000
00000000
00010000
00100000
01000000
00000000
10000000
00000000
10100000
00000000
01000000
00000000
01010000
00000000
00000000
00000000
,
00010000
00000000
00100000
00001000
00010000
00000000
00000100
00001000
00000010
00000000
00000000
00000010
00000100
00000000
00001000
00000000
,
00020000
00000000
00000000
00000000
00130000
00000000
01000000
00000000
01100000
00000000
00000000
00000000
10010000
00000000
10000000
00100000
,
01000000
00000000
00010000
00100000
01000000
00000000
00010000
00000000
00011000
00000000
00001000
00000000
00110000
00000000
00000000
00000000
,
00001000
00000000
00010000
00000010
00001000
00000000
00000100
00000000
00000110
00000000
00000001
00000000
00000101
00000000
00000000
00000000
,
00001000
00000000
00000100
00010000
00001000
00000000
01000000
00001000
00010000
00001000
00010000
00001000
00100000
00010000
00100000
01000000
,
00000000
01100000
01100000
10010000
00000000
10000000
00100000
00010000
,
00011000
00000000
00001000
00010000
00100000
00000000
02000000
00000000
00000000
00000000
03100000
00000000
00010000
00000000
00001000
00000000
,
00011000
00000000
00010000
00001000
00000010
00000000
00000110
00000000
00000000
00000000
00000100
00000000
00001000
00000000
00000010
00010000
,
00001000
00000000
00010000
00000100
00001000
00000000
00000001
00000010
00000100
00000000
00001000
00000000
00000010
00000000
00010000
00001000
,
01000000
00000000
00010000
00100000
01000000
00000000
10000000
00010000
01000000
00000000
00100000
00000000
00010000
00000000
00001000
00000000
,
00011000
00000000
00010000
00001000
00000010
00000000
00000200
00000000
00000000
00000000
00000310
00000000
00001000
00000000
00010000
00000000
,
00011000
00000000
00001000
00010000
00100000
00000000
01100000
00000000
00000000
00000000
01000000
00000000
00010000
00000000
00100000
01000000
,
10000000
00100000
00010000
00000000
00001000
00000010
00000001
00000000
,
00001001
00000000
00001001
00000000
00000110
00000000
00000110
00000000
00002002
00000000
00000000
00000000
00003003
00000000
00001000
00000001
,
00001000
00000000
00000010
00000100
00000001
00000100
00000010
00001000
00000010
00000000
00000010
00000000
00000010
00000000
00001000
00000100
,
00010000
00000000
00001000
00010000
00001000
00100000
00010000
00100000
00001000
00000000
00001000
00000000
00001000
00000000
01000000
00010000
,
01000000
00000000
00100000
10000000
00010000
00100000
00010000
10000000
01000000
00000000
01000000
00000000
01000000
00000000
00000000
00000000
,
00100000
00010000
00100000
00001000
00010000
00000100
00001000
00000100
00000010
00000000
00000100
00000000
00000110
00000000
00000010
00000001
,
00000010
00000000
00000100
00001000
00000100
00010000
00001000
00010000
00000010
00000000
00000010
00000000
00000010
00000000
00001000
00000001
,
00001000
00000000
00000010
00010000
00001000
01000000
00010000
01000000
00100000
00000000
00100000
00000000
00100000
00000000
10000000
00010000
,
01000000
00000000
00100000
10000000
00100000
01000000
00010000
01000000
00001000
00000000
00001000
00000000
00001000
00000000
00000000
00000000
,
00010000
00000100
00001000
00000001
00001000
00000010
00010000
00001000
00100000
00000000
00010000
00000000
00110000
00000000
00000000
00000000
,
00001000
01000000
00010000
10000000
00010000
00100000
00001000
00010000
00000010
00000000
00000000
00000000
00001001
00000000
00000000
00000000
;
