#VERSION:0.83;
#TITLE:I/O;
#SUBTITLE:;
#ARTIST:Ryu☆;
#TITLETRANSLIT:;
#SUBTITLETRANSLIT:;
#ARTISTTRANSLIT:;
#GENRE:;
#CREDIT:;
#MUSIC:I-O.ogg;
#BANNER:I-O.png;
#BACKGROUND:I-O-bg.png;
#CDTITLE:;
#SAMPLESTART:73.682;
#SAMPLELENGTH:15.000;
#SELECTABLE:YES;
#OFFSET:1.020;
#BPMS:0.000=151.000;
#STOPS:;
#TIMESIGNATURES:0.000=4=4;
#BGCHANGES:0.000=../BGAs/06hy.mp4=1.000=0=0=0=StretchNoLoop====,
99999.000=-nosongbg-=1.000=0=0=0=StretchNoLoop====
;
#FGCHANGES:;

//--------------- dance-single - extraordiberry vs. forcednature ----------------
#NOTEDATA:;
#STEPSTYPE:dance-single;
#DESCRIPTION:extraordiberry vs. forcednature;
#DIFFICULTY:Beginner;
#METER:3;
#RADARVALUES:0,0,0,0,0;
#CREDIT:extraordiberry vs. forcednature;
#NOTES:
0000
0000
0000
0000
,
0000
0000
0000
0000
,
0000
0000
0000
0000
,
0001
0000
0000
0000
,
0001
0000
0001
0000
,
1000
0000
0000
0000
,
1000
0000
1000
0000
,
0010
0000
0000
0000
,
0100
0000
0010
0000
,
0100
0000
0100
0000
,
0010
0000
0000
0000
,
2002
0000
0000
0000
,
0000
0000
0000
0000
,
0000
0000
0000
0000
,
0000
0000
3003
0000
,
1000
0000
1000
0000
,
0001
0000
0001
0000
,
0100
0000
0100
0000
,
0010
0010
0010
0000
,
2002
0000
0000
0000
,
0000
0000
3003
0000
,
1000
0000
0000
0000
,
0100
0000
1000
0000
,
0001
0000
0000
0000
,
0100
0000
0001
0000
,
0010
0000
0000
0000
,
0100
0000
0010
0000
,
0001
0000
0001
0000
,
1000
0000
0000
0000
,
1001
0000
0000
0000
,
0001
0000
1000
0000
,
1001
0000
0000
0000
,
1000
1000
1000
0000
,
1001
0000
0000
0000
,
0001
0001
0000
0010
,
0001
0000
0001
0000
,
0100
0000
0010
0000
,
1001
0000
0000
0000
,
1000
1000
0100
0000
,
1001
0000
0000
0000
,
0001
0001
0100
0000
,
0010
0000
0010
0000
,
1000
0000
0010
0000
,
1000
0000
1000
0000
,
0100
0000
0000
0000
,
2002
0000
0000
0000
,
0000
0000
3003
0000
,
0001
0000
0000
0000
,
0010
0000
0001
0000
,
1000
0000
0001
0000
,
0100
0000
0000
0000
,
0110
0000
0000
0000
,
0010
0000
1000
0000
,
0001
0000
1000
0000
,
0100
0000
0000
0000
,
1001
0000
0000
0000
,
0001
0000
0010
0000
,
0100
0000
0010
0000
,
0001
1000
0001
0000
,
1001
0000
1000
0000
,
1001
0000
0001
0000
,
1000
1000
0001
1000
,
0010
0100
0010
0000
,
2002
0000
0000
0000
,
3003
0000
0000
0000
;

//--------------- dance-single - extraordiberry vs. forcednature ----------------
#NOTEDATA:;
#STEPSTYPE:dance-single;
#DESCRIPTION:extraordiberry vs. forcednature;
#DIFFICULTY:Easy;
#METER:7;
#RADARVALUES:0,0,0,0,0;
#CREDIT:extraordiberry vs. forcednature;
#NOTES:
0000
0000
0000
0000
,
0000
0000
0000
0000
,
0000
0000
0000
0000
,
0001
0100
0001
1000
,
0010
0100
0001
0000
,
1000
0100
1000
0001
,
0010
0000
0001
1000
,
1001
0001
0100
0001
,
0000
1000
0100
1000
,
0001
0001
1000
1000
,
0010
0100
0002
0003
,
2002
0000
0000
0000
,
0000
0000
3003
0000
,
0220
0000
0000
0000
,
0000
0000
0330
0000
,
1000
1000
1000
0000
,
0001
0001
0001
0000
,
0100
0100
0010
1000
,
0001
0100
0010
0000
,
2002
0000
0000
0000
,
0000
0000
3003
0000
,
1000
0100
0010
0100
,
1000
0001
0010
0001
,
1000
0010
0100
0001
,
1000
0100
0000
0100
,
1001
0001
0010
0100
,
1000
0010
1000
0100
,
1000
1000
0001
1000
,
0001
0000
0100
0010
,
1001
1000
0100
0001
,
0100
1000
0100
0000
,
1001
0001
0100
1000
,
0100
0000
0001
1000
,
1001
0001
0010
0001
,
0000
1001
0000
1000
,
0010
0010
1000
0001
,
0200
0010
0310
0110
,
2002
0000
0000
3003
,
0010
0100
0220
0330
,
2002
0000
0000
3003
,
0100
0010
0220
0330
,
0001
0001
1000
0001
,
0100
0100
0001
0100
,
0010
1000
0001
1000
,
0010
0100
0110
0000
,
2002
0000
0000
0000
,
0000
0000
3003
0000
,
1000
0000
0010
1000
0010
0000
0100
0000
,
0001
0000
0010
0001
0010
0000
0100
0000
,
1000
0000
0001
1000
0001
0000
0100
0000
,
1001
0110
2002
3003
,
1000
0000
0010
1000
0010
0000
0100
0000
,
0001
0000
0010
0001
0010
0000
0100
0000
,
1000
0000
0001
1000
0001
0000
0100
0000
,
0110
1001
0220
0330
,
0001
0000
1000
0100
1000
0000
0001
0000
,
0010
0000
0001
0100
0001
0000
1000
0000
,
0010
0000
0100
0010
1000
0000
0001
0000
,
1001
0110
2002
3003
,
1000
0000
0100
0010
0100
0000
1000
0000
,
0001
0000
0100
0010
0100
0000
0001
0000
,
0010
0000
0100
1000
0100
0000
0001
0000
,
0100
1001
0220
0330
,
2002
0000
0000
0000
,
3003
0000
0000
0000
;

//--------------- dance-single - extraordiberry vs. forcednature ----------------
#NOTEDATA:;
#STEPSTYPE:dance-single;
#DESCRIPTION:extraordiberry vs. forcednature;
#DIFFICULTY:Medium;
#METER:11;
#RADARVALUES:0,0,0,0,0;
#CREDIT:extraordiberry vs. forcednature;
#NOTES:
0000
0000
0000
0000
,
0000
0000
0000
0000
,
0000
0000
0000
0000
,
1001
0001
0100
1000
,
0100
0001
1000
0000
0010
0000
0110
0000
,
1001
0000
1000
0000
0100
0000
0001
0100
,
1000
0000
0100
0000
0000
0000
1000
0000
0001
0000
0000
0001
0000
0000
0010
0000
,
0001
0000
0011
0000
1000
0000
0100
2000
,
0000
3000
0001
0000
0010
0001
0100
0000
,
0010
1000
0000
1000
0100
1000
0001
0000
,
0100
0010
0100
0010
1000
0001
0010
0000
,
2002
0000
0000
0000
,
0000
0000
0000
3003
,
0220
0000
0000
0000
,
0000
0000
0000
0330
,
0001
0000
0100
0000
0000
0010
0000
0000
1000
0000
0000
0001
0000
0000
0100
0000
,
0001
0000
1000
0000
0000
0100
0000
0000
0010
0000
0000
0001
0000
0000
1000
0000
,
0010
0000
0100
0000
0000
0001
0000
0000
1000
0000
0000
0010
0000
0000
0100
0000
,
0001
0000
1000
0000
0000
0001
0000
0000
0010
0000
0000
0100
0000
0000
0220
0000
,
0000
0000
0000
0000
,
0000
0000
0000
0330
,
1001
0000
1100
0000
0001
0010
1000
0000
,
0010
0001
0100
0001
1000
0001
0100
0000
,
1001
0000
1010
0000
1000
0010
0001
0000
,
0010
1000
0100
1000
0000
0001
0100
0010
,
1000
0000
1100
0000
0001
0010
1000
0010
,
0001
0000
0101
0000
1000
0010
0001
0010
,
1000
0001
0000
0001
0100
0010
0000
0010
,
1000
0000
0001
0000
0000
0010
0000
0000
0100
0000
0000
0110
0000
0000
1000
0000
,
0001
0000
0001
0100
0001
0100
0001
1000
,
0001
0100
0010
1000
0001
0000
0110
0000
,
1001
0000
1000
0100
1000
0100
1000
0001
,
0010
0000
0010
0000
0000
0000
0001
0000
1000
0000
0000
1000
0000
0000
0001
0000
,
0100
0000
0100
0010
0100
0010
1000
0001
,
0020
0000
0000
0000
0130
0000
0000
0000
1000
0000
0000
0001
2000
0000
0000
0000
,
3010
0100
0000
0100
1000
0100
0001
0000
,
1000
0100
0010
0001
0100
0010
0110
0000
,
2002
0000
0000
3003
,
1100
0101
2200
3300
,
2002
0000
0000
3003
,
0101
1100
0202
0303
,
1000
0000
1000
0100
0010
0100
1000
0001
,
0100
0101
0110
1010
,
0010
1000
0100
0001
0100
0000
1000
0000
,
1010
0110
0202
0303
,
1000
1000
0001
0000
1000
0001
1000
0000
,
0010
0100
0001
1000
0020
0000
0030
0000
,
1000
0000
1000
0000
0100
0000
1000
0000
0001
0000
0000
0010
0000
0000
0100
0000
,
1000
0000
1000
0000
0010
0000
0100
0000
0001
0000
0000
0100
0000
0000
1000
0000
,
0100
0000
0100
0000
0001
0000
0100
0000
0010
0000
0000
1000
0000
0000
0001
0000
,
0010
0100
1000
0001
0100
0000
1001
0000
,
0001
0000
0001
0000
1000
0000
0010
0000
0100
0000
0000
0001
0000
0000
1000
0000
,
0100
0000
0100
0000
0010
0000
0100
0000
1000
0000
0000
0001
0000
0000
0100
0000
,
0010
0000
0010
0000
1000
0000
0001
0000
0010
0000
0000
0001
0000
0000
1000
0000
,
0010
0000
0000
0100
0000
0000
0001
0000
0010
0000
0000
0000
1001
0000
0000
0000
,
0001
0000
0010
0000
1000
0000
0010
0000
0001
0000
0000
0100
0000
0000
0010
0000
,
1000
0000
0010
0000
0001
0000
0010
0000
1000
0000
0000
0100
0000
0000
0010
0000
,
0001
0000
0100
0000
1000
0000
0100
0000
0001
0000
0000
0010
0000
0000
0100
0000
,
1000
1000
0001
0100
0010
0000
1001
0000
,
1000
0000
0010
0000
1000
0000
0010
0000
0001
0000
0000
0010
0000
0000
1000
0000
,
0001
0000
0100
0000
0001
0000
0100
0000
1000
0000
0000
0100
0000
0000
0001
0000
,
0010
0000
0001
0000
0100
0000
0010
0000
1000
0000
0000
0100
0000
0000
0001
0000
,
0100
0000
0000
1000
0000
0000
0010
0000
0100
0000
0000
0000
0110
0000
0000
0000
,
2002
0000
0000
0000
,
3003
0000
0000
0000
;

//--------------- dance-single - extraordiberry vs. forcednature ----------------
#NOTEDATA:;
#STEPSTYPE:dance-single;
#DESCRIPTION:extraordiberry vs. forcednature;
#DIFFICULTY:Hard;
#METER:15;
#RADARVALUES:0,0,0,0,0;
#CREDIT:extraordiberry vs. forcednature;
#NOTES:
0000
0000
0000
0000
,
0000
0000
0000
0000
,
0000
0000
0000
0000
,
1001
0000
0101
0000
1001
0000
1000
0100
,
0010
0100
1000
0001
0200
0000
0310
0000
,
1001
0000
0000
0000
1100
0000
0000
0000
1001
0000
0000
0000
1000
0000
0010
1000
,
0001
0000
0010
0000
0000
0000
0100
0010
0100
0000
0000
0110
0000
0000
0001
0000
,
1000
0000
0010
0000
0100
0000
0001
0100
0001
0000
1000
0000
0100
0000
0002
0000
,
0000
0000
0003
0000
0100
0000
1000
0100
1000
0000
0001
0000
0010
0001
1000
0000
,
0010
0000
0110
0000
0000
0000
0101
0000
0000
0000
0100
0000
0001
1000
0010
1000
,
0001
0010
0001
1000
0100
1000
0001
0100
0001
1000
0100
0010
0000
0000
0000
0000
,
2002
0000
0000
0000
,
0000
0000
0000
3003
,
0220
0000
0000
0000
,
0000
0000
0000
0330
,
0001
0000
1000
0000
0100
1000
0000
1000
0100
0000
0010
0100
0000
0010
0001
0000
,
1000
0000
0001
0000
0100
0001
0000
0001
0100
0000
0010
0100
0000
0010
1000
0000
,
0100
0000
1000
0000
0001
0100
0000
0100
0010
0000
1000
0001
0000
1000
0100
0000
,
0010
0001
1000
0010
1000
0001
0100
0001
1000
0100
0010
0001
1000
0100
0010
0001
,
2000
0001
0001
0010
,
3001
0000
1000
0000
0001
1000
0001
1000
0001
0010
0100
1000
0010
0000
0000
0000
,
1001
0000
1000
0000
0100
0010
0001
0010
0000
0001
1000
0001
0000
0010
0100
0000
,
1000
0000
0001
0000
0100
0010
1000
0010
0000
1000
0001
1000
0000
0010
0100
0000
,
0001
0000
1000
0000
0100
0010
0001
0010
0000
0001
0100
0001
0000
1000
0100
0000
,
0010
0000
0001
0000
0100
0010
1000
0010
0000
1000
0200
0000
0302
0000
0203
0000
,
0310
0000
0001
0000
0100
0010
1000
0001
0000
0010
0100
1000
0000
0001
0100
0000
,
0010
0000
1000
0000
0100
0010
0001
1000
0000
0010
0100
0001
0000
1000
0100
0000
,
0010
0000
0001
0100
0010
0000
1000
0100
0010
0000
0001
0100
0010
1000
0010
1000
,
0001
0010
0100
0000
0000
1100
0000
0000
0101
0000
0000
0110
0000
0000
1001
0000
,
1000
0000
0010
0000
0100
0000
0010
1000
0001
0000
0100
0000
1000
0000
0100
0000
,
0001
0000
0100
0000
0010
0000
1000
0100
0010
0000
0001
0000
1001
0000
0000
0000
,
0001
0000
0010
0000
0100
0000
0010
0001
1000
0000
0100
0000
0001
0000
0100
0010
,
0100
0000
0110
0000
0000
0000
1000
0001
1000
0000
0001
1000
0000
0000
1001
0000
,
0001
0000
0100
0000
0010
0000
0100
0001
1000
0000
0010
0000
0100
0000
2000
0000
,
0000
0000
3000
0000
0100
0000
0010
0100
0001
0000
1000
0000
0100
1000
0001
0000
,
0010
0000
0110
0000
0000
0000
1100
0000
0000
0000
0101
0000
0100
0001
0100
0001
,
1000
0100
1000
0100
0010
0001
0010
0001
1000
0100
0010
0001
0100
0000
0000
0000
,
2002
0000
0000
3003
,
0101
1100
2002
3003
,
0220
0000
0000
0330
,
0011
1010
2002
3003
,
1000
0000
0100
0000
1000
0000
0010
0000
1000
0000
0100
0000
1000
0000
0010
0100
,
0001
0000
0010
0000
0001
0000
0100
0000
0001
1000
0100
1000
0001
0100
0001
1000
,
0010
0000
0100
0001
0010
0000
0100
1000
0010
0000
0100
0001
1000
0100
0010
0001
,
0100
0110
2002
3003
,
1000
0010
1000
0010
1000
0001
0010
0001
1000
0100
1000
0001
0010
0001
1000
0010
,
1000
0100
0010
0001
1000
0000
0010
0000
0220
0000
0000
0000
0330
0000
0000
0000
,
1001
0000
1000
0000
0100
1000
0001
0100
0001
0000
1000
0010
0000
0010
0100
0000
,
0001
0000
0010
0000
0001
1000
0001
0100
0010
0000
1000
0100
0000
0010
0100
0000
,
1000
0000
0001
0000
0100
0010
1000
0010
0100
0001
1000
0100
0000
0010
0100
0000
,
1000
0000
0010
0000
0001
0000
0010
0000
1000
0001
0000
0000
1001
0000
0000
0000
,
0101
0000
0001
0000
0100
0001
1000
0100
1000
0000
0001
0010
0000
0010
0100
0000
,
1000
0000
0010
0000
1000
0001
1000
0100
0010
0000
0001
0100
0000
0010
0100
0000
,
1000
0000
0100
0000
0001
0000
0010
0000
1000
0000
0000
0010
0000
0001
0010
0000
,
0001
0000
0100
1000
0000
0100
0001
0100
0010
1000
0010
0000
1001
0000
0000
0000
,
0011
0000
0001
0000
1000
0100
0010
0100
0001
0000
0100
1000
0000
0001
0100
0000
,
0010
0000
1000
0000
0001
0100
0010
0100
1000
0000
0100
0001
0000
1000
0100
0000
,
0010
0000
0001
0000
0100
0010
1000
0001
0010
0100
0001
0100
0000
1000
0100
0000
,
1100
1000
1001
0001
0101
0000
0110
0000
,
1001
0000
1000
0000
0001
0100
0010
1000
0100
0000
0010
0001
0000
1000
0010
0000
,
1001
0000
0001
0000
1000
0100
0010
0001
0100
0010
1000
0001
0000
0010
0100
0000
,
1000
0001
0100
0001
1000
0100
1000
0001
0100
0010
1000
0100
0010
0001
0100
0010
,
1000
0000
0100
0001
0000
0100
1000
0000
0001
0010
0100
1000
0010
0000
0000
0000
,
2002
0000
0000
0000
,
3003
0000
0000
0000
;

//--------------- dance-double - extraordiberry vs. forcednature ----------------
#NOTEDATA:;
#STEPSTYPE:dance-double;
#DESCRIPTION:extraordiberry vs. forcednature;
#DIFFICULTY:Easy;
#METER:7;
#RADARVALUES:0,0,0,0,0;
#CREDIT:extraordiberry vs. forcednature;
#NOTES:
00000000
00000000
00000000
00000000
,
00000000
00000000
00000000
00000000
,
00000000
00000000
00000000
00000000
,
00001000
00010000
00000100
00010000
,
00001000
00100000
00010000
00000000
,
01000000
00100000
10000000
00100000
,
01000000
00000000
00010000
10000000
,
10010000
00000000
00010000
00100000
,
00000000
00001000
00010000
00000100
,
00010000
00010000
00001000
00001000
,
00010000
00000010
00002000
00003000
,
00002002
00000000
00000000
00000000
,
00000000
00000000
00003003
00000000
,
00000220
00000000
00000000
00000000
,
00000000
00000000
00000330
00000000
,
00001000
00001000
00001000
00000000
,
00000100
00000100
00000100
00000000
,
00010000
00010000
00010000
00000000
,
00001000
00010000
00001000
00000000
,
00022000
00000000
00000000
00000000
,
00000000
00000000
00033000
00000000
,
00100000
00010000
01000000
00010000
,
00100000
01000000
10000000
00000000
,
01000000
00100000
00010000
00100000
,
00001000
00010000
00000000
00001000
,
00011000
00010000
00000100
00001000
,
00000100
00000010
00000001
00000000
,
00000100
00000100
00000010
00000100
,
00001000
00000000
00010000
00000000
,
00011000
00000000
00010000
00001000
,
01000000
00010000
01000000
00000000
,
10010000
00000000
10000000
01000000
,
00100000
00000000
00010000
10000000
,
10010000
00000000
00010000
00100000
,
00000000
00011000
00000000
00000100
,
00001000
00001000
00000001
00001000
,
00000020
00000100
00000130
00000110
,
00002002
00000000
00000000
00003003
,
00001000
00000100
00020000
00030000
,
00022000
00000000
00000000
00033000
,
01000000
00010000
20000000
30000000
,
00010000
00010000
00100000
00001000
,
00010000
00010000
00000100
00001000
,
00000010
00000100
00000001
00000100
,
00000010
00001000
00001001
00000000
,
00000220
00000000
00000000
00000000
,
00000000
00000000
00000330
00000000
,
00001000
00000000
00000100
00001000
00000100
00000000
00010000
00000000
,
00001000
00000000
00100000
00010000
00100000
00000000
01000000
00000000
,
10000000
00000000
00010000
10000000
00010000
00000000
01000000
00000000
,
00001000
00010000
00022000
00033000
,
00000100
00000000
00001000
00000100
00001000
00000000
00000010
00000000
,
00000100
00000000
00000001
00000100
00000001
00000000
00000010
00000000
,
00000100
00000000
00010000
00001000
00010000
00000000
00001000
00000000
,
00100000
00010000
20020000
30030000
,
10000000
00000000
01000000
00100000
00010000
00000000
00100000
00000000
,
00001000
00000000
00010000
00000100
00001000
00000000
00000001
00000000
,
00000100
00000000
00000010
00001000
00000001
00000000
00000010
00000000
,
00000100
00000110
00002002
00003003
,
00001000
00000000
00000100
00001000
00000100
00000000
00010000
00000000
,
00001000
00000000
00100000
00001000
00010000
00000000
00001000
00000000
,
01000000
00000000
00010000
10000000
00100000
00000000
10000000
00000000
,
01000000
10010000
02200000
03300000
,
20020000
00000000
00000000
00000000
,
30030000
00000000
00000000
00000000
;

//--------------- dance-double - extraordiberry vs. forcednature ----------------
#NOTEDATA:;
#STEPSTYPE:dance-double;
#DESCRIPTION:extraordiberry vs. forcednature;
#DIFFICULTY:Medium;
#METER:11;
#RADARVALUES:0,0,0,0,0;
#CREDIT:extraordiberry vs. forcednature;
#NOTES:
00000000
00000000
00000000
00000000
,
00000000
00000000
00000000
00000000
,
00000000
00000000
00000000
00000000
,
00011000
00010000
00001000
00000010
,
00000001
00000010
00001000
00000000
00010000
00000000
00000100
00000000
,
00011000
00000000
00001000
00000000
00010000
00000000
00100000
10000000
,
01000000
00000000
10000000
00000000
00000000
00000000
00010000
00000000
00100000
00000000
00000000
00100000
00000000
00000000
00001000
00000000
,
00010000
00000000
00011000
00000000
00001000
00000000
00000100
00000002
,
00000000
00000003
00000010
00000000
00000100
00000010
00000001
00000000
,
00000100
00000010
00000000
00000010
00000100
00001000
00000000
00001000
,
00010000
00100000
00010000
00100000
10000000
00100000
01000000
00000000
,
20020000
00000000
00000000
00000000
,
00000000
00000000
00000000
30030000
,
00002000
00000000
00000000
00000000
,
00000000
00000000
00000000
00003000
,
00001000
00000000
00010000
00000000
00000000
00001000
00000000
00000000
00000100
00000000
00000000
00000001
00000000
00000000
00000100
00000000
,
00000010
00000000
00001000
00000000
00000000
00000010
00000000
00000000
00000100
00000000
00000000
00000001
00000000
00000000
00000010
00000000
,
00000100
00000000
00000010
00000000
00000000
00000100
00000000
00000000
00010000
00000000
00000000
00001000
00000000
00000000
00100000
00000000
,
00010000
00000000
01000000
00000000
00000000
10000000
00000000
00000000
01000000
00000000
00000000
00010000
00000000
00000000
02020000
00000000
,
00000000
00000000
00000000
00000000
,
00000000
00000000
00000000
03030000
,
10010000
00000000
11000000
00000000
01000000
00100000
00001000
00000000
,
00010000
00000100
00001000
00000100
00010000
00001000
00010000
00000000
,
00011000
00000000
00010010
00000000
00000010
00001000
00000001
00000000
,
00000100
00000010
00000100
00001000
00000000
00010000
00001000
00010000
,
00100000
00000000
01100000
00000000
01000000
00010000
01000000
00100000
,
10000000
00000000
11000000
00000000
01000000
00100000
00001000
00010000
,
00000100
00010000
00000000
00010000
00001000
00000010
00000000
00000010
,
00000001
00000000
00000100
00000000
00000000
00001000
00000000
00000000
00010000
00000000
00000000
01000000
00000000
00000000
10000000
00000000
,
00100000
00000000
00100000
10000000
00100000
10000000
01000000
00010000
,
00001000
00000000
00010000
00001000
00000010
00000000
00000110
00000000
,
00001001
00000000
00000001
00000100
00000001
00000100
00000001
00000010
,
00001000
00000000
00001000
00000000
00000000
00000000
00010000
00000000
01000000
00000000
00000000
01000000
00000000
00000000
10000000
00000000
,
00100000
00000000
00100000
01000000
00100000
01000000
10000000
01000000
,
00020000
00000000
00000000
00000000
00130000
00000000
00000000
00000000
00001000
00000000
00000000
00010000
00002000
00000000
00000000
00000000
,
00013000
00000100
00000000
00000100
00001000
00000100
00000001
00000000
,
00000100
00001000
00000010
00010000
00001000
00100000
00110000
00000000
,
20020000
00000000
00000000
30030000
,
11000000
01010000
00022000
00033000
,
00002002
00000000
00000000
00003003
,
00000101
00001100
00022000
00033000
,
00010000
00000000
00010000
00100000
10000000
00000000
10000000
01000000
,
00010000
00011000
00101000
00110000
,
00100000
01000000
00100000
00001000
00010000
00000000
00000100
00000000
,
00001100
00001010
00000220
00000330
,
00000001
00000001
00001000
00000000
00000001
00000100
00001000
00000000
,
00010000
00001000
00100000
00010000
02000000
00000000
03000000
00000000
,
00100000
00000000
00100000
00000000
10000000
00000000
00100000
00000000
01000000
00000000
00000000
10000000
00000000
00000000
01000000
00000000
,
00010000
00000000
00010000
00000000
01000000
00000000
00001000
00000000
00010000
00000000
00000000
00000010
00000000
00000000
00001000
00000000
,
00000100
00000000
00000100
00000000
00000001
00000000
00000100
00000000
00001000
00000000
00000000
00000010
00000000
00000000
00001000
00000000
,
00000001
00000100
00001000
00010000
00001000
00000000
00011000
00000000
,
00010000
00000000
00010000
00000000
00100000
00000000
10000000
00000000
00100000
00000000
00000000
01000000
00000000
00000000
00010000
00000000
,
10000000
00000000
10000000
00000000
01000000
00000000
10000000
00000000
00100000
00000000
00000000
01000000
00000000
00000000
00100000
00000000
,
00010000
00000000
00010000
00000000
00001000
00000000
00010000
00000000
00000100
00000000
00000000
00001000
00000000
00000000
00000001
00000000
,
00000100
00000000
00000000
00000010
00000000
00000000
00010000
00000000
00001000
00000000
00000000
00000000
00011000
00000000
00000000
00000000
,
00010000
00000000
01000000
00000000
00100000
00000000
01000000
00000000
10000000
00000000
00000000
01000000
00000000
00000000
00010000
00000000
,
00001000
00000000
00100000
00000000
00001000
00000000
00010000
00000000
00000100
00000000
00000000
00001000
00000000
00000000
00000010
00000000
,
00000100
00000000
00000010
00000000
00000001
00000000
00000010
00000000
00001000
00000000
00000000
00000100
00000000
00000000
00010000
00000000
,
00001000
00001000
01000000
00010000
00100000
00000000
01100000
00000000
,
01000000
00000000
10000000
00000000
01000000
00000000
10000000
00000000
01000000
00000000
00000000
00010000
00000000
00000000
00001000
00000000
,
00000010
00000000
00000100
00000000
00000010
00000000
00000100
00000000
00000010
00000000
00000000
00000001
00000000
00000000
00001000
00000000
,
00000010
00000000
00001000
00000000
00000100
00000000
00010000
00000000
00001000
00000000
00000000
01000000
00000000
00000000
00010000
00000000
,
00100000
00000000
00000000
01000000
00000000
00000000
10000000
00000000
00100000
00000000
00000000
00000000
10010000
00000000
00000000
00000000
,
00022000
00000000
00000000
00000000
,
00033000
00000000
00000000
00000000
;

//--------------- dance-double - extraordiberry vs. forcednature ----------------
#NOTEDATA:;
#STEPSTYPE:dance-double;
#DESCRIPTION:extraordiberry vs. forcednature;
#DIFFICULTY:Hard;
#METER:15;
#RADARVALUES:0,0,0,0,0;
#CREDIT:extraordiberry vs. forcednature;
#NOTES:
00000000
00000000
00000000
00000000
,
00000000
00000000
00000000
00000000
,
00000000
00000000
00000000
00000000
,
00011000
00000000
00001100
00000000
00011000
00000000
00010000
00001000
,
00000010
00000001
00001000
00000010
00020000
00000000
00031000
00000000
,
00011000
00000000
00000000
00000000
01010000
00000000
00000000
00000000
00011000
00000000
00000000
00000000
00001000
00000000
00010000
00001000
,
00010000
00000000
00100000
00000000
00000000
00000000
10000000
00010000
00100000
00000000
00000000
00110000
00000000
00000000
00001000
00000000
,
00010000
00000000
00001000
00000000
00000010
00000000
00000001
00001000
00000000
00000000
00000001
00000000
00000100
00000000
00002000
00000000
,
00000000
00000000
00000000
00000000
01003000
00000000
00010000
01000000
00000000
01000000
00010000
00000000
10000000
00000000
01000000
00000000
,
01100000
00000000
00110000
00000000
00000000
00000000
00011000
00000000
00000000
00000000
00001100
00000000
00001000
00000100
00001000
00000100
,
00000010
00000001
00000010
00000001
00001000
00000010
00001000
00000010
00010000
00001000
00010000
00001000
00000000
00000000
00000000
00000000
,
00022000
00000000
00000000
00000000
,
00000000
00000000
00000000
00033000
,
02200000
00000000
00000000
00000000
,
00000000
00000000
00000000
03300000
,
10000000
00000000
00010000
00000000
10000000
01000000
00000000
01000000
00010000
00000000
00001000
00010000
00000000
00000100
00001000
00000000
,
00000001
00000000
00001000
00000000
00000001
00000100
00000000
00000100
00001000
00000000
00010000
00001000
00000000
01000000
00010000
00000000
,
00100000
00000000
00010000
00000000
10000000
00100000
00000000
00100000
00010000
00000000
00001000
00010000
00000000
00000010
00001000
00000000
,
00000001
00000010
00000001
00000010
00000100
00001000
00000100
00001000
00000001
00000100
00001000
00010000
00001000
00000000
00010000
00000000
,
00002000
00100000
00010000
00000010
,
00013000
00000000
00001000
00000000
01000000
00010000
01000000
00010000
10000000
01000000
10000000
01000000
00100000
00000000
00000000
00000000
,
10010000
00000000
00010000
00000000
10000000
01000000
00000000
00010000
00000000
00001000
00000000
00000010
00000000
00000001
00001000
00000000
,
00000010
00000000
00001000
00000000
00000001
00000100
00000000
00001000
00000000
00010000
00000000
00100000
00000000
10000000
00010000
00000000
,
00100000
00000000
00010000
00000000
10000000
00100000
00000000
00010000
00000000
00001000
00000000
00000100
00000000
00000001
00001000
00000000
,
00000100
00000000
00000010
00000000
00000001
00000100
00000000
00001000
00000000
00010000
00002000
00000000
00003020
00000000
00000032
00000000
,
00001003
00000000
00000001
00000000
00000100
00001000
00010000
00001000
00000000
00010000
00001000
00010000
00000000
00100000
10000000
00000000
,
00010000
00000000
10000000
00000000
01000000
00010000
00001000
00010000
00000000
00001000
00010000
00001000
00000000
00000010
00000001
00000000
,
00001000
00000000
00000001
00000100
00000001
00000000
00000100
00001000
00000100
00000000
00001000
00010000
00001000
00010000
00000100
00000000
,
00000000
00000000
00001100
00000000
00000000
00001001
00000000
00000000
00000101
00000000
00000000
00001010
00000000
00000000
00011000
00000000
,
00001000
00000000
00010000
00000000
00100000
00000000
10000000
00010000
00000000
00000000
10000000
00000000
01000000
00000000
00010000
00000000
,
00001000
00000000
01000000
00000000
00100000
00000000
10000000
00010000
00000000
00100000
00001000
00000000
00011000
00000000
00000000
00000000
,
00010000
00000000
00001000
00000000
00000010
00000000
00000001
00001000
00000000
00000000
00000001
00000000
00000100
00000000
00001000
00010000
,
00001000
00000000
00011000
00000000
00000000
00000000
00000100
00000010
00000001
00000000
00001000
00000010
00000000
00000000
00011000
00000000
,
00001000
00000000
00010000
00000000
00100000
00000000
10000000
00010000
00000000
00000000
10000000
00000000
01000000
00000000
00020000
00000000
,
00000000
00000000
00000000
00000000
00030100
00000000
00001000
00000100
00000000
00000100
00000010
00000000
00000001
00000000
00000100
00000000
,
00000110
00000000
00001010
00000000
00000000
00000000
00011000
00000000
00000000
00000000
01010000
00000000
00010000
01000000
00010000
01000000
,
00100000
10000000
00100000
10000000
00010000
00100000
00010000
00100000
00001000
00010000
00001000
00010000
00000100
00000000
00000000
00000000
,
00002002
00000000
00000000
00003003
,
00001010
00011000
02020000
03030000
,
20020000
00000000
00000000
30030000
,
00110000
00011000
00002200
00003300
,
00000001
00000000
00000100
00000000
00001000
00000000
00000100
00000000
00000001
00000000
00000100
00000000
00001000
00000000
00010000
00001000
,
00010000
00000000
01000000
00000000
10000000
00000000
01000000
00000000
00010000
00001000
00010000
00001000
00010000
00001000
00010000
00000000
,
00001000
00000000
00000010
00000001
00000010
00000000
00000001
00001000
00000001
00000000
00000100
00001000
00010000
00001000
00010000
00100000
,
01000000
01100000
20020000
30030000
,
10000000
00100000
10000000
00100000
10000000
00010000
00100000
00010000
10000000
01000000
10000000
00010000
00100000
00010000
10000000
00100000
,
10000000
01000000
00100000
00001000
00010000
00000000
00000100
00000000
00002000
00000000
00000000
00000000
00003001
00000000
00000000
00000000
,
00000001
00000000
00000100
00000000
00001000
00010000
00000010
00001000
00000010
00000000
00010000
00001000
00000000
01000000
00010000
00000000
,
10000000
00000000
01000000
00000000
00010000
00001000
00100000
00010000
00100000
00000000
00001000
00010000
00000000
00000100
00001000
00000000
,
00000001
00000000
00000100
00000000
00001000
00010000
00000010
00001000
00000010
00000100
00001000
00010000
00000000
00001000
01000000
00000000
,
00010000
00000000
10000000
00000000
01000000
00000000
00010000
00000000
00001000
00010000
00000000
00000000
00001000
00000000
00000010
00000000
,
00000001
00000000
00000100
00000000
00001000
00010000
00000010
00001000
00000010
00000000
00010000
00001000
00000000
01000000
00010000
00000000
,
10000000
00000000
01000000
00000000
00010000
00001000
00100000
00010000
00100000
00000000
00001000
00010000
00000000
00000100
00001000
00000000
,
00000001
00000000
00000100
00000000
00001000
00000000
00010000
00000000
00000010
00000000
00000000
00001000
00000000
00000100
00000010
00000000
,
00000001
00000000
00000100
00001000
00000000
00010000
00001000
00010000
00100000
00000000
10000000
00000000
10010000
00000000
00000000
00000000
,
10000000
00000000
00100000
00000000
00010000
00001000
01000000
00010000
01000000
00000000
00001000
00010000
00000000
00000010
00001000
00000000
,
00000001
00000000
00000010
00000000
00001000
00010000
00000100
00001000
00000100
00000000
00010000
00001000
00000000
00100000
00010000
00000000
,
10000000
00000000
00100000
00000000
00010000
00001000
01000000
00010000
01000000
00100000
00010000
00001000
00000000
00010000
00000010
00000000
,
00001000
00000001
00000010
00001000
00010000
01000000
01100000
00000000
,
10000000
00000000
01000000
00000000
00010000
00001000
00100000
00010000
00100000
00001000
00010000
00000000
00001000
00000000
00000010
00000000
,
00000001
00000000
00000100
00000000
00001000
00010000
00000010
00001000
00000010
00010000
00001000
00010000
00000000
00001000
01000000
00000000
,
00010000
10000000
00010000
10000000
01000000
00100000
01000000
00100000
00001000
00010000
00001000
00010000
00000100
00000010
00000100
00000010
,
00000001
00000000
00000100
00001000
00000000
00010000
00100000
10000000
00010000
00000000
00000000
00000000
01100000
00000000
00000000
00000000
,
20020000
00000000
00000000
00000000
,
00000000
00000000
30030000
00000000
;
