#VERSION:0.83;
#TITLE:I LOVE SAKURA;
#SUBTITLE:;
#ARTIST:CHERRY BLOSSOMS(ASAKI & wac);
#TITLETRANSLIT:;
#SUBTITLETRANSLIT:;
#ARTISTTRANSLIT:;
#GENRE:;
#CREDIT:;
#MUSIC:I LOVE SAKURA.ogg;
#BANNER:I LOVE SAKURA.png;
#BACKGROUND:I LOVE SAKURA-bg.png;
#CDTITLE:./CDTitles/GITADORA FUZZ-UP.png;
#SAMPLESTART:41.520;
#SAMPLELENGTH:15.000;
#SELECTABLE:YES;
#OFFSET:0.351;
#BPMS:0.000=212.000;
#STOPS:274.000=0.283;
#TIMESIGNATURES:0.000=4=4,
272.000=3=4,
275.000=4=4
;
#BGCHANGES:0.000=../BGAs/19po.mp4=1.000=0=0=0=StretchNoLoop====,
99999.000=-nosongbg-=1.000=0=0=0=StretchNoLoop====
;
#FGCHANGES:;

//--------------- dance-single - Kikoia & forcednature ----------------
#NOTEDATA:;
#STEPSTYPE:dance-single;
#DESCRIPTION:Kikoia & forcednature;
#DIFFICULTY:Beginner;
#METER:4;
#RADARVALUES:0,0,0,0,0;
#CREDIT:Kikoia & forcednature;
#NOTES:
0000
0000
0000
0000
,
0000
0000
0000
0000
,
0000
0000
0000
0000
,
0000
0000
0000
0000
,
0000
0000
0000
0000
,
0001
0000
0000
0000
,
0000
0000
0000
0000
,
1000
0000
0000
0000
,
0010
0000
0000
0000
,
1001
0000
0000
0000
,
0000
0000
0000
0000
,
1000
0000
0000
0000
,
0000
0000
0000
0000
,
0100
0000
0000
0000
,
0000
0000
0000
0000
,
0010
0000
0000
0000
,
0001
0000
0000
0000
,
1001
0000
0000
0000
,
0000
0000
0000
0000
,
1000
0000
0000
0000
,
0000
0000
0000
0000
,
0010
0000
0000
0000
,
0100
0000
0000
0000
,
1001
0000
0000
0000
,
0000
0000
0000
0000
,
0001
0000
0000
0000
,
0010
0000
0000
0000
,
0100
0000
0000
0000
,
1000
0000
0000
0000
,
1001
0000
0000
0000
,
0001
0000
0000
0000
,
0100
0000
0000
0000
,
0001
0000
0000
0000
,
1000
0000
0000
0000
,
0100
0000
0000
0000
,
0010
0000
0010
0000
,
0100
0000
0000
0000
,
1001
0000
0000
0000
,
1000
0000
0000
0000
,
0010
0000
0000
0000
,
1000
0000
0000
0000
,
0100
0000
0000
0000
,
1000
0000
0000
0000
,
0001
0000
0001
0000
,
0010
0000
0000
0000
,
1001
0000
0000
0000
,
0001
0000
0000
0000
,
0100
0000
0000
0000
,
0001
0000
0000
0000
,
1000
0000
0000
0000
,
0010
0000
0000
0000
,
0100
0000
0100
0000
,
0001
0000
0000
0000
,
1001
0000
0000
0000
,
1000
0000
0000
0000
,
0100
0000
0000
0000
,
1000
0000
0000
0000
,
0001
0000
0000
0000
,
0010
0000
0000
0000
,
0100
0000
0100
0000
,
1000
0000
0000
0000
,
2002
0000
3003
0000
,
0220
0000
0330
0000
,
2002
0000
3003
0000
,
0220
0000
0330
0000
,
1000
0000
1000
0000
,
0001
0000
0001
0000
,
0200
0000
0000
0000
,
0300
0010
0010
1001
,
0000
0001
0000
0001
,
0000
0010
0000
0001
,
0000
0100
0000
0100
,
0000
0010
0000
1000
,
0000
0100
0000
0100
,
0000
1000
0000
0001
,
0000
0010
0000
0100
,
0000
0000
0000
1001
,
0000
0000
0000
1000
,
0000
0000
0000
0010
,
0000
0000
0000
0100
,
0000
0000
0000
0001
,
0000
0000
0000
1000
,
0000
0000
0000
0100
,
0000
0100
0000
1000
,
0000
0000
0000
1001
,
0000
0000
0000
0001
,
0000
0010
0000
0001
,
0000
0000
0000
1000
,
0000
0010
0000
0100
,
0000
0000
0000
0001
,
0000
0000
0000
1000
,
0000
0100
0000
0010
,
0000
0001
0000
0200
,
0000
0000
0000
0000
0000
0000
0000
0300
;

//--------------- dance-single - Kikoia & forcednature ----------------
#NOTEDATA:;
#STEPSTYPE:dance-single;
#DESCRIPTION:Kikoia & forcednature;
#DIFFICULTY:Easy;
#METER:7;
#RADARVALUES:0,0,0,0,0;
#CREDIT:Kikoia & forcednature;
#NOTES:
0000
0000
0000
0000
,
0000
0000
0000
0000
,
0000
0000
0000
0000
,
0000
0000
0000
0000
,
0000
0000
0000
0000
,
1001
0000
0001
0000
,
0100
0000
0001
0000
,
0010
0000
0000
0010
0000
0000
0010
0000
,
0000
0100
1000
0000
,
1001
0000
0001
0000
,
0100
0000
0001
0000
,
0010
0000
0001
0000
,
0100
0000
0001
0000
,
1000
0000
0010
0000
,
1000
0000
0100
0000
,
1000
0000
0001
0001
,
0000
0010
0001
0000
,
1001
0000
1000
0000
,
1000
0000
0010
0100
,
0001
0000
0010
0000
,
0010
0000
0100
1000
,
0002
0000
0103
0000
,
0020
0000
1030
0000
,
1001
0000
0001
0000
,
0010
0000
0001
1000
,
0100
0000
1000
0000
,
0001
0000
0100
0010
,
2000
0000
3100
0000
,
0020
0000
0031
0000
,
1001
0000
1000
0000
,
1000
0000
0000
0000
,
0010
0000
0100
0000
,
0001
0000
0010
0000
,
1001
0000
1000
0000
,
0100
0000
1000
0000
,
0010
0010
0010
0000
,
0100
0000
0001
0000
,
2002
3003
1000
0100
,
1000
0000
0010
0000
,
0100
0000
0001
1000
,
0001
0000
0010
0000
,
0100
0000
0010
0001
,
0010
0000
0100
0000
,
1000
0000
0010
0100
,
0000
0100
0010
0000
,
2002
3003
0001
0100
,
0001
0000
0010
0000
,
0100
0000
1000
0001
,
1000
0000
0010
0000
,
1000
0000
0100
1000
,
0100
0000
0010
0000
,
0001
0000
0100
0010
,
0000
0010
0100
0000
,
1001
0000
1000
0000
,
0200
0000
0000
0300
,
0010
0000
0001
0000
,
0200
0000
0000
0300
,
0010
1000
0010
0000
,
1000
0100
1000
0000
,
0100
0000
0100
0000
,
0010
0000
0001
0000
,
2002
0000
3003
0000
,
2200
0000
3300
0000
,
0022
0000
0033
0000
,
0220
0000
0330
0000
,
0002
0000
0100
0100
,
0203
0000
0320
0000
,
1030
0000
0000
1000
0000
0000
1000
0000
,
0000
0100
0010
1001
,
0000
1000
0100
1000
,
0000
0010
1000
0010
,
0000
0100
0010
0100
,
0000
0001
0000
0010
,
0000
0001
1000
0001
,
0000
1000
0100
1000
,
0000
0010
0000
0100
,
0100
0001
0000
1001
,
0000
1000
0000
0100
,
0000
1000
0000
0010
,
0000
0100
0000
0001
,
0000
0100
0000
0010
,
0000
1000
0000
0001
,
0000
0010
0000
0001
,
1000
0001
0000
2002
,
0000
3003
0000
1000
,
0010
1000
0000
0001
,
0100
0010
0000
1000
,
0100
1000
0000
0010
,
0100
0001
0000
0220
,
0000
0330
0000
2002
,
0000
3003
0000
0001
,
0010
0001
0000
0100
,
0010
1000
0000
2002
,
0000
0000
0000
0000
0000
0000
0000
3003
;

//--------------- dance-single - Kikoia & forcednature ----------------
#NOTEDATA:;
#STEPSTYPE:dance-single;
#DESCRIPTION:Kikoia & forcednature;
#DIFFICULTY:Medium;
#METER:10;
#RADARVALUES:0,0,0,0,0;
#CREDIT:Kikoia & forcednature;
#NOTES:
0000
0000
0000
0000
,
0000
0000
0000
0000
,
0000
0000
0000
0000
,
0000
0000
0000
0000
,
0000
0000
0000
0000
,
1001
0000
1000
0100
,
1000
0001
0010
0000
,
0100
0000
0000
1000
0000
0000
0001
0000
,
0000
0100
0010
0100
0010
0000
0000
0000
,
1001
0000
1000
0010
,
0100
0001
0010
0100
,
2000
0000
3010
0100
,
0001
1000
0100
0010
,
0002
0000
1003
0010
,
1000
0000
0001
1000
0001
0000
0010
0000
,
0100
0000
1000
0000
0010
0100
0000
0100
,
0000
0001
1000
0100
,
1001
0000
0001
0001
,
0010
0000
0010
0000
0001
0000
0100
0001
,
0100
0000
0010
0010
,
1000
0000
1000
0000
0100
0000
1000
0001
,
2000
0010
0000
3010
,
0002
0100
0000
0103
,
1001
0000
0001
0001
,
0010
0000
0010
0000
0100
0000
1000
0100
,
1000
0000
0010
0100
,
0001
0000
1000
0000
0100
0000
0010
0100
,
0020
0001
0000
0031
,
0200
0000
0000
1000
0000
0000
1300
0000
,
0000
0001
0010
0001
,
0100
0001
0000
1001
,
0000
1000
0010
0100
,
0010
1000
0100
0010
,
0110
0000
0000
0000
0100
0000
1000
0001
,
1000
0010
0100
0001
,
0010
0000
0000
0001
0000
0001
1000
0000
,
0010
0000
0100
0010
0100
0010
0100
0000
,
2002
0000
3003
0000
1000
0000
0100
1000
,
0100
0010
0010
0001
,
0200
0000
0000
0300
0010
0000
1000
0001
,
1000
0001
0010
0100
,
2000
0000
0000
3000
0010
0000
0100
0000
,
0001
0010
0001
1000
,
0100
0000
1000
0000
0010
0100
0000
0100
,
0000
0001
0010
0100
,
2002
0000
3003
0000
0001
0000
0010
0001
,
0010
0100
1000
0001
,
0200
0000
0000
0300
0010
0000
1000
0010
,
1000
0001
0010
0001
,
2000
0000
0000
3000
0010
0000
0100
0000
,
0001
1000
0001
0010
,
0100
0000
1000
0000
0010
0100
0000
0100
,
0000
0001
0010
0100
,
1000
0000
0010
0000
0100
0001
0000
0100
,
0000
0010
0000
1000
0002
0000
0000
0003
,
0010
0000
0100
0000
1000
0100
0000
0010
,
0000
0001
0000
1000
0010
0000
0100
0000
,
0002
0023
0230
2300
,
3002
0203
0320
2030
,
3100
0000
1000
0100
0000
1000
0100
0000
,
1000
0001
0000
0001
0010
0000
0100
0000
,
0220
0000
0330
0000
,
2002
0003
3010
0000
,
0202
0000
0303
0000
,
2020
0030
3100
0000
,
0012
0010
0010
0013
,
2000
0100
3200
0010
,
0310
0000
0001
0010
0000
0001
1000
0000
,
0000
0010
0100
0010
0100
0000
1001
0000
,
0001
0000
0010
0001
0010
0000
0100
0010
,
0100
1000
0001
0100
,
0010
0000
1000
0010
1000
0000
0100
1000
,
0100
0010
0001
1000
,
0010
0000
0100
0001
0100
0000
0001
0010
,
0001
1000
0010
1000
,
0100
0000
1000
0001
0000
0001
0000
0010
,
0100
1000
0001
0101
,
1000
0000
0010
1000
0010
0000
0200
0000
,
0302
2003
3200
1300
,
0001
0000
0010
0001
0010
0000
0200
0000
,
2300
3002
0203
0310
,
1000
0000
0001
1000
0001
0000
0010
0000
,
0100
1000
0001
0100
,
0010
0100
0000
0010
1000
0000
0001
1000
,
0001
0010
0100
0110
,
1000
0000
0100
1000
0100
0000
1000
0000
,
0010
0000
0100
0010
0100
0000
0001
0000
,
0010
0000
0001
0010
0001
0000
0100
0000
,
0010
1000
0001
0020
,
0100
0000
0100
0032
,
1000
0000
0000
0000
1003
0000
0001
0100
,
0001
0000
0100
0010
0000
0010
0000
1000
,
0001
0000
1000
0100
1000
0000
0020
0000
,
0000
0000
0000
0000
0000
0000
0000
0030
;

//--------------- dance-single - Kikoia & forcednature ----------------
#NOTEDATA:;
#STEPSTYPE:dance-single;
#DESCRIPTION:Kikoia & forcednature;
#DIFFICULTY:Hard;
#METER:14;
#RADARVALUES:0,0,0,0,0;
#CREDIT:Kikoia & forcednature;
#NOTES:
0000
0000
0000
0000
,
0000
0000
0000
0000
,
0000
0000
0000
0000
,
0000
0000
0000
0000
,
0000
0000
0000
0000
,
1001
0000
0000
0001
0100
0000
0001
0000
,
0010
0100
0000
0100
0010
0000
0001
0000
,
1000
0010
0000
0010
0100
0000
0100
0001
,
0000
1000
0100
0010
0002
0000
0003
0000
,
0110
0000
1000
0000
0001
0010
0100
0010
,
0002
0203
2300
3200
,
0302
0000
0010
0000
1003
0010
0100
0010
,
2000
3200
0302
0203
,
0320
0000
0001
0000
0130
1000
0001
0000
,
0100
0000
0001
1000
0010
0000
1001
0000
,
1000
0100
1000
0001
0010
0001
0000
0011
,
0000
1000
0010
0100
0001
0000
0000
0000
,
1001
0100
0100
0100
,
0100
0100
0100
0100
,
1001
0010
0010
0010
,
0010
1010
1100
0101
,
2001
0000
3100
0010
0000
0100
2000
0000
,
3002
0000
0103
0010
0000
0100
0001
0000
,
0010
0010
0100
0100
,
1000
0000
1000
0000
0010
0100
0010
0100
,
0001
0001
1000
1000
,
0100
0110
1001
0110
,
1001
0000
0001
0010
0000
0010
0001
0000
,
1000
0010
0100
0001
0000
0001
1000
0000
,
0100
0000
0010
0000
0001
0100
0001
0000
,
1000
0000
0010
0000
1000
0100
1000
0000
,
0001
0000
1000
0100
0010
0002
0000
0000
,
1003
0010
0110
0101
,
0012
1003
2010
3001
,
0102
2003
3200
0302
,
0203
0000
1300
0001
1000
0000
0010
0100
,
0010
0000
1000
0010
0100
0001
0010
0000
,
2001
0000
0100
0000
3001
0010
0100
1000
,
0010
0110
0101
0010
,
2000
0000
3001
0000
0010
0100
1000
0001
,
0010
0110
1100
0010
,
0002
0000
0103
0000
1000
0010
1000
0000
,
0001
0010
0100
0010
0001
1000
0001
0000
,
0100
0010
0100
0000
0010
1000
0000
1100
,
0000
0100
1000
0001
0010
0000
0110
0000
,
1002
0000
0010
0000
1003
0010
1000
0001
,
0100
1001
0011
0100
,
2000
0000
3010
0000
1000
0001
0100
0010
,
1000
1100
1001
0010
,
0002
0000
0103
0000
1000
0010
0100
0000
,
0001
1000
0100
1000
0001
0010
0001
0000
,
0100
0010
0100
0010
1000
0100
0000
1100
,
0000
0001
0010
0100
1000
0000
0001
0000
,
0101
0000
1000
0000
0010
0100
0000
0001
,
0000
0010
0000
0001
2000
0000
3000
0000
,
1100
0000
0001
0000
0010
0100
0000
0010
,
0000
0001
0000
1000
0020
0000
0230
0000
,
0301
0010
0000
0010
0100
1000
0000
1000
,
0001
0100
0000
0100
0010
1000
0001
0000
,
1000
0100
0100
1000
0001
0001
0010
0100
,
0100
0010
0001
1000
0010
0000
0100
0000
,
0202
0000
0000
0303
,
2020
0030
0200
3300
,
2002
0000
0000
3003
,
0022
0030
0200
0303
,
1000
0010
1000
0010
1000
0010
1000
0010
,
0100
0001
0100
0001
0010
0100
0010
0100
,
1000
0000
1000
0001
0000
0001
0100
0010
,
0000
1000
0001
1000
1001
0000
1000
0100
,
1000
0100
0001
0100
0001
0100
1000
0001
,
1000
0100
0010
0000
1001
0000
0001
0100
,
0001
0100
1000
0100
1000
0100
0001
1000
,
0001
0100
0010
0000
1001
0000
1000
0010
,
1000
0010
0001
0010
0001
0010
1000
0001
,
1000
0010
0100
0000
1001
0000
0001
0010
,
0001
0000
0100
0001
0100
0010
0000
1000
,
0100
1000
0001
0010
0100
1000
0001
0000
,
0100
0000
0101
0000
1000
0100
0020
0000
,
0032
2003
3010
0100
,
0001
0000
0101
0000
0001
0010
0200
0000
,
2300
3020
0032
0013
,
1000
0001
2000
0000
0100
0000
3020
0000
,
0100
2030
0001
3002
,
0100
0000
0023
0000
0100
0000
0031
0100
,
0001
0100
0010
1000
0010
1000
0001
0000
,
0010
0100
0001
0100
1000
0001
0000
0010
,
0001
1000
0010
1000
0001
0000
0101
0000
,
1000
0010
0100
0010
1000
0001
0010
0100
,
0010
0001
1000
0000
0010
0000
2001
0000
,
0100
0000
0001
0000
3100
0000
0001
0010
,
0100
0010
0001
1000
0010
0000
0100
1000
,
0100
1000
0100
0001
0000
0011
0000
1000
,
0010
0100
0001
0010
0100
1000
0020
0000
,
0100
0200
0000
0000
0000
0000
0000
0330
;

//--------------- dance-double - Kikoia & forcednature ----------------
#NOTEDATA:;
#STEPSTYPE:dance-double;
#DESCRIPTION:Kikoia & forcednature;
#DIFFICULTY:Easy;
#METER:7;
#RADARVALUES:0,0,0,0,0;
#CREDIT:Kikoia & forcednature;
#NOTES:
00000000
00000000
00000000
00000000
,
00000000
00000000
00000000
00000000
,
00000000
00000000
00000000
00000000
,
00000000
00000000
00000000
00000000
,
00000000
00000000
00000000
00000000
,
00011000
00000000
00000000
00000000
,
01000000
00000000
00010000
00000000
,
00100000
00000000
00000000
00100000
00000000
00000000
00100000
00000000
,
00000000
00010000
10000000
00000000
,
00100000
00000000
10000000
00000000
,
01000000
00000000
10000000
00000000
,
00010000
00000000
00100000
00000000
,
00001000
00000000
00010000
00000000
,
00000010
00000000
00001000
00000000
,
00000010
00000000
00000100
00000000
,
00000001
00001000
00000001
00000000
,
00000010
00000000
00000100
00000000
,
00000110
00000000
00000000
00000000
,
00001000
00000000
00000100
00000000
,
00010000
00000000
00000000
00000000
,
00001000
00000000
00100000
00000000
,
00010000
00000000
01000000
00000000
,
00100000
00000000
10000000
00000000
,
10010000
00000000
00000000
00000000
,
00010000
00000000
00100000
00000000
,
00001000
00000000
00000000
00000000
,
00010000
00000000
00000100
00000000
,
00001001
00000000
00000000
00000000
,
00000010
00000000
00000100
00000000
,
00000110
00000000
00000001
00000000
,
00001000
00000000
00000100
00000000
,
00010000
00000000
00001000
00000000
,
01000000
00000000
00010000
00000000
,
10010000
00000000
00000000
00000000
,
10000000
00000000
01000000
00000000
,
00100000
00100000
00100000
00000000
,
00010000
00000000
01000000
00000000
,
10010000
00000000
00010000
00000000
,
00100000
00010000
00100000
00000000
,
00001000
00000000
00010000
00000000
,
00000100
00001000
00000100
00000000
,
00001000
00000000
00000010
00000000
,
00000100
00000001
00000100
00000000
,
00000010
00001000
00000000
00001000
,
00000100
00000000
00001001
00000000
,
00000110
00000000
00000001
00000000
,
00000010
00000001
00000010
00000000
,
00000100
00000000
00001000
00000000
,
00000100
00010000
00000100
00000000
,
00010000
00000000
00001000
00000000
,
00100000
00010000
00100000
00000000
,
01000000
00000000
10000000
00000000
,
00100000
00100000
00100000
00000000
,
10010000
00000000
00010000
00000000
,
01000000
00000000
00000000
00000000
,
00001000
00000000
00010000
00000000
,
00000010
00000000
00001000
00000000
,
00000200
00000000
00000320
00000000
,
00000032
00000000
00002003
00000000
,
00003010
00000010
00000010
00000000
,
00010000
00000000
00001000
00000000
,
00022000
00000000
00033000
00000000
,
00202000
00000000
00303000
00000000
,
00022000
00000000
00033000
00000000
,
00020020
00000000
00030030
00000000
,
00020000
00000000
00001000
00000000
,
00032000
00000000
02003000
00000000
,
03010000
00000000
00000000
00010000
00000000
00000000
00010000
00000000
,
00000000
00100000
01000000
10010000
,
00000000
10000000
01000000
10000000
,
00000000
00010000
00000000
00100000
,
00000000
00001000
00010000
00001000
,
00000000
00010000
00000000
00000010
,
00000000
00001000
00000010
00001000
,
00000000
00000001
00000000
00000100
,
00000001
00000100
00000000
00000010
,
00000000
00001000
00000000
00000001
,
00000010
00000000
00000010
00000000
,
00000100
00000000
00010000
00000000
,
00001000
00000000
00001000
00000000
,
00100000
00000000
00010000
00000000
,
01000000
00000000
01000000
00000000
,
00100000
00000000
10000000
00000000
,
01000000
10000000
00000000
20020000
,
00000000
30030000
00000000
00010000
,
00100000
00010000
00000000
00100000
,
00000000
00001000
00000000
00010000
,
00001000
00010000
00000000
00000010
,
00000000
00001000
00000000
00000010
,
00000100
00000010
00000000
00000100
,
00000000
00000001
00000000
00001000
,
00000100
00001000
00000000
00000100
,
00010000
00000100
00000000
00022000
,
00000000
00000000
00000000
00000000
00000000
00000000
00000000
00033000
;

//--------------- dance-double - Kikoia & forcednature ----------------
#NOTEDATA:;
#STEPSTYPE:dance-double;
#DESCRIPTION:Kikoia & forcednature;
#DIFFICULTY:Medium;
#METER:10;
#RADARVALUES:0,0,0,0,0;
#CREDIT:Kikoia & forcednature;
#NOTES:
00000000
00000000
00000000
00000000
,
00000000
00000000
00000000
00000000
,
00000000
00000000
00000000
00000000
,
00000000
00000000
00000000
00000000
,
00000000
00000000
00000000
00000000
,
00011000
00000000
00000100
00001000
,
00000010
00000100
00000001
00000000
,
00001000
00000000
00000000
00000010
00000000
00000000
00000100
00000000
,
00000000
00001000
00010000
00001000
00010000
00000000
00000000
00000000
,
00001000
00100000
00010000
00100000
,
01000000
10000000
00010000
01000000
,
00200000
00000000
10300000
01000000
,
10000000
00010000
00100000
00001000
,
00020000
00000000
00030100
00001000
,
00000010
00000100
00000100
00000001
,
00000010
00000000
00000100
00000000
00000000
00010000
00000000
00010000
,
00000000
00001000
00100000
00000000
,
10010000
00000000
10000000
01000000
,
10000000
01000000
10000000
00100000
,
10000000
00000000
00010000
01000000
,
00010000
01000000
00001000
00010000
,
00002000
00000000
00013000
00000100
,
00002000
00000000
00003001
00000000
,
00000110
00000000
00000001
00000100
,
00000001
00000100
00000001
00000010
,
00000001
00000000
00001000
00000100
,
00001000
00000100
00010000
00001000
,
00020000
00000000
00031000
01000000
,
00020000
00000000
00000000
10030000
00000000
00000000
10000000
00000000
,
10010000
00000000
00010000
00100000
,
00001000
00000000
00010000
00000010
,
00001000
00000000
00000010
00000100
,
00000001
00000000
00000010
00000100
,
00000110
00000000
00001000
00000100
,
00010000
00001000
01000000
00010000
,
10000000
00000000
00000000
10000000
00000000
00000000
00100000
00000000
,
02000000
00010000
00020000
03030000
,
20020000
30030000
00010000
00100000
,
00001000
00010000
00000010
00001000
,
00000200
00000000
00000000
00000300
00001000
00000000
00000010
00000000
,
00000100
00000001
00000010
00000100
,
00020000
00000000
00000000
00030000
00001000
00000000
00100000
00000000
,
00010000
01000000
00100000
10000000
,
00010000
00000000
00100000
00000000
00000000
00001000
00000000
00001000
,
00000000
00010000
00000100
00000000
,
00002002
00003003
00001000
00000010
,
00010000
00001000
01000000
00010000
,
20000000
00000000
00000000
30000000
01000000
00000000
10000000
00000000
,
00010000
00100000
00001000
00010000
,
00000020
00000000
00000000
00000030
00001000
00000000
00000001
00000000
,
00000100
00000010
00001000
00000100
,
00010000
00000000
00001000
00000000
00000000
00100000
00000000
00100000
,
00000000
00010000
01000000
00000000
,
01100000
10000000
00000000
10000000
,
01000000
00000000
00100000
00000000
00020000
00000000
00000000
00030000
,
01000000
00001000
00000000
00001000
,
00010000
00000100
00001000
00000010
,
00000100
00000100
00000001
00000001
,
00000010
00000010
00001000
00001000
,
00010000
00000000
00000000
00010000
00000000
00000000
00001000
00000000
,
00100000
00010000
01000000
00000000
,
20020000
00000000
30030000
00000000
,
00202000
00000000
00303000
00000000
,
00020020
00000000
00030030
00000000
,
00002002
00000000
00003003
00000000
,
00020100
00000000
00032000
00000000
,
00100000
00100000
00200000
00303000
,
00100000
00000000
00000000
00010000
00000000
00000000
01000000
00000000
,
00000000
00010000
10000000
00010000
10000000
00000000
11000000
00000000
,
00010000
00000000
00100000
00000000
00001000
00000000
00010000
00001000
,
00010000
00000010
00001000
00000001
,
00000100
00000000
00000010
00000000
00001000
00000000
00000100
00001000
,
00000100
00010000
00001000
01000000
,
00010000
00000000
00100000
00000000
01000000
00000000
10000000
01000000
,
10000000
00010000
00100000
00001000
,
00010000
00000100
00000100
00001000
,
00000010
00000100
00000000
00001001
,
00002000
00003000
00002000
00003100
,
00010000
00001000
01000000
00010000
,
00200000
00300000
00200000
01300000
,
10000000
00010000
01000000
00001000
,
00020000
00030000
00020000
00030010
,
00001000
00000001
00000100
00000010
,
00001000
00001001
00000000
00000001
,
00000020
00000000
00000200
00000000
00000330
00000000
00001000
00000100
,
00001000
00000000
00000100
00000000
00010000
00000000
00001000
00010000
,
00001000
00000000
00100000
00000000
00010000
00000000
01000000
00010000
,
01000000
00000000
00100000
00000000
10000000
00000000
01000000
10000000
,
01000000
00100000
00010000
00220000
,
00000000
00000000
00330000
00000000
00001000
00000000
00010000
00001000
,
00010000
00000100
00001000
00000010
,
00000110
00000000
00000000
00000001
00000000
00000001
00000000
00000010
,
00000100
00000010
00000100
00000000
00010000
00000000
00022000
00000000
,
00000000
00000000
00000000
00000000
00000000
00000000
00000000
00033000
;

//--------------- dance-double - Kikoia & forcednature ----------------
#NOTEDATA:;
#STEPSTYPE:dance-double;
#DESCRIPTION:Kikoia & forcednature;
#DIFFICULTY:Hard;
#METER:15;
#RADARVALUES:0,0,0,0,0;
#CREDIT:Kikoia & forcednature;
#NOTES:
00000000
00000000
00000000
00000000
,
00000000
00000000
00000000
00000000
,
00000000
00000000
00000000
00000000
,
00000000
00000000
00000000
00000000
,
00000000
00000000
00000000
00000000
,
00011000
00000000
00000000
00100000
00010000
00000000
01000000
00000000
,
00100000
10000000
00000000
10000000
00100000
01000000
00010000
00000000
,
00100000
00001000
00000000
00001000
00010000
00000000
00010000
00000100
,
00000000
00001000
00000010
00000100
00000002
00000000
00000003
00000000
,
00000011
00000000
00001000
00000000
00000100
00010000
00001000
00010000
,
00000020
00002030
00023000
02030000
,
03200000
00000000
00000000
00300000
10000000
00010000
10000000
01000000
,
00200000
00320000
00032000
00003200
,
00000320
00000000
00000000
00000030
00000100
00001000
00000001
00000000
,
00000100
00000000
00001000
00010000
00001000
00010000
00100000
00000000
,
10000000
00010000
01000000
00010000
10000000
00100000
00000000
01100000
,
00000000
01000000
00010000
00100000
01000000
00000000
00010000
00000000
,
00021000
00000100
00000100
00001000
,
00001000
00000000
00000010
00000000
00030010
00001000
00000001
00000100
,
00000020
00000000
00001000
00000000
00001000
00000000
00000130
00000001
,
00000000
00000101
00000000
00001000
00000010
00010000
00001000
01000000
,
00010000
00000000
00100000
01000000
00100000
00010000
10000000
01000000
,
00010000
00000000
00001000
00100000
00001000
00010000
00000100
00000000
,
00021000
00000000
00000100
00000000
00000100
00000000
00031000
00010000
,
00001000
00100000
00010000
00000000
01000000
00100000
10000000
01000000
,
00010000
00000000
00001000
00100000
00001000
00010000
00000100
00000000
,
00001000
00000010
00000100
00000001
00000010
00000100
00000010
00000000
,
00000110
00000000
00000100
00010000
00001000
00100000
00010000
00000000
,
01000000
00100000
10000000
01000000
00100000
00001000
00010000
00000000
,
00011000
00000000
00000010
00000000
00001000
00000001
00000100
00002000
,
00000000
00103000
00010000
01000000
,
00100000
00000000
10000000
01000000
10000000
00020000
00000000
00000000
,
00130000
00001000
00011000
00000100
,
00001020
00000100
00001000
00010030
,
00000010
00000100
00000001
00001000
00000100
00000000
00000110
00000000
,
00001000
00000100
00010000
00001000
01000000
00010000
00100000
00000000
,
01000000
10000000
10000000
00100000
00010000
00100000
10000000
00000000
,
20010000
00000000
00100000
00000000
31000000
10000000
00010000
01000000
,
00001000
00101000
00110000
00001000
,
00010200
00000000
00001300
00000000
00000100
00000010
00000001
00001000
,
00000010
00000110
00000101
00001000
,
00001020
00000000
00010030
00000000
00001000
01000000
00010000
00000000
,
10000000
00100000
01000000
00010000
10000000
01000000
00100000
00000000
,
00001000
00010000
00001000
00000000
00010000
00000100
00000000
00001100
,
00000000
00001000
00000010
00000100
00000001
00000000
00000011
00000000
,
00002100
00000000
00000010
00000000
00003001
00000100
00000010
00001000
,
00000100
00011000
00101000
00010000
,
02010000
00000000
00100000
00000000
03010000
10000000
01000000
10000000
,
00010000
00110000
00101000
00001000
,
00010200
00000000
00001300
00000000
00000100
00000010
00000001
00000000
,
00000100
00000010
00001000
00000100
00010000
00001000
00010000
00000000
,
00100000
01000000
00100000
00000000
10000000
01000000
00000000
11000000
,
00000000
00010000
00100000
00001000
00010000
00000100
00001000
00000000
,
00001010
00000000
00000001
00000000
00000100
00000010
00000000
00001000
,
00000000
00000100
00000000
00000010
00002000
00000000
00003000
00000000
,
00011000
00000000
00010000
00000000
01000000
10000000
00000000
00100000
,
00000000
01000000
00000000
00010000
00200000
00000000
00302000
00000000
,
00013000
00000100
00001000
00000000
00000010
00010000
00001000
00000000
,
01000000
00001000
00010000
00000000
00001000
00100000
00010000
00000000
,
10000000
01000000
01000000
00100000
00010000
00010000
01000000
00001000
,
00001000
00010000
00000010
00001000
00000001
00000100
00000010
00000000
,
00002002
00000000
00000000
00003003
,
00020200
00000300
00002000
00033000
,
00202000
00000000
00000000
00303000
,
02020000
03000000
20000000
30030000
,
00010000
00100000
00010000
00100000
00010000
00100000
00010000
00100000
,
00001000
00010000
00001000
00010000
00000010
00001000
00000010
00001000
,
00000100
00000000
00000100
00000010
00000000
00000010
00000001
00000100
,
00000000
00001000
00010000
00001000
00011000
00000000
00100000
00010000
,
00100000
00010000
01000000
00100000
01000000
00100000
10000000
00010000
,
10000000
01000000
00100000
00000000
00011000
00000000
00000010
00001000
,
00000010
00001000
00000100
00000010
00000100
00000010
00000001
00001000
,
00000001
00000100
00000010
00000000
00011000
00000000
01000000
00010000
,
01000000
00010000
10000000
00100000
10000000
00100000
01000000
00010000
,
10000000
01000000
00010000
00000000
00011000
00000000
00000100
00001000
,
00000100
00000000
00000010
00000001
00000100
00000001
00000000
00000010
,
00000100
00001000
00000010
00010000
00001000
01000000
00020000
00000000
,
01000000
10000000
00100000
00032000
,
00000100
00000001
00000010
00023000
,
01000000
10000000
00100000
00032000
,
00000100
00000000
00000001
00000000
00000010
00000000
00013000
01000000
,
00100000
00000000
10000000
01000000
00010000
00000000
00001000
00000010
,
00000100
00000000
00001000
00000001
00000100
00000000
00000010
00001000
,
00000010
00001000
00000100
00010000
00001000
00100000
00010000
01000000
,
20000000
02000000
00000000
00000000
33000000
00000000
01000000
00010000
,
00100000
00010000
01000000
00100000
10000000
00100000
00010000
00001000
,
01000000
00010000
01000000
00001000
00010000
00000000
00000010
00001000
,
00000100
00000001
00000100
00001000
00000001
00000010
00000100
00010000
,
00001000
00000010
00000001
00000000
00001001
00000000
00001000
00000010
,
00010000
00001000
00100000
00001000
00010000
00000000
00100000
10000000
,
01000000
00100000
00010000
01000000
10000000
00000000
01000000
00001000
,
00001000
00010000
00000010
00001010
00000000
00001100
00000000
00000001
,
00000010
00000001
00000100
00000010
00010000
00001000
00200000
00000000
,
01000000
02000000
00000000
00000000
00000000
00000000
00000000
03300000
;
