#VERSION:0.83;
#TITLE:ひゅ~どろどろ (feat. 初音ミク&MEIKO);
#SUBTITLE:;
#ARTIST:栗山夕璃;
#TITLETRANSLIT:Hyu~dorodoro (feat. Hatsune Miku & MEIKO);
#SUBTITLETRANSLIT:;
#ARTISTTRANSLIT:Kuriyama Yuri;
#GENRE:;
#CREDIT:;
#MUSIC:Hyu-dorodoro.ogg;
#BANNER:Hyu-dorodoro.png;
#BACKGROUND:Hyu-dorodoro-bg.png;
#CDTITLE:;
#SAMPLESTART:31.155;
#SAMPLELENGTH:15.000;
#SELECTABLE:YES;
#OFFSET:0.351;
#BPMS:0.000=160.000
,80.000=80.000
,81.000=160.000
,210.000=80.000
,216.750=160.000
;
#STOPS:81.000=0.375
,216.750=0.469
;
#TIMESIGNATURES:0.000=4=4,
80.000=2=4,
82.000=4=4
;
#BGCHANGES:1.500=Hyu-dorodoro.mp4=1.000=0=0=0=StretchNoLoop====,
99999.000=-nosongbg-=1.000=0=0=0=StretchNoLoop====
;
#FGCHANGES:;

//--------------- dance-single - Kikoia vs. forcednature ----------------
#NOTEDATA:;
#STEPSTYPE:dance-single;
#DESCRIPTION:Kikoia vs. forcednature;
#DIFFICULTY:Beginner;
#METER:3;
#RADARVALUES:0,0,0,0,0;
#CREDIT:Kikoia vs. forcednature;
#NOTES:
0000
0000
0000
0000
,
0000
0000
0000
0000
,
0000
0000
0000
0000
,
0000
0000
0000
0000
,
0000
0000
0000
0000
,
0000
0000
0000
0000
,
0000
0000
0000
0000
,
0000
0000
0000
0000
,
0000
0000
0000
0000
,
0001
0000
0000
0000
,
1000
0000
0000
0000
,
0010
0000
0000
0000
,
0100
0000
0000
0000
,
0001
0000
0000
0000
,
0001
0000
0000
0000
,
1000
0000
0000
0000
,
0010
0000
0010
0000
,
1000
0000
0000
0000
,
0001
0000
0000
0000
,
1000
0000
0000
0000
,
0010
0000
1001
0000
,
0000
0000
0001
0000
,
0000
0000
0100
0000
,
0100
0000
0010
0000
,
0100
0000
0010
0000
,
0000
0000
1000
0000
,
0000
0000
0001
0000
,
0001
0000
1000
0000
,
0001
0000
0020
0000
,
0000
0030
0200
0000
,
0000
0300
1000
0000
,
1000
0000
0001
0000
,
0000
0000
0200
0000
,
0000
0300
0020
0000
,
0000
0030
1000
0000
,
0001
0000
2002
0000
,
3003
0000
1000
0000
,
0000
0000
0010
0000
,
0000
0000
1000
0000
,
0000
0000
0001
0000
,
0000
0000
1000
0000
,
0000
0000
0100
0000
,
0000
0000
1000
0000
,
0000
0000
0001
0001
,
0001
0000
0100
0000
,
0000
0000
0010
0000
,
0000
0000
1000
0000
,
0000
0000
0100
0000
,
0100
0000
1000
0000
,
0000
0000
0010
0000
,
0000
0000
1000
0000
,
0000
0000
0001
0000
,
0001
0000
1001
0000
,
0000
0000
1000
0000
,
0001
0000
1001
0000
,
1000
0000
1000
0000
,
0000
0000
0010
0000
,
0100
0000
0010
0000
,
0000
0000
1000
0000
,
0001
0000
0100
0000
,
0000
0000
0002
0000
,
0000
0003
2000
0000
,
0000
3000
0100
0000
,
0100
0000
0010
0000
,
0100
0000
2000
0000
,
0000
3000
0002
0000
,
0000
0003
0100
0000
,
0010
0000
2002
0000
,
3003
0000
0000
0000
;

//--------------- dance-single - Kikoia vs. forcednature ----------------
#NOTEDATA:;
#STEPSTYPE:dance-single;
#DESCRIPTION:Kikoia vs. forcednature;
#DIFFICULTY:Easy;
#METER:7;
#RADARVALUES:0,0,0,0,0;
#CREDIT:Kikoia vs. forcednature;
#NOTES:
0000
0000
0000
0000
,
0000
0000
0000
0000
,
0000
0000
0000
0000
,
0000
0000
0000
0000
,
0000
0000
0000
0000
,
0000
0000
0000
0000
,
0000
0000
0000
0000
,
0000
0000
0000
0000
,
0000
0000
0000
0000
,
1000
0000
1000
0001
,
0000
0001
1000
0000
,
0010
0010
0100
0000
,
0002
0000
0003
0000
,
1001
0000
1000
1000
,
0000
0100
1000
0001
,
0000
0100
0001
1000
,
0000
0010
0100
0010
,
0100
0000
0001
1000
,
0000
0100
1000
0001
,
0000
1000
0010
0100
,
0002
0003
1001
0000
,
1000
0001
1000
0000
,
0010
0010
0100
0001
,
0100
0010
0000
0010
,
1000
0000
1001
0000
,
0001
1000
0001
0000
,
0010
0001
0010
0000
,
0010
0100
1000
0001
,
1000
0000
0020
0230
,
0320
0230
0302
2003
,
3002
2003
3010
0010
,
0100
0010
1000
0001
,
1000
0000
0200
0320
,
0230
0320
0032
2003
,
3002
2003
3010
0000
,
0110
0000
0100
0010
,
2002
0000
3003
1000
,
0000
1000
0020
0030
,
1000
0000
0100
0000
,
0100
0000
0020
0032
,
0023
0030
0001
0000
,
0001
0000
0200
0302
,
0100
0103
0001
0000
,
1000
0000
0010
0100
,
0001
0000
1001
0000
,
1000
0100
0000
0010
,
0001
0100
0000
0010
,
1000
0001
0000
0010
,
0010
0100
1000
0001
,
0100
0001
0000
1000
,
0010
1000
0000
0001
,
0010
0100
0000
1000
,
0001
0100
1001
0000
,
0000
0000
0001
0000
,
1001
0000
0001
0001
,
1000
0010
0000
0010
,
1000
0000
0100
0010
,
0001
0010
0100
1000
,
0001
0000
0100
0100
,
0010
0010
1000
0010
,
0100
0000
0002
2003
,
3002
2003
3200
0320
,
0230
0320
0031
0001
,
1000
1000
0010
0100
,
0001
0000
2000
3002
,
2003
3002
0023
0230
,
0320
0230
2300
3000
,
0002
0003
0100
0010
,
2002
3003
0000
0000
;

//--------------- dance-single - Kikoia vs. forcednature ----------------
#NOTEDATA:;
#STEPSTYPE:dance-single;
#DESCRIPTION:Kikoia vs. forcednature;
#DIFFICULTY:Medium;
#METER:10;
#RADARVALUES:0,0,0,0,0;
#CREDIT:Kikoia vs. forcednature;
#NOTES:
0000
0000
0000
0000
,
0000
0000
0000
0000
,
0000
0000
0000
0000
,
0000
0000
0000
0000
,
0000
0000
0000
0000
,
0000
0000
0000
0000
,
0000
0000
0000
0000
,
0000
0000
0000
0000
,
0000
0000
0000
0000
,
0002
0000
0003
0000
1000
0000
0001
1000
,
0001
0000
0200
0000
0310
0000
1000
0001
,
1000
0000
0100
0000
1000
0000
0010
0100
,
0020
0000
0130
0001
,
1001
0000
0000
0000
1000
0000
0000
0000
0010
0000
0000
0010
0000
0000
0010
0000
,
0000
0000
1000
0000
0001
0000
0000
0000
0100
0000
0000
0100
0000
0000
0100
0000
,
0000
0000
0001
0000
0010
0000
0000
0000
0001
0000
0000
0001
0000
0000
0001
0000
,
0000
0100
0010
0100
0010
0100
0010
0100
,
0010
0000
0000
0000
1000
0000
0000
0000
0100
0000
0000
0100
0000
0000
0100
0000
,
0000
0000
0010
0000
0001
0000
0000
0000
1000
0000
0000
1000
0000
0000
1000
0000
,
0000
0000
0010
0000
0100
0000
0000
0000
0001
0000
0000
0001
0000
0000
0001
0000
,
0020
0000
0030
0000
0001
0000
0001
1000
,
0000
1000
0100
0000
1000
0000
1000
0001
,
0000
0010
0010
0000
0001
1000
0001
0000
,
1000
0100
1000
0000
0010
0000
0100
0000
,
2002
0000
3003
0000
1000
0000
1000
0001
,
0000
0001
0100
0000
0001
0000
0001
1000
,
0000
0010
0010
0000
1000
0001
1000
0000
,
0001
0100
0001
0000
0010
0100
0010
0100
,
0000
1000
0100
0000
1100
0000
1100
0000
,
0011
0011
1100
1100
,
0011
0011
2000
3001
,
0002
0000
1003
0000
1000
0010
0100
0000
,
0001
1000
1000
0000
0101
0000
0101
0000
,
1010
1010
0101
0101
,
1010
1010
0002
0013
,
2000
3010
1001
0110
,
2002
0000
3003
0001
,
1000
0000
0001
0000
0100
0100
0100
0000
,
0000
0001
1000
0001
,
1000
0000
0000
0000
0100
0000
0000
0000
0020
0030
0000
0000
0002
0003
0000
0000
,
0200
0300
0010
1000
,
0001
0000
0000
0000
1000
0000
0000
0000
2200
3300
0000
0000
0002
0000
0003
0000
,
0100
0100
0001
0000
0010
0000
0001
0000
,
0100
0000
0001
0000
1000
1000
1000
0001
,
0000
0100
0020
0000
1030
0000
1010
0000
,
0001
0000
0001
0100
0000
0000
0001
0000
,
0010
0000
0010
0001
0000
0000
1000
0000
,
0010
0000
0010
0100
0000
0001
1000
0001
,
1000
0001
0100
0000
0110
0000
1000
0000
,
0100
0000
0100
0010
0000
0000
0001
0000
,
1000
0000
1000
0010
0000
0000
0100
0000
,
0001
0000
0001
0010
0002
0000
0203
0000
,
0320
2030
3100
0000
,
0000
0000
1000
0001
,
0010
0000
0000
0010
0000
0000
0100
0000
0000
0000
0000
0000
0000
0000
0000
0000
1001
0000
0000
0000
0000
0000
0000
0000
1001
0000
0000
0000
0000
0000
0000
0000
,
1000
0000
1000
0010
0000
1000
0010
1000
,
0002
0000
0013
0000
0011
0000
0010
0100
,
0000
0100
1000
0000
1001
0000
0001
0100
,
0000
0010
0010
0000
2000
0000
3002
0000
,
0203
0000
0320
0000
1030
0000
1000
0001
,
0000
0001
1000
0000
1100
0000
0011
0000
,
1100
0011
0101
1010
,
0101
0000
1010
0000
1000
0100
0010
0000
,
0001
0100
0010
0000
1000
0001
0010
0000
,
0001
0001
1000
0000
0101
0000
1010
0000
,
0101
1010
1100
0011
,
1100
0011
0002
0003
,
2000
3000
1001
0110
,
2002
3003
0000
0000
;

//--------------- dance-single - Kikoia vs. forcednature ----------------
#NOTEDATA:;
#STEPSTYPE:dance-single;
#DESCRIPTION:Kikoia vs. forcednature;
#DIFFICULTY:Hard;
#METER:14;
#RADARVALUES:0,0,0,0,0;
#CREDIT:Kikoia vs. forcednature;
#NOTES:
0000
0000
0000
0000
,
0000
0000
0000
0000
,
0000
0000
0000
0000
,
0000
0000
0000
0000
,
0000
0000
0000
0000
,
0000
0000
0000
0000
,
0000
0000
0000
0000
,
0000
0000
0000
0000
,
0000
0000
0000
0000
,
0001
0000
0000
0000
0001
0000
1000
0000
0100
0000
0000
0010
0000
0000
0001
0000
,
0000
0100
0110
0000
1001
0000
0001
0100
,
0000
0010
1000
0001
0010
0000
0100
1000
,
0001
0000
0000
0001
0000
0000
1000
0010
1000
0000
0001
0000
0100
0000
1000
0000
,
0100
0000
0000
0000
0101
0000
0000
0000
2000
0000
0000
0100
0000
0000
0010
0000
,
3000
0000
0001
0000
1000
0000
0100
0000
0010
0000
0002
0100
0000
0000
0010
0000
,
0003
0000
1000
0100
1000
0000
0001
0010
0100
0000
1000
0020
0000
0000
0100
0000
,
0030
2000
3020
0032
0023
2030
3002
0023
,
0130
0000
0000
0000
1001
0000
0000
0000
1200
0000
0000
0001
0000
0000
1000
0000
,
0300
0000
0001
0000
0100
0000
0001
0000
0020
0000
0000
1000
0000
0000
0031
0000
,
0000
0000
1000
0000
0010
0000
0100
0000
0001
0000
0000
0010
0000
0100
1000
0000
,
0020
0000
0000
0000
0030
0000
0000
0000
0001
0000
0100
0001
0000
0001
0010
0000
,
0000
0000
0100
0000
0010
0000
0001
0000
1000
0000
0010
1000
0000
1000
0100
0000
,
0010
0000
0001
0000
0011
0000
0000
0000
0001
0100
0001
0000
1000
0100
1000
0000
,
0001
0010
0100
0002
0000
0103
0010
0001
,
2000
0000
3010
0100
0010
0100
0001
0000
1000
0000
0010
1000
0000
1000
0100
0000
,
0000
0000
0010
0000
0001
0000
0100
0000
0010
0000
0100
0001
0000
0001
0010
0000
,
0100
1000
2100
0000
3010
1000
0100
1000
,
0001
0000
0010
0000
0100
0000
1000
0010
0100
0000
0001
1000
0000
0100
0000
1000
,
0000
0001
0010
0000
1001
0000
0000
0000
1000
0000
0100
0000
0001
0000
0100
0000
,
1000
0100
0001
0100
1000
0010
0001
0010
,
1000
0000
0001
0000
0010
0000
1000
0000
0010
0000
0100
0010
0100
0000
1000
0100
,
1000
0000
0001
0100
0001
0000
1000
0010
1000
0000
0001
0010
0001
0000
1000
0100
,
0010
0110
1001
0000
0001
0100
1000
0100
,
0001
0100
1000
0100
0001
0010
1000
0010
,
0001
0000
0000
1000
0000
0000
0020
0000
0000
0000
0000
0000
0130
0000
0001
0000
1000
0000
0100
0000
0000
0000
0000
0000
,
0100
0010
0001
1000
0000
0000
0010
0100
0001
0010
0100
1000
,
0010
0000
2001
0000
3010
0100
0001
1000
,
0100
0000
0001
0000
0100
1000
0000
0000
0001
1000
0001
1000
0002
0000
0000
0000
,
0103
0010
0000
0010
1000
0001
0010
0001
,
1000
0000
0010
0000
0001
0000
0010
0000
2000
3000
0000
0000
0002
0003
0000
0000
,
1000
0200
0000
0000
0300
0000
0100
0000
0010
0000
0001
0000
0100
0000
0001
0000
,
0010
0000
0100
1000
0000
0010
0000
0000
0200
0300
0000
0000
0002
0000
0003
0000
,
1000
0100
0001
0100
0010
0001
1000
0010
,
1000
0000
0100
0010
0000
0001
0000
0000
1000
0000
1000
0000
1000
0000
0001
0010
,
0000
0010
0100
0000
2000
0000
0000
0000
3010
0000
0000
0000
0110
0000
0000
0000
,
0100
0000
0001
0010
0000
0000
0011
0000
0000
0000
0010
0000
0001
0000
0010
0000
,
0100
0000
1000
0010
0000
0000
1010
0000
0000
0000
0010
0000
0100
0000
1000
0000
,
0100
0000
0001
0100
0000
0000
0101
0000
0000
0000
0001
0000
0010
0000
1000
0000
,
0001
0000
0100
0000
1000
0000
0000
0000
2001
0000
0000
0000
3001
0100
0001
0100
,
0010
0000
1000
0100
0000
0000
1100
0000
0000
0000
0001
0000
0010
0000
1000
0000
,
0010
0000
0001
0100
0000
0000
0101
0000
0000
0000
0001
0000
0010
0000
0100
0000
,
1000
0000
0010
0100
0000
0000
0110
0000
0000
0000
0100
0000
0001
0000
1000
0000
,
0100
0000
0000
0010
0000
0000
0001
0000
1001
0000
0000
0000
0000
0000
0000
0000
,
0000
0000
0000
0000
0000
0000
0000
0000
0000
0000
0000
0000
0000
0000
0000
0000
0010
0000
0000
0010
0000
0000
1000
0000
0000
0000
0001
0000
0010
0000
0000
0000
,
0011
0000
0000
1100
0000
0000
1001
0000
0000
0000
0000
0000
0000
0000
0000
0000
1000
0000
0010
0000
1000
0000
0000
0000
0001
0000
0010
0000
0001
0000
0000
0000
,
1000
0100
0010
2000
0000
3010
0001
0100
,
0020
0000
0031
0000
0020
0000
1030
0000
0001
0000
0010
0001
0000
0001
0100
0000
,
0010
0000
1000
0010
1000
0000
0100
0000
1000
0000
0100
1000
0000
1000
0010
0000
,
0100
0001
0102
0000
0013
0001
0100
0001
,
1000
0000
0010
0000
0100
0000
0001
0010
0100
0000
1000
0001
0000
0100
0000
0010
,
0000
1000
0100
0000
1001
0000
0000
0000
0001
0000
0100
0000
1000
0000
0100
0000
,
0001
0100
1000
0100
0001
0010
1000
0001
,
0100
0000
1000
0000
0001
0000
0100
0000
0010
0000
0100
0010
0100
0000
0001
0100
,
0001
0000
1000
0100
1000
0000
0001
0010
0001
0000
1000
0010
1000
0000
0001
0100
,
0010
0110
1001
0000
1000
0100
0001
0100
,
1000
0100
0001
0100
1000
0010
0001
1000
,
0100
0000
0000
0001
0000
0000
0020
0000
0000
0000
0000
0000
0130
0000
1000
0000
0001
0000
0100
0000
0000
0000
0000
0000
,
0100
0010
1000
0001
0000
0000
0010
0100
1000
0010
0100
0001
,
0020
0030
0000
0000
;

//--------------- dance-double - ----------------
#NOTEDATA:;
#STEPSTYPE:dance-double;
#DESCRIPTION:Kikoia vs. forcednature;
#CREDIT:Kikoia vs. forcednature;
#DIFFICULTY:Easy;
#METER:7;
#RADARVALUES:0,0,0,0,0;
#NOTES:
00000000
00000000
00000000
00000000
,
00000000
00000000
00000000
00000000
,
00000000
00000000
00000000
00000000
,
00000000
00000000
00000000
00000000
,
00000000
00000000
00000000
00000000
,
00000000
00000000
00000000
00000000
,
00000000
00000000
00000000
00000000
,
00000000
00000000
00000000
00000000
,
00000000
00000000
00000000
00000000
,
00001000
00000000
00001000
00010000
,
00000000
00010000
00001000
00000000
,
00000010
00000010
00000100
00000000
,
00000020
00000000
00000030
00000000
,
00001001
00000000
00000001
00000001
,
00000000
00000100
00000001
00001000
,
00000000
00000100
00010000
00001000
,
00000000
00010000
00001000
00010000
,
00001000
00000000
00100000
00010000
,
00000000
01000000
00010000
10000000
,
00000000
01000000
10000000
00010000
,
00200000
00300000
00011000
00000000
,
00001000
00010000
00001000
00000000
,
00000010
00000010
00000100
00001000
,
00000100
00000010
00000000
00000001
,
00000100
00000000
00001001
00000000
,
00001000
00000010
00001000
00000000
,
00000100
00010000
00001000
00000000
,
00001000
00010000
00001000
00100000
,
00010000
00000000
02000000
03200000
,
02300000
03200000
20300000
30020000
,
20030000
30020000
00130000
00100000
,
00001000
00100000
00001000
00010000
,
00001000
00000000
00000020
00000230
,
00000320
00000230
00002300
00003002
,
00002003
00003002
00000103
00000000
,
00000110
00000000
00000001
00001000
,
00002002
00000000
00003003
00000001
,
00000000
00000001
00000200
00000300
,
00001000
00000000
00010000
00000000
,
00001000
00000000
00020000
00032000
,
00023000
00030000
00100000
00000000
,
00100000
00000000
20000000
30020000
,
01000000
01030000
00010000
00000000
,
10000000
00000000
01000000
00100000
,
00010000
00000000
10010000
00000000
,
10000000
00100000
00000000
01000000
,
00001000
00010000
00000000
00001000
,
00010000
00001000
00000000
00000010
,
00000010
00000100
00000010
00000001
,
00001000
00000001
00000000
00000100
,
00000001
00001000
00000000
00000100
,
00001000
00000001
00000000
00000010
,
00000100
00010000
00011000
00000000
,
00000000
00000000
00000010
00000000
,
00011000
00000000
01000000
01000000
,
00010000
01000000
00000000
00100000
,
10000000
00000000
01000000
00100000
,
00010000
00000000
01000000
00100000
,
10000000
00000000
01000000
01000000
,
00100000
00100000
01000000
00100000
,
00001000
00000000
00020000
00032000
,
00023000
00032000
00003020
00000230
,
00000320
00000230
00001300
00001000
,
00000001
00000001
00000100
00000010
,
00001000
00000000
00000020
00000230
,
00000320
00000230
00002300
00023000
,
00032000
00023000
00230000
00300000
,
02000000
03000000
00010000
10000000
,
20020000
30030000
00000000
00000000
;

//--------------- dance-double - Kikoia vs. forcednature ----------------
#NOTEDATA:;
#STEPSTYPE:dance-double;
#DESCRIPTION:Kikoia vs. forcednature;
#CREDIT:Kikoia vs. forcednature;
#DIFFICULTY:Medium;
#METER:10;
#RADARVALUES:0,0,0,0,0;
#NOTES:
00000000
00000000
00000000
00000000
,
00000000
00000000
00000000
00000000
,
00000000
00000000
00000000
00000000
,
00000000
00000000
00000000
00000000
,
00000000
00000000
00000000
00000000
,
00000000
00000000
00000000
00000000
,
00000000
00000000
00000000
00000000
,
00000000
00000000
00000000
00000000
,
00000000
00000000
00000000
00000000
,
00020000
00000000
00030000
00000000
00001000
00000000
00010000
00001000
,
00010000
00000000
00200000
00000000
10300000
00000000
01000000
10000000
,
01000000
00000000
00100000
00000000
00001000
00000000
00010000
00001000
,
00020000
00000000
00031000
00000000
,
00011000
00000000
00000000
00000000
00001000
00000000
00000000
00000000
00000010
00000000
00000000
00000010
00000000
00000000
00000010
00000000
,
00000000
00000000
00000001
00000000
00000010
00000000
00000000
00000000
00000100
00000000
00000000
00000100
00000000
00000000
00000100
00000000
,
00000000
00000000
00010000
00000000
00001000
00000000
00000000
00000000
00100000
00000000
00000000
00100000
00000000
00000000
00100000
00000000
,
00000000
00010000
01000000
00010000
01000000
00010000
01000000
00010000
,
10000000
00000000
00000000
00000000
01000000
00000000
00000000
00000000
00100000
00000000
00000000
00100000
00000000
00000000
00100000
00000000
,
00000000
00000000
01000000
00000000
00010000
00000000
00000000
00000000
00001000
00000000
00000000
00001000
00000000
00000000
00001000
00000000
,
00000000
00000000
00000010
00000000
00000100
00000000
00000000
00000000
00000010
00000000
00000000
00000010
00000000
00000000
00000001
00000000
,
00000200
00000000
00000300
00000000
00000010
00000000
00000010
00001000
,
00000000
00001000
00000100
00000000
00010000
00000000
00010000
00001000
,
00000000
00100000
00100000
00000000
00010000
01000000
00010000
00000000
,
10000000
01000000
10000000
00000000
00100000
00000000
01000000
00000000
,
20020000
00000000
30030000
00000000
10000000
00000000
10000000
00010000
,
00000000
00010000
00100000
00000000
00001000
00000000
00001000
00010000
,
00000000
00000010
00000010
00000000
00001000
00000100
00001000
00000000
,
00000001
00000100
00000001
00000000
00000010
00000100
00000010
00000100
,
00000000
00001000
00000100
00000000
00001100
00000000
00001100
00000000
,
00010100
00010100
00101000
00101000
,
00110000
00110000
20000000
30010000
,
00020000
00000000
10030000
00000000
10000000
00100000
01000000
00000000
,
00010000
00100000
00100000
00000000
01010000
00000000
01010000
00000000
,
01001000
01001000
00010010
00010010
,
00001010
00001010
00000002
00000103
,
00002000
00003100
00001001
00000110
,
00002002
00000000
00003003
00000001
,
00001000
00000000
00000001
00000000
00000100
00000100
00000100
00000000
,
00000000
00001000
00010000
00001000
,
00010000
00000000
00000000
00000000
00100000
00000000
00000000
00000000
20000000
30000000
00000000
00000000
00020000
00030000
00000000
00000000
,
02000000
03000000
00100000
10000000
,
00010000
00000000
00000000
00000000
10000000
00000000
00000000
00000000
22000000
33000000
00000000
00000000
00020000
00000000
00030000
00000000
,
00100000
00100000
00010000
00000000
01000000
00000000
00001000
00000000
,
00010000
00000000
00000010
00000000
00001000
00001000
00001000
00000001
,
00000000
00000100
00000020
00000000
00001030
00000000
00001010
00000000
,
00000001
00000000
00000001
00000100
00000000
00000000
00001000
00000000
,
00010000
00000000
00010000
00001000
00000000
00000000
00010000
00000000
,
00100000
00000000
00100000
10000000
00000000
00010000
01000000
00010000
,
10000000
01000000
10000000
00000000
10010000
00000000
00010000
00000000
,
00100000
00000000
00100000
00001000
00000000
00000000
00010000
00000000
,
00000100
00000000
00000100
00001000
00000000
00000000
00000010
00000000
,
00000100
00000000
00000100
00000001
00000200
00000000
00002300
00000000
,
00023000
00230000
10300000
00000000
,
00000000
00000000
00010000
01000000
,
00001000
00000000
00000000
00001000
00000000
00000000
00010000
00000000
00000000
00000000
00000000
00000000
00000000
00000000
00000000
00000000
00011000
00000000
00000000
00000000
00000000
00000000
00000000
00000000
00011000
00000000
00000000
00000000
00000000
00000000
00000000
00000000
,
00001000
00000000
00000010
00000100
00000000
00000010
00000001
00000010
,
00000200
00000000
00001300
00000000
00001100
00000000
00000100
00000010
,
00000000
00000010
00000001
00000000
00001001
00000000
00001000
00000010
,
00000000
00010000
00010000
00000000
00002000
00000000
00023000
00000000
,
00032000
00000000
00203000
00000000
00310000
00000000
00010000
10000000
,
00000000
10000000
00010000
00000000
01010000
00000000
01010000
00000000
,
01001000
01001000
00010100
00010100
,
00001100
00000000
00001100
00000000
00001000
00000010
00000100
00000000
,
00000001
00000010
00000100
00000000
00001000
00000010
00010000
00000000
,
00000100
00000100
00001000
00000000
00001010
00000000
00001010
00000000
,
00010010
00010010
00101000
00101000
,
00110000
00110000
00020000
00030000
,
20000000
30000000
10010000
01100000
,
20020000
30030000
00000000
00000000
;

//--------------- dance-double - Kikoia vs. forcednature ----------------
#NOTEDATA:;
#STEPSTYPE:dance-double;
#DESCRIPTION:Kikoia vs. forcednature;
#CREDIT:Kikoia vs. forcednature;
#DIFFICULTY:Hard;
#METER:14;
#RADARVALUES:0,0,0,0,0;
#NOTES:
00000000
00000000
00000000
00000000
,
00000000
00000000
00000000
00000000
,
00000000
00000000
00000000
00000000
,
00000000
00000000
00000000
00000000
,
00000000
00000000
00000000
00000000
,
00000000
00000000
00000000
00000000
,
00000000
00000000
00000000
00000000
,
00000000
00000000
00000000
00000000
,
00000000
00000000
00000000
00000000
,
00001000
00000000
00000000
00000000
00001000
00000000
00010000
00000000
00001000
00000000
00000000
00000010
00000000
00000000
00000001
00000000
,
00000000
00000100
00000110
00000000
00001001
00000000
00000001
00000100
,
00000000
00001000
00010000
00100000
00010000
00000000
00100000
10000000
,
00010000
00000000
00000000
00010000
00000000
00000000
00100000
00010000
00100000
00000000
01000000
00000000
10000000
00000000
01000000
00000000
,
00010000
00000000
00000000
00000000
00011000
00000000
00000000
00000000
00001000
00000000
00000000
00000010
00000000
00000000
00000001
00000000
,
00000000
00000000
00000100
00000000
00000010
00000000
00000100
00000000
00000001
00000000
00000000
00000010
00000000
00000000
00001000
00000000
,
00000000
00000000
00010000
00001000
00010000
00000000
00001000
00010000
00001000
00000000
00100000
00020000
00000000
00000000
01000000
00000000
,
00030000
20000000
30200000
00320000
00230000
20300000
32000000
03020000
,
00031000
00000000
00000000
00000000
00011000
00000000
00000000
00000000
00010200
00000000
00000000
00001000
00000000
00000000
00000310
00000000
,
00000000
00000000
00000100
00000000
00010000
00000000
00001000
00000000
00200000
00000000
00000000
00010000
00000000
00000000
01300000
00000000
,
00000000
00000000
00100000
00000000
00001000
00000000
00010000
00000000
00000010
00000000
00000000
00001000
00000000
00000010
00000100
00000000
,
00000002
00000000
00000000
00000000
00000003
00000000
00000000
00000000
00000010
00000000
00000001
00000010
00000000
00000010
00000100
00000000
,
00000000
00000000
00001000
00000000
00000001
00000000
00000100
00000000
00001000
00000000
00010000
00001000
00000000
00001000
00100000
00000000
,
00010000
00000000
01000000
00000000
01010000
00000000
00000000
00000000
00010000
00100000
00010000
00000000
10000000
00100000
10000000
00000000
,
00010000
00100000
01000000
00020000
00000000
00031000
00000010
00000100
,
00002000
00000000
00003100
00000010
00000100
00000010
00000001
00000000
00001000
00000000
00000010
00000100
00000000
00000100
00000001
00000000
,
00000000
00000000
00000010
00000000
00001000
00000000
00010000
00000000
00001000
00000000
00100000
00010000
00000000
00010000
01000000
00000000
,
00100000
10000000
21000000
00000000
30010000
00100000
01000000
00100000
,
00001000
00000000
00000010
00000000
00000100
00000000
00001000
00000001
00000100
00000000
00000010
00001000
00000000
00000100
00000000
00010000
,
00000000
00001000
01000000
00000000
00010000
00000000
00000000
00000000
00100000
00000000
01000000
00000000
10000000
00000000
01000000
00000000
,
00010000
00001000
00000100
00000001
00000100
00000010
00001000
00000010
,
00000100
00000000
00000001
00000000
00000010
00000000
00001000
00000000
00010000
00000000
00001000
00100000
00001000
00000000
00010000
00000010
,
00010000
00000000
00001000
01000000
00001000
00000000
00010000
00000100
00010000
00000000
00001000
00100000
00010000
00000000
01000000
00001000
,
00010000
00001000
00011000
00000000
00000010
00000100
00000001
00000100
,
00001000
00010000
01000000
10000000
01000000
00100000
00010000
00100000
,
01000000
00000000
00000000
10000000
00000000
00000000
00200000
00000000
00000000
00000000
00000000
00000000
10300000
00000000
01000000
00000000
00010000
00000000
01000000
00000000
00000000
00000000
00000000
00000000
,
00010000
00001000
00010000
00001000
00000000
00000000
00000010
00000100
00001000
00000010
00000100
00000001
,
00000010
00000000
00000210
00000000
00010300
00001000
00100000
00010000
,
10000000
00000000
00100000
00000000
01000000
00010000
00000000
00000000
00100000
00010000
00100000
00010000
00200000
00000000
00000000
00000000
,
00301000
00000010
00000000
00000010
00000100
00010000
00001000
00000010
,
00000001
00000000
00000100
00000000
00001000
00000000
00000000
00000000
00020000
00030000
00000000
00000000
00002000
00003000
00000000
00000000
,
00010000
00200000
00000000
00000000
00300000
00000000
10000000
00000000
00100000
00000000
01000000
00000000
00010000
00000000
01000000
00000000
,
00100000
00000000
10000000
01000000
00000000
00010000
00000000
00000000
00002000
00003000
00000000
00000000
00020000
00000000
00030000
00000000
,
00001000
00000010
00000001
00000010
00000100
00001000
00000001
00000100
,
00000010
00000000
00010000
00001000
00000000
00010000
00000000
00000000
00100000
00000000
00100000
00000000
00100000
00000000
10000000
01000000
,
00000000
00100000
00010000
00000000
02000000
00000000
00000000
00000000
03100000
00000000
00000000
00000000
10010000
00000000
00000000
00000000
,
10000000
00000000
01000000
00010000
00000000
00000000
00011000
00000000
00000000
00000000
00001000
00000000
00000010
00000000
00000001
00000000
,
00000010
00000000
00000100
00001000
00000000
00000000
00001100
00000000
00000000
00000000
00000100
00000000
00000010
00000000
00000001
00000000
,
00000100
00000000
00001000
00010000
00000000
00000000
00011000
00000000
00000000
00000000
00010000
00000000
00100000
00000000
00010000
00000000
,
00001000
00000000
00000010
00000000
00001000
00000000
00000000
00000000
00021000
00000000
00000000
00000000
00130000
01000000
00100000
01000000
,
00010000
00000000
10000000
00010000
00000000
00000000
10010000
00000000
00000000
00000000
10000000
00000000
00100000
00000000
00010000
00000000
,
00001000
00000000
00010000
00001000
00000000
00000000
00011000
00000000
00000000
00000000
00010000
00000000
00001000
00000000
00000010
00000000
,
00000001
00000000
00000010
00000100
00000000
00000000
00000110
00000000
00000000
00000000
00000010
00000000
00000001
00000000
00000100
00000000
,
00001000
00000000
00000000
00010000
00000000
00000000
00100000
00000000
01100000
00000000
00000000
00000000
00000000
00000000
00000000
00000000
,
00000000
00000000
00000000
00000000
00000000
00000000
00000000
00000000
00000000
00000000
00000000
00000000
00000000
00000000
00000000
00000000
00100000
00000000
00000000
00100000
00000000
00000000
10000000
00000000
00000000
00000000
01000000
00000000
00010000
00000000
00000000
00000000
,
00011000
00000000
00000000
00101000
00000000
00000000
00010100
00000000
00000000
00000000
00000000
00000000
00000000
00000000
00000000
00000000
00000100
00000000
00001000
00000000
00000100
00000000
00000000
00000000
00000010
00000000
00000001
00000000
00000010
00000000
00000000
00000000
,
00000100
00010000
00001000
00000020
00000000
00001030
00010000
00100000
,
02000000
00000000
03010000
00000000
02000000
00000000
13000000
00000000
01000000
00000000
00010000
00100000
00000000
00100000
01000000
00000000
,
10000000
00000000
01000000
00100000
01000000
00000000
00010000
00000000
00001000
00000000
00100000
00001000
00000000
00001000
00010000
00000000
,
00001000
00000010
00000002
00000000
00000103
00001000
00000100
00000001
,
00000010
00000000
00000100
00000000
00010000
00000000
00001000
00010000
00001000
00000000
01000000
00010000
00000000
00100000
00000000
01000000
,
00000000
10000000
00100000
00000000
01100000
00000000
00000000
00000000
01000000
00000000
00100000
00000000
10000000
00000000
00100000
00000000
,
00010000
00001000
00000010
00000001
00000010
00000100
00001000
00000100
,
00000010
00000000
00000001
00000000
00000100
00000000
00001000
00000000
00010000
00000000
00001000
01000000
00001000
00000000
00010000
00000100
,
00010000
00000000
00001000
00100000
00001000
00000000
00010000
00000010
00010000
00000000
00000100
00001000
00000010
00000000
00010000
00001000
,
00100000
00001000
00011000
00000000
00000100
00000010
00000001
00000010
,
00001000
00010000
00100000
10000000
00100000
01000000
00010000
01000000
,
00100000
00000000
00000000
10000000
00000000
00000000
02000000
00000000
00000000
00000000
00000000
00000000
13000000
00000000
00100000
00000000
00010000
00000000
00100000
00000000
00000000
00000000
00000000
00000000
,
00010000
00001000
00010000
00001000
00000000
00000000
00000100
00000010
00001000
00000100
00000010
00000001
,
00000200
00000300
00000000
00000000
;
