#VERSION:0.83;
#TITLE:炎影;
#SUBTITLE:;
#ARTIST:RoughSkreamZ feat.楽天斎;
#TITLETRANSLIT:Hikage;
#SUBTITLETRANSLIT:;
#ARTISTTRANSLIT:RoughSkreamZ feat.Rakutensai;
#GENRE:HIP HOP;
#CREDIT:;
#MUSIC:Hikage.ogg;
#BANNER:Hikage.png;
#BACKGROUND:Hikage-bg.png;
#CDTITLE:./CDTitles/bm IIDX 24 SINOBUZ.png;
#SAMPLESTART:32.688;
#SAMPLELENGTH:15.000;
#SELECTABLE:YES;
#OFFSET:0.749;
#BPMS:0.000=136.000;
#STOPS:;
#BGCHANGES:4.000=Hikage.mp4=1.000=0=0=0=StretchNoLoop====,
99999.000=-nosongbg-=1.000=0=0=0=StretchNoLoop====
;
#FGCHANGES:;

//--------------- dance-single - forcednature ----------------
#NOTEDATA:;
#STEPSTYPE:dance-single;
#DESCRIPTION:forcednature;
#CREDIT:forcednature;
#DIFFICULTY:Beginner;
#METER:2;
#RADARVALUES:0,0,0,0,0;
#NOTES:
0000
0000
0000
0000
,
0000
0000
0000
0000
,
0000
0000
0000
0000
,
1000
0000
0000
0000
,
0000
0000
0000
0000
,
0000
0000
0000
0000
,
0000
0000
0000
0000
,
0001
0000
0000
0000
,
0000
0000
0000
0000
,
0000
0000
0000
0000
,
0000
0000
0000
0000
,
0100
0000
0000
0000
,
0000
0000
0000
0000
,
0000
0000
0000
0000
,
0000
0000
0000
0000
,
0010
0000
0000
0000
,
0000
0000
0000
0000
,
1000
0000
0000
0000
,
0001
0000
0000
0000
,
0010
0000
0010
0000
,
0100
0000
0100
0000
,
0010
0000
0100
0000
,
0010
0000
0000
0000
,
0001
0000
0001
0000
,
1000
0000
1000
0000
,
0001
0000
1000
0000
,
0001
0000
0000
0000
,
0100
0000
0000
0000
,
0000
0000
0000
0000
,
0010
0000
0000
0000
,
0000
0000
0000
0000
,
1000
0000
0000
0000
,
0000
0000
0000
0000
,
0001
0000
0000
0000
,
0000
0000
0000
0000
,
0010
0000
0000
0000
,
0000
0000
0000
0000
,
0100
0000
0000
0000
,
0000
0000
0000
0000
,
1000
0000
0000
0000
,
0001
0000
0000
0000
,
0001
0000
1000
0000
,
0001
0000
0000
0000
,
1001
0000
0000
0000
,
0000
0000
0000
0000
,
1000
0000
0000
0000
,
0000
0000
0000
0000
,
0010
0000
0000
0000
,
0000
0000
0000
0000
,
0100
0000
0000
0000
,
0001
0000
0000
0000
,
1001
0000
0000
0000
,
1001
0000
0000
0000
,
0001
0000
0001
0000
,
1000
0000
0000
0000
,
0010
0000
0100
0000
,
0100
0000
0010
0000
,
1000
0000
0001
0000
,
1000
0000
0000
0000
,
0100
0000
0100
0000
,
0010
0000
0010
0000
,
0001
0000
1000
0000
,
0001
0000
0000
0000
,
0100
0000
0000
0000
,
0010
0000
0000
0000
,
0100
0000
0010
0000
,
0110
0000
0000
0000
;

//--------------- dance-single - forcednature ----------------
#NOTEDATA:;
#STEPSTYPE:dance-single;
#DESCRIPTION:forcednature;
#CREDIT:forcednature;
#DIFFICULTY:Easy;
#METER:5;
#RADARVALUES:0,0,0,0,0;
#NOTES:
0000
0000
0000
0000
,
0000
0000
0000
0000
,
0000
0000
0000
0000
,
0001
0000
0000
0100
,
0001
0000
0000
0010
,
0001
0000
0000
1000
,
0001
0000
0000
0100
,
0010
0000
0000
1000
,
0100
0000
0000
1000
,
0001
0000
0000
1000
,
0010
0000
0000
0100
,
0001
0000
0001
0000
,
0010
0000
0001
0000
,
0100
0000
0010
0000
,
1000
0000
0100
0000
,
1000
0000
0010
0000
,
1000
0000
0001
0000
,
0100
0000
0100
0000
,
0020
0000
0000
0030
,
1000
1000
0100
0000
,
1000
1000
0010
0000
,
1000
0001
1000
0000
,
0010
0000
0100
0000
,
0001
0001
0010
0000
,
0001
0001
0100
0000
,
0001
1000
0001
0000
,
0010
0000
0100
0000
,
1001
0000
0000
0000
,
1000
0000
1000
0000
,
0100
0000
0000
0000
,
0010
0000
0001
0001
,
0001
0000
0000
0100
,
0001
0000
0000
0010
,
0001
0000
1000
0000
,
0010
0000
0100
0000
,
2002
0000
0000
0000
,
0000
0000
0000
3003
,
0220
0000
0000
0330
,
0001
0000
1000
0000
,
1001
0000
0000
0001
,
0010
0000
0000
0001
,
1000
0000
0001
0000
,
2002
0000
0000
3003
,
1000
0000
0100
0000
,
1000
0000
0010
0000
,
1000
0000
0001
0000
,
0100
0000
0001
0000
,
0010
0000
0100
0000
,
1000
0000
0001
0000
,
1000
0000
0010
0000
,
0200
0000
0000
0300
,
0001
1000
0000
0000
,
1000
0001
0000
0000
,
0010
0000
0100
0000
,
0220
0000
0000
0330
,
1000
1000
0010
0000
,
1000
1000
0100
0000
,
1000
0001
1000
0000
,
0010
0000
0100
0000
,
0001
0001
0100
0000
,
0001
0001
1000
0000
,
0001
0001
0010
0000
,
0100
0000
0010
0000
,
1001
0000
1000
0000
,
1001
0000
0001
0000
,
0100
0000
0010
0000
,
1001
0000
0000
0000
;

//--------------- dance-single - forcednature ----------------
#NOTEDATA:;
#STEPSTYPE:dance-single;
#DESCRIPTION:forcednature;
#CREDIT:forcednature;
#DIFFICULTY:Medium;
#METER:9;
#RADARVALUES:0,0,0,0,0;
#NOTES:
0000
0000
0000
0000
,
0000
0000
0000
0000
,
0000
0000
0000
0000
,
1000
0000
0000
1000
0000
0000
0100
0000
0000
0000
1000
0000
0010
0000
0000
0000
,
0100
0000
0000
0100
0000
0000
0001
0000
0000
0000
0010
0000
0001
0000
0000
0000
,
1000
0000
0000
0010
0000
0000
1000
0000
0000
0000
0001
0000
0100
0000
0000
0000
,
0001
0000
0000
0010
0000
0000
0001
0000
0000
0000
0010
0000
0100
0000
0000
0000
,
1000
0000
0000
0001
0000
0000
1000
0000
0000
0000
0010
0000
0100
0000
0000
0000
,
0001
0000
0000
0100
0000
0000
0001
0000
0000
0000
1000
0000
0010
0000
0000
0000
,
1000
0000
0000
0100
0000
0000
1000
0000
0000
0000
0001
0000
0010
0000
0000
0000
,
0100
0000
0000
0100
0000
0000
1000
0000
0000
0000
0001
0000
0200
0000
0000
0000
,
0300
0010
0000
0010
0000
1000
0010
1000
,
0000
0001
0010
0100
0000
0010
0100
0010
,
0000
0001
0000
0001
0000
0100
0010
0100
,
0000
0010
1000
0001
0000
1000
0100
1000
,
0000
0001
0000
0001
0000
0010
0001
0000
,
0000
1000
0000
1000
0000
0010
1000
0000
,
1001
0000
0001
0000
0100
0010
0100
0000
,
0110
0000
0000
0000
1000
0000
0000
1000
0000
0000
0010
0000
1000
0000
0000
0000
,
1100
1100
0001
0010
,
0101
0101
1000
0010
,
0100
0100
0100
0000
0001
1000
0001
0000
,
0010
0100
1000
0100
0000
1000
0001
0000
,
0101
0101
1000
0010
,
1100
1100
0001
0010
,
0001
0001
0001
0000
1000
0010
1000
0000
,
0001
0010
0100
0010
0000
0001
1000
0000
,
1001
0000
0001
0100
,
0001
0000
0001
0000
1000
0001
1000
0000
,
1001
0000
1000
0100
,
1001
0000
0001
0000
0010
0100
0010
0000
,
0001
0000
0000
0001
0000
0000
1000
0000
0000
0000
0010
0000
1000
0000
0000
0000
,
1000
0000
0000
1000
0000
0000
0001
0000
0000
0000
0010
0000
0001
0000
0000
0000
,
0100
0000
0000
0100
0000
0000
0001
0000
1000
0000
0000
1000
0000
0000
0100
0000
,
0010
0000
0001
0000
0100
0010
0100
0000
,
2001
0000
0000
0000
,
3200
0000
0000
0000
0000
0000
0310
0100
,
0020
0000
0000
0000
,
0032
0000
0000
0000
0100
0000
0000
0000
1000
0000
0000
1003
0000
0000
0001
0000
,
1000
0000
0000
1000
0000
0000
0010
0000
0000
0000
1000
0000
0001
0000
0000
0000
,
0100
0000
0000
0100
0000
0000
0001
0000
0000
0000
1000
0000
0100
0000
0000
0000
,
0010
0000
0000
0010
0000
0000
0001
0000
0100
0000
0000
0100
0000
0000
0010
0000
,
2000
0100
0002
3003
,
1000
0000
0010
0000
0100
0000
0000
0100
0000
0000
0001
0000
1000
0000
0000
0000
,
0100
0000
1000
0000
0001
0000
0000
0010
0000
0000
0010
0000
0001
0000
0000
0000
,
0100
0000
0000
0010
0000
0000
0100
0000
0010
0000
0000
1000
0000
0000
0010
0000
,
1000
0000
0001
0000
0100
0001
0100
0000
,
1001
0000
0001
0000
0010
0100
1000
0000
,
0100
1000
0010
0000
1000
0001
1000
0000
,
0001
0000
0001
0000
0100
0001
0100
0000
,
0010
1000
0000
1000
0001
0000
0010
0000
,
0001
0000
0000
0001
0000
0000
1000
0000
0000
0000
0100
0000
1000
0000
0000
0000
,
1000
0000
0000
1000
0000
0000
0001
0000
0000
0000
0100
0000
0001
0000
0000
0000
,
0010
0000
0000
0010
0000
0000
0001
0000
0100
0000
0000
0100
0000
0000
0010
0000
,
2000
0100
0001
3010
,
1001
1001
0001
0010
,
0110
0110
1000
0010
,
0100
0100
0100
0000
0001
1000
0001
0000
,
0010
0001
0010
0100
0000
1000
0100
0000
,
1001
1001
0001
0010
,
1001
1001
1000
0010
,
0100
0100
0100
0000
0001
1000
0001
0000
,
0010
0001
1000
0010
0000
0010
0100
0000
,
1001
0000
1000
0000
0100
0010
0100
0000
,
1001
0000
0001
0000
0100
0010
0100
0000
,
0010
1000
0001
0000
0010
0001
1000
0000
,
1001
0000
0000
0000
;

//--------------- dance-single - forcednature ----------------
#NOTEDATA:;
#STEPSTYPE:dance-single;
#DESCRIPTION:forcednature;
#CREDIT:forcednature;
#DIFFICULTY:Hard;
#METER:14;
#RADARVALUES:0,0,0,0,0;
#NOTES:
0000
0000
0000
0000
,
0000
0000
0000
0000
,
0000
0000
0000
0000
,
0001
0100
0000
0001
0100
0000
0001
0100
0000
0000
0010
0000
1000
0000
0001
0000
,
1000
0100
0000
1000
0100
0000
1000
0100
0000
0000
0010
0000
0001
0000
1000
0000
,
0010
0100
0000
0010
0100
0000
0010
0100
0000
0000
0001
0000
1000
0000
0100
0000
,
0010
0100
0000
0010
0100
0000
0010
0100
0000
0000
1000
0000
0001
0000
0000
0000
,
0010
0001
0000
0010
0001
0000
0010
0001
0000
0000
1000
0000
0001
0000
0100
0000
,
0010
1000
0000
0010
1000
0000
0010
1000
0000
0000
0001
0000
1000
0000
0100
0000
,
0010
0100
0000
0010
0100
0000
0010
0100
0000
0000
1000
0000
0001
0000
0100
0000
,
0010
1000
0000
0010
1000
0000
0010
1000
0000
0000
0001
0000
0200
0000
0000
0000
,
0301
0010
0001
0010
1000
0010
0001
1000
,
0001
0100
0001
0100
1000
0100
0001
1000
,
0001
0010
0001
0010
1000
0010
0001
1000
,
0010
0100
0110
0000
1000
0001
1001
0000
,
1000
0000
0100
0000
0001
0000
0100
0000
1000
0000
0001
1000
0001
0000
0000
0000
,
0001
0000
0100
0000
1000
0000
0100
0000
0001
0000
1000
0001
1000
0000
0000
0000
,
0001
0010
0100
1000
0001
0100
0010
1000
,
0100
0000
1000
0000
0001
0000
0100
0001
0000
0001
0100
0000
0020
0000
0000
0000
,
1030
0000
0100
0000
1100
0000
0000
0000
0001
0010
0000
0001
1000
0001
1000
0000
,
0001
0000
0100
0000
0101
0000
0000
0000
1000
0010
0000
1000
0001
1000
0001
0000
,
0100
0000
0110
0000
1001
0000
0000
0000
0001
0010
0001
0010
0001
0000
0100
0000
,
0010
1000
0000
1000
0000
0001
0100
0001
0000
1000
0100
1000
0010
0000
0100
0000
,
0001
0000
0010
0000
0011
0000
0000
0000
1000
0100
0000
1000
0001
1000
0001
0000
,
1000
0000
0010
0000
1010
0000
0000
0000
0001
0100
0000
0001
1000
0001
1000
0000
,
0010
0000
0110
0000
1001
0000
0000
0000
1000
0010
1000
0010
1000
0000
0001
0000
,
0010
0100
0000
0100
0000
1000
0001
0010
0000
0001
1000
0001
0100
0000
0010
0000
,
1001
0000
1000
0000
0001
0010
1000
0000
,
0010
0000
0001
0000
1000
0000
0100
0000
0010
0100
0010
0100
0010
0000
0000
0000
,
1001
0000
0001
0100
1000
0100
0001
0000
,
1000
0000
0010
0100
0010
0000
0100
0000
0001
0000
0000
0011
0000
0000
1000
0000
,
1100
0000
0000
1001
0000
0000
0011
0000
0000
1000
0001
1000
0001
0000
0000
0000
,
0101
0000
0000
1001
0000
0000
1010
0000
0000
0001
1000
0001
1000
0000
0100
0000
,
1100
0000
0000
1100
0000
0000
0011
0000
0101
0000
0000
0101
0000
0000
1010
0000
,
1000
0100
0000
1000
0100
0000
1000
0001
0000
0010
0001
0010
0100
0000
0000
0000
,
1002
0000
1000
0000
0100
0100
0100
0000
,
1000
1000
1000
0000
0010
0010
0013
0000
,
2001
0000
0001
0000
0100
0100
0100
0000
,
0001
0000
0001
0000
0001
0000
0000
0000
0010
0000
0000
3010
0000
0000
0110
0000
,
0001
0000
0001
0100
0000
0100
0001
0000
1000
0010
1000
0010
1000
0000
0001
0000
,
1000
0000
1000
0100
0000
0100
1000
0000
0001
0010
0001
0010
0001
0000
1000
0000
,
0010
0000
0010
0100
0000
0100
0001
0000
0010
0000
0010
0100
0000
0100
1000
0000
,
2002
0000
0000
3003
,
0001
0010
0001
0000
1000
0000
0010
0100
0000
0100
0001
0000
0010
0000
0001
0000
,
1000
0010
1000
0000
0001
0000
0010
0100
0000
0100
1000
0000
0001
0000
0010
0000
,
0002
0000
0000
0103
0000
0000
0010
1000
0020
0000
0000
2030
0000
0000
3100
0000
,
0010
0100
0010
0100
0010
0000
0001
0000
1000
0100
1000
0100
0010
0000
0001
0000
,
0000
0000
0100
0001
0100
0000
0010
0100
0010
0000
1000
0010
1000
0000
0001
0000
,
0010
0100
1000
0000
0010
0100
0001
0000
1000
0100
0010
0000
0001
0000
0100
0000
,
0010
1000
0010
0000
1000
0100
1000
0000
0001
0100
0001
0000
0010
0001
0010
0000
,
0200
0000
0000
0000
1300
0010
1000
0010
0100
0001
0100
0001
0010
0000
0000
0000
,
1001
0000
0000
1100
0000
0000
1001
0000
0000
0000
0001
0000
0010
0000
0000
0000
,
1001
0000
0000
0101
0000
0000
1001
0000
0000
0000
1000
0000
0010
0000
0000
0000
,
0101
0000
0000
0101
0000
0000
0011
0000
1100
0000
0000
1100
0000
0000
1010
0000
,
0002
0000
0000
0000
0103
0000
0010
0000
1000
0100
1000
0100
0010
0000
0000
0000
,
0001
0000
0100
0000
1001
0000
0000
0000
1000
0010
0000
1000
0001
0100
0001
0000
,
1000
0000
0100
0000
1001
0000
0000
0000
0001
0010
0000
0001
1000
0100
1000
0000
,
0010
0000
0110
0000
1001
0000
0000
0000
0001
0010
0100
0010
0001
0000
1000
0000
,
0010
0100
0000
0100
0000
0001
0010
0001
0000
1000
0010
1000
0001
0010
0100
0000
,
1000
0000
0010
0000
1001
0000
0000
0000
0001
0100
0000
0001
1000
0010
1000
0000
,
0001
0000
0010
0000
1001
0000
0000
0000
1000
0100
0000
1000
0001
0010
0001
0000
,
0100
0000
0110
0000
1001
0000
0000
0000
1000
0010
0100
0010
1000
0000
0001
0000
,
0010
0100
0000
0100
0000
1000
0001
0100
0000
0010
1000
0001
0010
0001
1000
0000
,
0100
0000
0000
0010
0100
0000
1000
0000
0001
0000
0010
0001
0010
0000
0001
0000
,
0100
0000
0000
0010
0100
0000
0001
0000
1000
0010
1000
0010
1000
0000
0001
0000
,
0010
0000
0100
1000
0010
0000
0100
0001
0010
0000
0100
1000
0010
0000
0100
0000
,
1001
0000
0000
0000
;

//--------------- dance-double - forcednature ----------------
#NOTEDATA:;
#STEPSTYPE:dance-double;
#DESCRIPTION:forcednature;
#CREDIT:forcednature;
#DIFFICULTY:Easy;
#METER:5;
#RADARVALUES:0,0,0,0,0;
#NOTES:
00000000
00000000
00000000
00000000
,
00000000
00000000
00000000
00000000
,
00000000
00000000
00000000
00000000
,
00010000
00000000
00000000
00001000
,
00010000
00000000
00000000
00000100
,
00001000
00000000
00000000
00000100
,
00000010
00000000
00000000
00000001
,
00000100
00000000
00000000
00000001
,
00001000
00000000
00000000
00000100
,
00010000
00000000
00000000
00001000
,
00100000
00000000
00000000
00010000
,
01000000
00000000
01000000
00000000
,
00010000
00000000
00100000
00000000
,
01000000
00000000
10000000
00000000
,
00100000
00000000
01000000
00000000
,
00001000
00000000
00010000
00000000
,
00000010
00000000
00001000
00000000
,
00000001
00000000
00000010
00000000
,
00000200
00000000
00000000
00000300
,
00001000
00001000
00000100
00000000
,
00010000
00010000
00001000
00000000
,
00100000
00010000
00100000
00000000
,
01000000
00000000
10000000
00000000
,
00010000
00010000
01000000
00000000
,
00001000
00001000
00010000
00000000
,
00000010
00001000
00000010
00000000
,
00000100
00000000
00000001
00000000
,
00001001
00000000
00000000
00000000
,
00001000
00000000
00001000
00000000
,
00000100
00000000
00000000
00000000
,
00010000
00000000
00001000
00001000
,
00001000
00000000
00000000
01000000
,
00010000
00000000
00000000
00100000
,
00010000
00000000
10000000
00000000
,
00100000
00000000
01000000
00000000
,
20020000
00000000
00000000
00000000
,
00000000
00000000
00000000
30030000
,
00200000
00000000
00000000
00300000
,
00010000
00010000
01000000
00000000
,
00011000
00000000
00000000
00000100
,
00001000
00000000
00000000
00000010
,
00000100
00000000
00000010
00000000
,
00002002
00000000
00000000
00003003
,
00001000
00000000
00000100
00000000
,
00010000
00000000
00001000
00000000
,
01000000
00000000
00010000
00000000
,
00100000
00000000
00010000
00000000
,
10000000
00000000
00100000
00000000
,
01000000
00000000
00010000
00000000
,
00100000
00000000
00001000
00000000
,
00020000
00000000
00000000
00030000
,
00001000
00010000
00000000
00000000
,
00001000
00010000
00000000
00000000
,
00000100
00000000
00001000
00000000
,
00000220
00000000
00000000
00000330
,
00000001
00000001
00000010
00000000
,
00000001
00000001
00000100
00000000
,
00000010
00001000
00000010
00000000
,
00010000
00000000
00001000
00000000
,
00100000
00100000
00010000
00000000
,
01000000
01000000
00010000
00000000
,
10000000
10000000
00100000
00000000
,
10000000
00000000
01000000
00000000
,
01100000
00000000
00100000
00000000
,
00011000
00000000
00001000
00000000
,
00010000
00000000
00000100
00000000
,
00000110
00000000
00000000
00000000
;

//--------------- dance-double - forcednature ----------------
#NOTEDATA:;
#STEPSTYPE:dance-double;
#DESCRIPTION:forcednature;
#CREDIT:forcednature;
#DIFFICULTY:Medium;
#METER:10;
#RADARVALUES:0,0,0,0,0;
#NOTES:
00000000
00000000
00000000
00000000
,
00000000
00000000
00000000
00000000
,
00000000
00000000
00000000
00000000
,
00001000
00000000
00000000
00001000
00000000
00000000
00010000
00000000
00000000
00000000
00000010
00000000
00001000
00000000
00000000
00000000
,
00000100
00000000
00000000
00000100
00000000
00000000
00000010
00000000
00000000
00000000
00000001
00000000
00000100
00000000
00000000
00000000
,
00001000
00000000
00000000
00010000
00000000
00000000
00001000
00000000
00000000
00000000
00010000
00000000
00100000
00000000
00000000
00000000
,
10000000
00000000
00000000
00010000
00000000
00000000
10000000
00000000
00000000
00000000
01000000
00000000
00100000
00000000
00000000
00000000
,
00001000
00000000
00000000
00010000
00000000
00000000
00001000
00000000
00000000
00000000
00010000
00000000
00000100
00000000
00000000
00000000
,
00001000
00000000
00000000
00000010
00000000
00000000
00001000
00000000
00000000
00000000
00000001
00000000
00000010
00000000
00000000
00000000
,
00000100
00000000
00000000
00001000
00000000
00000000
00000100
00000000
00000000
00000000
00010000
00000000
00001000
00000000
00000000
00000000
,
00100000
00000000
00000000
00100000
00000000
00000000
00010000
00000000
00000000
00000000
01000000
00000000
00200000
00000000
00000000
00000000
,
00300000
10000000
00000000
10000000
00000000
01000000
10000000
01000000
,
00000000
00100000
00010000
00100000
00000000
00001000
00010000
00001000
,
00000000
00000100
00000000
00000100
00000000
00000001
00001000
00000001
,
00000000
00000010
00000100
00010000
00000000
00001000
00100000
00010000
,
00000000
01000000
00000000
01000000
00000000
10000000
01000000
00000000
,
00000000
00010000
00000000
00010000
00000000
00100000
00001000
00000000
,
00011000
00000000
00000100
00000000
00001000
00000010
00001000
00000000
,
00000110
00000000
00000000
00000000
00000001
00000000
00000000
00000001
00000000
00000000
00001000
00000000
00000010
00000000
00000000
00000000
,
00000110
00000110
00001000
00010000
,
01100000
01100000
00010000
00001000
,
00000010
00000010
00000010
00000000
00000100
00001000
00000001
00000000
,
00000100
00001000
00010000
00001000
00000000
00010000
00100000
00000000
,
01100000
01100000
00010000
00001000
,
00000110
00000110
00001000
00010000
,
00100000
00100000
00100000
00000000
10000000
00010000
01000000
00000000
,
00010000
00100000
01000000
00010000
00000000
00001000
00010000
00000000
,
00011000
00000000
00000010
00001000
,
00000001
00000000
00000001
00000000
00000100
00001000
00010000
00000000
,
00011000
00000000
00100000
00010000
,
10010000
00000000
00000000
00000000
10000000
00000000
00000000
00000000
01000000
00000000
00000000
01000000
00000000
00000000
00100000
00000000
,
00001000
00000000
00000000
00001000
00000000
00000000
00010000
00000000
00000000
00000000
00000100
00000000
00001000
00000000
00000000
00000000
,
00000010
00000000
00000000
00000010
00000000
00000000
00000100
00000000
00000000
00000000
00000001
00000000
00000010
00000000
00000000
00000000
,
00000100
00000000
00000000
00000100
00000000
00000000
00010000
00000000
00001000
00000000
00000000
00001000
00000000
00000000
00100000
00000000
,
00010000
00000000
01000000
00000000
00100000
10000000
00100000
00000000
,
20010000
00000000
00000000
00000000
,
32000000
00000000
00000000
00000000
00000000
00000000
03100000
00001000
,
00020000
00000000
00000000
00000000
,
00030200
00000000
00000000
00000000
00001000
00000000
00000000
00000000
00000010
00000000
00000000
00000310
00000000
00000000
00000100
00000000
,
00001000
00000000
00000000
00001000
00000000
00000000
00000001
00000000
00000000
00000000
00000100
00000000
00001000
00000000
00000000
00000000
,
00010000
00000000
00000000
00010000
00000000
00000000
00100000
00000000
00000000
00000000
10000000
00000000
00010000
00000000
00000000
00000000
,
01000000
00000000
00000000
01000000
00000000
00000000
00100000
00000000
10000000
00000000
00000000
10000000
00000000
00000000
01000000
00000000
,
00200000
00010000
00002000
00303000
,
00001000
00000000
00010000
00000000
00000100
00000000
00000000
00000100
00000000
00000000
00001000
00000000
00000010
00000000
00000000
00000000
,
00000100
00000000
00000001
00000000
00001000
00000000
00000000
00001000
00000000
00000000
00000100
00000000
00010000
00000000
00000000
00000000
,
00001000
00000000
00000000
00100000
00000000
00000000
00010000
00000000
01000000
00000000
00000000
00100000
00000000
00000000
10000000
00000000
,
01000000
00000000
00010000
00000000
00001000
00010000
00001000
00000000
,
00011000
00000000
00000100
00000000
00001000
00000010
00000100
00000000
,
00000001
00000010
00000100
00000000
00010000
00001000
00100000
00000000
,
00010000
00000000
00010000
00000000
01000000
00010000
10000000
00000000
,
01000000
00010000
00000000
00010000
00001000
00000000
00000010
00000000
,
00000100
00000000
00000000
00000100
00000000
00000000
00001000
00000000
00000000
00000000
00000001
00000000
00000100
00000000
00000000
00000000
,
00001000
00000000
00000000
00001000
00000000
00000000
00010000
00000000
00000000
00000000
00100000
00000000
10000000
00000000
00000000
00000000
,
01000000
00000000
00000000
01000000
00000000
00000000
00010000
00000000
00001000
00000000
00000000
00001000
00000000
00000000
00000010
00000000
,
00000200
00000001
00001000
00010300
,
00000110
00000110
00001000
00010000
,
01100000
01100000
00010000
00001000
,
00000010
00000010
00000010
00000000
00000001
00000100
00001000
00000000
,
00010000
00100000
01000000
00010000
00000000
10000000
01000000
00000000
,
01100000
01100000
00010000
00001000
,
00000110
00000110
00001000
00010000
,
00100000
00100000
00100000
00000000
01000000
00010000
10000000
00000000
,
01000000
00010000
00001000
00010000
00000000
00001000
00000010
00000000
,
00000110
00001000
00010000
01000000
,
01100000
00010000
00001000
00000100
,
00000110
00000000
00001000
00000001
00000100
00000000
00001000
00000000
,
00011000
00000000
00000000
00000000
;

//--------------- dance-double - forcednature ----------------
#NOTEDATA:;
#STEPSTYPE:dance-double;
#DESCRIPTION:forcednature;
#CREDIT:forcednature;
#DIFFICULTY:Hard;
#METER:14;
#RADARVALUES:0,0,0,0,0;
#NOTES:
00000000
00000000
00000000
00000000
,
00000000
00000000
00000000
00000000
,
00000000
00000000
00000000
00000000
,
00010000
00001000
00000000
00010000
00001000
00000000
00010000
00001000
00000000
00000000
00100000
00000000
00010000
00000000
01000000
00000000
,
00100000
10000000
00000000
00100000
10000000
00000000
00100000
10000000
00000000
00000000
01000000
00000000
00010000
00000000
00001000
00000000
,
00000010
00000100
00000000
00000010
00000100
00000000
00000010
00000100
00000000
00000000
00001000
00000000
00000001
00000000
00000100
00000000
,
00001000
00010000
00000000
00001000
00010000
00000000
00001000
00010000
00000000
00000000
00100000
00000000
10000000
00000000
00000000
00000000
,
01000000
00010000
00000000
01000000
00010000
00000000
01000000
00010000
00000000
00000000
00001000
00000000
00100000
00000000
00001000
00000000
,
00010000
00000100
00000000
00010000
00000100
00000000
00010000
00000100
00000000
00000000
00001000
00000000
00000001
00000000
00000100
00000000
,
00000010
00001000
00000000
00000010
00001000
00000000
00000010
00001000
00000000
00000000
00000001
00000000
00000010
00000000
00001000
00000000
,
00010000
00001000
00000000
00010000
00001000
00000000
00010000
00001000
00000000
00000000
00010000
00000000
02000000
00000000
00000000
00000000
,
13000000
00100000
10000000
00100000
00010000
00001000
00000100
00001000
,
00010000
01000000
00010000
01000000
00010000
00001000
00000010
00000100
,
00010000
00001000
00010000
00001000
00000100
00000001
00000010
00001000
,
00010000
01100000
00001000
00000110
,
00001000
00000000
00000001
00000000
00000100
00000000
00001000
00000000
00010000
00000000
01000000
10000000
00100000
00000000
00000000
00000000
,
00010000
00000000
10000000
00000000
01000000
00000000
00010000
00000000
00001000
00000000
00000100
00000001
00000010
00000000
00000000
00000000
,
00001000
00000001
00000100
00000001
00000010
00000100
00010000
00001000
,
00100000
00000000
01000000
00000000
00100000
00000000
00010000
10000000
00000000
10000000
00010000
00000000
02000000
00000000
00000000
00000000
,
03100000
00000000
00000000
00000000
00011000
00000000
00000000
00000000
00000010
00001000
00000000
00001000
00000100
00001000
00000100
00000000
,
00000010
00000000
00000000
00000000
00011000
00000000
00000000
00000000
00100000
00010000
00000000
00010000
01000000
00010000
01000000
00000000
,
00100000
00000000
00010000
00000000
00011000
00000000
00000000
00000000
00010000
00000100
00001000
00000100
00001000
00000000
00000001
00000000
,
00000010
00001000
00000000
00001000
00000000
00010000
00001000
00100000
00000000
00100000
00010000
01000000
00010000
00000000
10000000
00000000
,
01000000
00000000
00000000
00000000
00011000
00000000
00000000
00000000
00000100
00001000
00000000
00001000
00000001
00001000
00000010
00000000
,
00000100
00000000
00000000
00000000
00011000
00000000
00000000
00000000
01000000
00010000
00000000
00010000
10000000
00010000
00100000
00000000
,
01000000
00000000
00010000
00000000
00011000
00000000
00000000
00000000
00001000
00010000
00000010
00001000
00000010
00000000
00000100
00000000
,
00000001
00000010
00000000
00000010
00000000
00001000
00000010
00000001
00000000
00000001
00000100
00000001
00000010
00000000
00000100
00000000
,
00002001
00000100
00000001
00000010
,
00013000
00000000
01000000
00000000
10000000
00000000
01000000
00000000
00010000
10000000
00010000
10000000
00010000
00000000
00000000
00000000
,
10020000
01000000
10000000
00100000
,
00031000
00000000
00000100
00001000
00000100
00000000
00000010
00000000
00000011
00000000
00000000
00000101
00000000
00000000
00001000
00000000
,
00001010
00000000
00000000
00011000
00000000
00000000
01010000
00000000
00000000
10000000
00010000
10000000
00010000
00000000
00000000
00000000
,
00110000
00000000
00000000
00011000
00000000
00000000
00001100
00000000
00000000
00000001
00001000
00000001
00001000
00000000
00000010
00000000
,
00000110
00000000
00000000
00000110
00000000
00000000
00001000
00000000
00011000
00000000
00000000
00011000
00000000
00000000
00100000
00000000
,
00010000
01000000
00000000
01000000
00010000
00000000
00010000
10000000
00000000
00100000
01000000
00010000
00100000
00000000
00000000
00000000
,
10000000
00100000
00000000
00100000
00001000
01000000
00000000
01000000
,
10000000
00000000
01000000
00000000
00001000
00000000
00010000
00000000
00000010
00000000
00000100
00000000
00000001
00001000
00000100
00000000
,
00000001
00000100
00000000
00000100
00010000
00000010
00000000
00000010
,
00000001
00000000
00000010
00000000
00010000
00000000
00001000
00000000
01000000
00000000
00000000
01100000
00000000
00000000
10010000
00000000
,
10000000
00000000
10000000
01000000
00000000
01000000
00010000
00000000
00001000
00010000
00001000
00010000
00001000
00000000
00000010
00000000
,
00000001
00000000
00000001
00000100
00000000
00000100
00001000
00000000
00010000
00001000
00010000
00001000
00010000
00000000
00100000
00000000
,
10000000
00000000
00100000
01000000
00000000
01000000
00010000
00000000
00100000
00000000
00001000
00010000
00000000
00010000
00000100
00000000
,
00022000
00000000
00000000
00033000
,
00001000
00000000
00000010
00000000
00000001
00000000
00000100
00000001
00000000
00000100
00000010
00000000
00001000
00000000
00010000
00000000
,
01000000
00000000
00100000
00000000
10000000
00000000
01000000
00010000
00000000
00001000
00010000
00000000
00001000
00000000
00000010
00000000
,
00000002
00000000
00000000
00000103
00000000
00000000
00001000
00010000
00002000
00000000
00000000
00203000
00000000
00000000
01300000
00000000
,
10000000
01000000
10000000
01000000
10000000
00000000
00100000
00000000
01000000
00010000
01000000
00001000
00010000
00000000
00000010
00000000
,
00000000
00000000
00000100
00000001
00000100
00000000
00001000
00000100
00001000
00000000
00010000
00001000
00010000
00000000
00100000
00000000
,
01000000
00100000
01000000
00000000
00010000
10000000
00010000
00000000
10000000
01000000
00100000
00000000
00001000
00000000
00010000
00000000
,
00000100
00001000
00000100
00001000
00000010
00000100
00000010
00000100
00000001
00000010
00000001
00000010
00000100
00000000
00010000
00000000
,
00002000
00000000
00000000
00000000
01003000
00000000
10000000
01000000
00000000
01000000
00010000
00000000
00100000
00000000
00000000
00000000
,
00110000
00000000
00000000
00011000
00000000
00000000
00001100
00000000
00000000
00000000
00000001
00000000
00001000
00000000
00000000
00000000
,
00001010
00000000
00000000
00011000
00000000
00000000
01010000
00000000
00000000
00000000
10000000
00000000
00010000
00000000
00000000
00000000
,
01100000
00000000
00000000
01100000
00000000
00000000
00010000
00000000
00011000
00000000
00000000
00011000
00000000
00000000
00000010
00000000
,
00000110
00000000
00000000
00000000
00001000
00000001
00001000
00000100
00010000
00001000
00100000
00010000
10000000
00000000
00000000
00000000
,
00100000
00000000
00000000
00000000
00011000
00000000
00000000
00000000
00000010
00001000
00000000
00001000
00000100
00000001
00000100
00000000
,
00000010
00000000
00000000
00000000
00011000
00000000
00000000
00000000
00100000
00010000
00000000
00010000
01000000
10000000
01000000
00000000
,
00100000
00000000
00010000
00000000
00011000
00000000
00000000
00000000
00010000
00000100
00001000
00000100
00000010
00000000
00000001
00000000
,
00000100
00001000
00000000
00001000
00000000
00010000
00001000
00100000
00000000
00100000
00010000
01000000
00010000
00000000
10000000
00000000
,
01000000
00000000
00000000
00000000
00011000
00000000
00000000
00000000
00000100
00001000
00000000
00001000
00000010
00000001
00000010
00000000
,
00000100
00000000
00000000
00000000
00011000
00000000
00000000
00000000
01000000
00010000
00000000
00010000
00100000
10000000
00100000
00000000
,
01000000
00000000
00010000
00000000
00011000
00000000
00000000
00000000
00001000
00010000
00000010
00001000
00000100
00000000
00000010
00000000
,
00000001
00000100
00000000
00000100
00000000
00001000
00010000
00001000
00000000
00010000
00100000
10000000
00100000
00000000
01000000
00000000
,
01100000
00000000
00000000
10000000
01000000
00000000
10000000
00000000
00010000
00000000
00100000
00010000
00100000
00000000
00001000
00000000
,
00010000
00000000
00000000
00000100
00001000
00000000
00000010
00000000
00000100
00000001
00000100
00000001
00000100
00000000
00001000
00000000
,
00010000
00000000
00100000
00010000
00001000
00000000
00000010
00001000
00010000
00000000
00100000
00010000
00001000
00000000
00010000
00000000
,
00011000
00000000
00000000
00000000
;
