#VERSION:0.83;
#TITLE:果たせぬ約束 ft. 小林マナ;
#SUBTITLE:;
#ARTIST:Xceon;
#TITLETRANSLIT:Hatasenu yakusoku ft. Kobayashi Mana;
#SUBTITLETRANSLIT:;
#ARTISTTRANSLIT:;
#GENRE:CHINA SQUARE DANCEPOP;
#CREDIT:;
#MUSIC:Hatasenu yakusoku ft. Kobayashi Mana.ogg;
#BANNER:Hatasenu yakusoku ft. Kobayashi Mana.png;
#BACKGROUND:Hatasenu yakusoku ft. Kobayashi Mana-bg.png;
#CDTITLE:./CDTitles/bm IIDX 31 EPOLIS.png;
#SAMPLESTART:49.257;
#SAMPLELENGTH:15.000;
#SELECTABLE:YES;
#OFFSET:0.453;
#BPMS:0.000=164.000;
#STOPS:;
#TIMESIGNATURES:0.000=4=4;
#BGCHANGES:0.000=../BGAs/14tr.mp4=1.000=0=0=0=StretchNoLoop====,
99999.000=-nosongbg-=1.000=0=0=0=StretchNoLoop====
;
#FGCHANGES:;

//--------------- dance-single - forcednature ----------------
#NOTEDATA:;
#STEPSTYPE:dance-single;
#DESCRIPTION:forcednature;
#CREDIT:forcednature;
#DIFFICULTY:Beginner;
#METER:3;
#RADARVALUES:0,0,0,0,0;
#NOTES:
0000
0000
0000
0000
,
0000
0000
0000
0000
,
0000
0000
0000
0000
,
0000
0000
0000
0000
,
0001
0000
0001
0000
,
1000
0000
0000
0000
,
0010
0000
0100
0000
,
0001
0000
0000
0000
,
0010
0000
0001
0000
,
1000
0000
0000
0000
,
0100
0000
0010
0000
,
0001
0000
0000
0000
,
0100
0100
0100
0000
,
0010
0000
0010
0000
,
1000
0000
0000
0000
,
0001
0000
0001
0000
,
0010
0000
0100
0000
,
1000
0000
0000
0000
,
0001
0000
0000
0000
,
0100
0000
0000
0000
,
0010
0000
0010
0000
,
1000
0000
0000
0000
,
0001
0000
0000
0000
,
0010
0000
0010
0000
,
0001
0000
0100
0000
,
0001
0001
0001
0000
,
1000
0000
0100
0000
,
1000
1000
1000
0000
,
0001
0000
0100
0000
,
0010
0010
0010
0000
,
1000
0000
0001
0000
,
0010
0000
0100
0000
,
1000
0000
0001
0000
,
2002
0000
3003
0000
,
0110
0000
0000
0000
,
0001
0000
0010
0000
,
0110
0000
0000
0000
,
1000
0000
0010
0000
,
1001
0000
0000
0000
,
0001
0000
0100
0000
,
0110
0000
0000
0000
,
1000
0000
0100
0000
,
1001
0000
0000
0000
,
0001
0000
0010
0000
,
0110
0000
0000
0000
,
1000
0000
0010
0000
,
1001
0000
0000
0000
,
0001
0000
0100
0000
,
0110
0000
0000
0000
,
1000
0000
0010
0000
,
1001
0000
0000
0000
,
0110
0000
0000
0000
,
0001
0010
0100
1000
,
0020
0000
0030
0000
,
1000
0000
0000
0000
,
0100
0000
0100
0000
,
1000
0000
0000
0000
,
0001
0000
0000
0000
,
0100
0000
0100
0000
,
0010
0000
0000
0000
,
1000
0000
0000
0000
,
0001
0000
0001
0000
,
0010
0010
0010
0000
,
0200
0000
0000
0300
,
1000
0000
1000
0000
,
0001
0000
0000
0000
,
1000
0000
1000
0000
,
0001
0001
0001
0000
,
2002
0000
0000
0000
,
0000
0000
0000
0000
,
0000
0000
0000
0000
,
3003
0000
0000
0000
,
0110
0000
0000
0000
,
0001
0000
0010
0000
,
1001
0000
0000
0000
,
1000
1000
1000
0000
,
0000
1001
0000
0000
,
0001
0000
0100
0000
,
0110
0000
0000
0000
,
1000
0000
0010
0000
,
1001
0000
0000
0000
,
0001
0000
0010
0000
,
0110
0000
0000
0000
,
1000
1000
1000
0000
,
2002
0000
0000
0000
,
0000
0000
0000
0000
,
3003
0000
0000
0000
;

//--------------- dance-single - forcednature ----------------
#NOTEDATA:;
#STEPSTYPE:dance-single;
#DESCRIPTION:forcednature;
#CREDIT:forcednature;
#DIFFICULTY:Easy;
#METER:7;
#RADARVALUES:0,0,0,0,0;
#NOTES:
0000
0000
0000
0000
,
0000
0000
0000
0000
,
0000
0000
0000
0000
,
0000
0000
0000
0000
,
0001
0001
1000
0010
,
2002
3003
1000
0100
,
1000
0001
0010
0100
,
0220
0330
0001
0100
,
0001
1000
0010
0100
,
2002
3003
1000
0010
,
1000
0001
0010
0100
,
2002
3003
0001
0010
,
0001
0001
0100
0010
,
2002
0000
3003
0000
,
1000
0000
0100
0000
,
1000
1000
0010
1000
,
0001
0001
0100
0000
,
1001
0000
0001
0010
,
0100
0010
0001
1000
,
0001
0100
0010
0100
,
0001
1000
0001
0000
,
1001
0000
1000
0010
,
0100
0010
1000
0001
,
1000
0100
0010
0100
,
1000
0001
1000
0000
,
0001
0001
0010
0010
,
0001
0100
1000
0100
,
0001
0001
0010
0010
,
0100
0100
1000
0001
,
1000
1000
0010
0010
,
0100
1000
0100
0001
,
0020
0030
0001
1000
,
0100
0100
1000
0001
,
2002
0000
0000
3003
,
0110
0000
0001
0010
,
0001
0100
0010
1000
,
1001
0000
1000
0010
,
1000
0001
0010
0100
,
0110
0000
0010
0001
,
0100
0010
1000
0100
,
1001
0000
0001
0100
,
0010
0010
1000
0001
,
1001
0000
1000
0100
,
0001
0100
1000
0001
,
1001
0000
0001
0100
,
1000
0100
0001
1000
,
1001
0000
1000
0010
,
0001
0010
1000
0001
,
1001
0000
0001
0010
,
0100
0100
1000
0001
,
2002
0000
3003
0000
,
0220
0000
0330
0000
,
2000
3002
0203
0320
,
2030
0000
3000
0000
,
0001
0010
0100
0010
,
0001
1000
0100
1000
,
0001
0100
0010
1000
,
0001
0010
0200
0300
,
1000
1000
0001
0001
,
1000
0010
0100
0001
,
0010
0100
1000
0100
,
0020
0000
0031
1000
,
0010
0010
0100
0001
,
2002
0000
0000
3003
,
1000
0010
1000
0010
,
0100
0100
0001
1000
,
0001
0010
0001
0010
,
0100
0100
1000
0001
,
2002
0000
3003
0000
,
0220
0000
0330
0000
,
2002
0000
3003
0000
,
0220
0330
2002
3003
,
0001
0010
0001
1000
,
0100
0100
1000
0001
,
0100
0100
0010
0010
,
1000
0001
0010
0110
,
0000
1001
0001
0010
,
0001
0100
0010
1000
,
1001
1000
0010
0100
,
0001
0010
0100
1000
,
1001
0001
0100
0001
,
1000
0100
0010
0001
,
1001
1000
0010
1000
,
0001
0010
0100
1000
,
2002
0000
0000
0000
,
0000
0000
0000
0000
,
3003
0000
0000
0000
;

//--------------- dance-single - forcednature ----------------
#NOTEDATA:;
#STEPSTYPE:dance-single;
#DESCRIPTION:forcednature;
#CREDIT:forcednature;
#DIFFICULTY:Medium;
#METER:11;
#RADARVALUES:0,0,0,0,0;
#NOTES:
0000
0000
0000
0000
,
0000
0000
0000
0000
,
0000
0000
0000
0000
,
0000
0000
0000
0000
,
0001
1000
0001
1000
0010
0000
0100
0000
,
2002
0000
3003
0000
0000
1000
0100
1000
,
0001
0000
0000
0001
0000
0000
0010
0000
0100
0000
0000
0000
0010
0000
0000
0000
,
2002
0000
3003
0000
0000
0001
0100
0001
,
1000
0000
0000
1000
0000
0000
0010
0000
0100
0000
0000
0000
0010
0000
0000
0000
,
2002
0000
3003
0000
0000
1000
0010
1000
,
0001
0000
0000
0001
0000
0000
0100
0000
0010
0000
0000
0000
0100
0000
0000
0000
,
2002
0000
3003
0000
0000
0001
0010
0001
,
1000
0000
0000
1000
0000
0000
1000
0000
0100
0000
0010
0000
0001
0000
0000
0000
,
2000
0010
3002
0010
,
1003
0001
1000
0001
0100
0000
0010
0000
,
1000
0100
1000
0000
0001
0100
0001
0000
,
0010
0100
0010
0100
0010
0000
0001
0000
,
1001
0000
1000
0000
0010
0100
0000
0200
,
0000
0000
0301
0000
0010
0000
0010
0002
,
0000
0000
1003
0000
0100
0000
0100
0020
,
0000
0031
1000
0010
,
1001
0000
0001
0000
0100
0010
0000
0020
,
0000
0000
1030
0000
0100
0000
0100
2000
,
0000
0001
3001
0020
,
0100
0130
0010
1001
,
1000
0100
1000
0000
0001
0100
0001
0000
,
0010
0100
0010
0100
1000
0001
1000
0000
,
0001
0010
0001
0000
1000
0010
1000
0000
,
0100
1100
0001
0011
,
1000
1000
1000
0000
0001
0001
0001
0000
,
0100
0010
1000
0010
0100
0001
0100
0000
,
0020
1030
0002
0203
,
0301
0010
0001
0000
0001
1000
0001
0000
,
0220
0000
0000
0330
0000
0000
0001
1000
0001
1000
0000
0000
,
2002
0000
3003
0000
0001
0010
0001
0010
,
0100
0000
0000
0100
0000
0000
1000
0000
0001
0000
0000
0000
0100
0000
0000
0000
,
2002
0000
3003
0000
1000
0010
1000
0010
,
0100
0000
0000
0001
0000
0000
1000
0000
0010
0000
0000
0000
0100
0000
0000
0000
,
2002
0000
3003
0000
0001
0010
0001
1000
,
0100
0000
0000
1000
0000
0000
0001
0000
0010
0000
0000
0000
0100
0000
0000
0000
,
2002
0000
3003
0000
1000
0010
1000
0001
,
0100
0000
0000
0100
0000
0000
0100
0000
0010
0000
0000
0000
0110
0000
0000
0000
,
2002
0000
3003
0000
0001
0010
0100
0010
,
0001
0000
0000
1000
0000
0000
0100
0000
0010
0000
0000
0000
0001
0000
0000
0000
,
2002
0000
3003
0000
1000
0010
0100
0010
,
1000
0000
0000
0001
0000
0000
0100
0000
0010
0000
0000
0000
1000
0000
0000
0000
,
2002
0000
3003
0000
0001
0100
0010
1000
,
0001
0000
0000
0010
0000
0000
0001
0000
1000
0000
0000
0000
0100
0000
0000
0000
,
1000
0001
1000
0000
1000
0010
1000
0000
,
0001
0000
0000
0001
0000
0000
0100
0000
0010
0000
0000
0000
0110
0000
0000
0000
,
2001
0100
0001
3010
,
1002
0100
1000
0013
,
0001
0100
0001
0100
0000
0000
0010
1000
0010
1000
0000
0000
,
2002
0000
0000
3003
,
0000
1000
0000
0100
0000
0010
0000
0001
,
0100
0000
0000
0100
0000
0000
0001
0000
2000
0000
0000
0000
3020
0000
0000
0000
,
1030
0000
0000
0100
0000
0000
1000
0000
0001
0000
0000
0010
0000
0000
0001
0000
,
0100
0000
0000
0010
0000
0000
0100
0000
0002
0000
0000
0000
2003
0000
0000
0000
,
3100
0000
0000
0100
0010
0000
0000
0000
0001
0000
0000
0001
1000
0000
0000
0000
,
0020
0230
0302
2003
,
3010
0000
0010
0100
0000
0000
0001
0000
0001
1000
0000
0000
,
0100
1000
0100
0000
0010
0001
0010
0000
,
0001
0001
0001
1000
0010
0100
0010
0000
,
2002
0000
0000
3003
,
1000
1000
0001
0000
1000
1000
0001
0000
,
0100
0010
0100
0000
0010
0000
1000
0000
,
0001
0001
1000
0000
0001
0001
1000
0000
,
0100
0100
0100
0000
1000
0001
0010
0000
,
2002
0000
3003
0000
,
0220
0000
0330
0000
,
2002
0000
3003
0000
,
0220
0330
2002
3003
,
0001
0000
0010
0000
0001
1000
0001
1000
,
0100
0000
0000
0100
0000
0000
0010
0000
0001
0000
0000
0000
1000
0000
0000
0000
,
0010
0100
0010
0000
0100
0001
0100
0000
,
0001
0000
0000
0010
0000
0000
0100
0000
1000
0000
0000
0000
2002
0000
0000
0000
,
3003
0000
0110
0000
1000
0001
0010
0001
,
0100
0000
0000
0100
0000
0000
0010
0000
1000
0000
0000
0000
0001
0000
0000
0000
,
0220
0000
0330
0000
1000
0100
1000
0001
,
0100
0000
0000
0100
0000
0000
0001
0000
0010
0000
0000
0000
0100
0000
0000
0000
,
2002
0000
3003
0000
0001
0100
0010
1000
,
0001
0000
0000
0010
0000
0000
0100
0000
1000
0000
0000
0000
0010
0000
0000
0000
,
1000
0001
1000
0000
1000
0100
1000
0000
,
0010
0000
0000
0100
0000
0000
0001
0000
0010
0000
0000
0000
0110
0000
0000
0000
,
2002
0000
0000
0000
,
0000
0000
0000
0000
,
3003
0000
0000
0000
;

//--------------- dance-single - forcednature ----------------
#NOTEDATA:;
#STEPSTYPE:dance-single;
#DESCRIPTION:forcednature;
#CREDIT:forcednature;
#DIFFICULTY:Hard;
#METER:15;
#RADARVALUES:0,0,0,0,0;
#NOTES:
0000
0000
0000
0000
,
0000
0000
0000
0000
,
0000
0000
0000
0000
,
0000
0000
0000
0000
,
0001
0000
0001
0000
1000
0000
0001
0000
1000
0100
1000
0100
0010
0001
0010
0001
,
2000
0000
3010
0000
1000
0001
0100
0010
,
1000
0100
0000
0100
1000
0000
0001
0000
0010
0000
0000
0000
0110
0000
0000
0000
,
1002
0000
0103
0000
0001
1000
0100
0010
,
0001
0100
0000
0100
0001
0000
1000
0000
0010
0000
0000
0000
0110
0000
0000
0000
,
2001
0000
3010
0000
1000
0100
0001
0100
,
1000
0001
0000
0001
0010
0000
0001
0000
0100
0000
0000
0000
0110
0000
0000
0000
,
1002
0000
0103
0000
0001
0010
1000
0010
,
0001
0000
0000
0011
0000
0000
1000
0000
0010
0000
0010
0000
1000
0001
1000
0001
,
0100
0010
1000
0010
0001
0010
1000
0001
,
0100
0100
0100
0010
1000
0000
1001
0000
,
0001
0010
0100
0000
1000
0010
0100
0000
,
0001
1000
0001
1000
0001
0000
0100
0000
0010
1000
0010
1000
0001
0000
0100
0000
,
1001
0000
1010
0000
0001
0100
0001
2000
,
0010
0000
0001
0000
3100
0000
1000
0002
,
0010
0000
1000
0000
0103
0000
0001
0020
,
0100
0000
0001
0000
0130
1000
0001
0100
,
0110
0000
1001
0000
1000
0100
0001
0200
,
0010
0000
1000
0000
0310
0000
0001
0200
,
1000
0000
0010
0000
0001
0000
0310
1000
,
0001
0000
0001
0000
0010
0000
0001
0000
0100
0010
0100
0010
1000
0000
0000
0000
,
0001
0100
0101
0000
1000
0100
1100
0000
,
0001
0010
1000
0010
0001
1000
0100
0000
,
1000
0010
1010
0000
0001
0010
0100
1000
,
0001
0100
0000
0000
0010
1000
0000
0000
0001
0010
0000
0000
1001
0000
0000
0000
,
1000
0010
0101
0000
0001
0010
1100
0000
,
1000
0010
0001
0010
1000
0001
0100
0010
,
2002
0000
0000
0000
3003
0000
0000
0000
1000
0100
0000
0000
0010
0001
0000
0000
,
0100
0100
0001
0100
0010
0010
1000
0010
,
1000
0100
1000
0100
0010
0100
0010
0001
0100
0010
1000
0100
,
0010
0000
1001
0000
1000
0100
0001
0100
,
1000
0001
0000
0001
0010
0000
0001
0000
0100
0010
1000
0000
0100
0010
0001
0000
,
0100
0000
1001
0000
1000
0010
0100
0001
,
0010
0100
0000
0100
1000
0000
0001
0000
0100
0010
1000
0000
0100
0010
0001
0000
,
0100
0000
1001
0000
0001
0010
1000
0010
,
0001
1000
0000
1000
0100
0000
0010
0000
0001
0100
0010
0000
1000
0100
0010
0000
,
0001
0000
1010
0000
0010
1000
0001
0100
,
0010
0000
0000
0110
0000
0000
1000
0000
0100
0000
0100
0000
1000
0001
1000
0001
,
0010
0100
1002
0000
0013
1000
0010
0001
,
1000
0010
0000
0010
0100
0000
0001
0000
1000
0100
0010
0000
0001
0100
0010
0000
,
1000
0000
0110
0000
0001
0100
1000
0100
,
0001
1000
0000
1000
0010
0000
0100
0000
0001
0010
0100
0000
1000
0010
0100
0000
,
0001
0000
0110
0000
1000
0010
0001
0010
,
1000
0001
0000
0001
1000
0000
0100
0000
0010
0001
0100
0000
0010
1000
0100
0000
,
0010
0000
0010
0000
0001
0000
1000
0000
0010
0000
0010
0000
1000
0000
0001
1000
,
0001
0000
0000
0101
0000
0000
1000
0000
0100
0000
0100
0000
0010
0001
0010
0001
,
2000
0000
0000
0000
0000
0000
3010
0100
0010
0100
0001
0100
,
0002
0000
0000
0000
0000
0000
0013
0100
1000
0010
0100
0001
,
1000
0100
0001
0100
1000
0001
1000
0010
0001
0010
1000
0001
,
0200
0000
0000
0000
0000
0000
0000
0000
0310
0000
0010
0000
1000
0001
1000
0001
,
0100
0010
1000
0100
1000
0001
0010
0100
,
1000
0000
0000
1000
0000
0000
0001
0000
0010
0000
0000
0010
0000
0000
0001
0000
,
0200
0000
0000
0320
0000
0000
2030
0000
3200
0000
0000
0320
0000
0000
0032
0000
,
0203
0000
0000
2300
0000
0000
3200
0000
0302
0000
0000
0000
2003
0000
0000
0000
,
3001
0010
0001
0010
0100
0000
1000
0000
0001
0100
0001
0100
0010
0000
1000
0000
,
0001
0010
0100
1000
0010
0100
0001
1000
0100
1000
0001
0100
,
0010
1000
0010
1000
0100
1000
0100
0010
0100
0010
0001
1000
,
0020
0000
0100
0000
0130
0000
0010
1000
0001
0000
1000
0100
0000
0010
0100
0000
,
0010
0001
0010
0001
1000
0000
0010
0000
0100
0001
0010
0000
0100
1000
0010
0000
,
2002
0000
0000
3003
,
1000
0100
1001
0000
1000
0100
1001
0000
,
0001
0010
0001
0010
0001
0000
1000
0000
0001
0000
0010
0000
0100
0000
1000
0000
,
0001
0100
1001
0000
0001
0100
1001
0000
,
1000
0010
1000
0010
1000
0000
0001
0000
0100
0000
0010
1000
0001
0100
0010
0000
,
2000
0100
0000
3100
,
2002
3003
0210
0310
,
2002
3003
0220
0330
,
1001
0000
0000
1000
0001
0000
0100
0000
0110
0000
0000
0000
0001
1000
0001
1000
,
0001
0010
0100
0010
0001
1000
0100
0001
,
0100
1000
0000
1000
0001
0000
0100
0000
0010
1000
0001
0000
0010
0001
1000
0000
,
0100
0100
0010
0100
1000
1000
0001
1000
,
0010
0000
0000
0000
0100
0000
0000
0000
0001
0000
0000
0000
0100
0000
0000
0000
0010
0000
0000
0000
0001
0000
0000
0000
0010
0000
0000
0000
1000
0000
0000
0000
0001
0000
0000
0000
0100
0000
0000
0010
0000
0000
0100
0000
0000
0010
0000
0000
,
0000
0000
1000
0100
0002
0000
0000
0000
0103
0000
1000
0000
0001
0000
0100
0000
,
0010
1000
0000
0001
0010
0000
0100
0000
0010
0001
0100
0000
0010
1000
0100
0000
,
1000
0001
0010
1000
0010
0001
1000
0100
,
1000
0001
0000
0001
0100
0000
0010
0000
1000
0100
0010
0000
0001
0100
0010
0000
,
1000
0100
0001
0100
1000
0010
0001
0010
,
0100
0001
0000
0001
1000
0000
0010
0000
0100
0001
0010
0000
0100
1000
0010
0000
,
1000
0000
1000
0000
0001
0000
0010
0000
0001
0000
0001
0000
1000
0000
0010
0100
,
0010
0000
0000
1001
0000
0000
1100
0000
0001
0000
0010
0000
0001
1000
0001
1000
,
0100
0010
0001
0100
0010
1000
0100
1000
0001
0100
0001
1000
,
0020
0000
0000
0000
,
0030
0000
0000
0000
;

//--------------- dance-double - forcednature ----------------
#NOTEDATA:;
#STEPSTYPE:dance-double;
#DESCRIPTION:forcednature;
#CREDIT:forcednature;
#DIFFICULTY:Easy;
#METER:7;
#RADARVALUES:0,0,0,0,0;
#NOTES:
00000000
00000000
00000000
00000000
,
00000000
00000000
00000000
00000000
,
00000000
00000000
00000000
00000000
,
00000000
00000000
00000000
00000000
,
00001000
00001000
00010000
00000100
,
00002000
00003000
00000001
00000010
,
00000001
00000100
00000010
00001000
,
00000200
00000300
00010000
00001000
,
00100000
00010000
01000000
00100000
,
20000000
30000000
00010000
00100000
,
00001000
00010000
00000010
00001000
,
00000002
00000003
00000010
00000100
,
00010000
00010000
00001000
00100000
,
00020000
00000000
00030000
00000000
,
10000000
00000000
01000000
00000000
,
00010000
00010000
00001000
00010000
,
00001000
00001000
00000010
00000000
,
00001001
00000000
00000001
00000100
,
00000010
00001000
00000001
00000010
,
00000100
00000010
00000100
00010000
,
00001000
00100000
00001000
00000000
,
00011000
00000000
01000000
00010000
,
01000000
00100000
10000000
00010000
,
10000000
01000000
00100000
00010000
,
00100000
00001000
00010000
00000000
,
00000100
00000100
00001000
00001000
,
00000001
00000010
00000100
00001000
,
00000010
00000010
00010000
00010000
,
00001000
00001000
01000000
00010000
,
10000000
10000000
00100000
00100000
,
10000000
00010000
01000000
00100000
,
20000000
30000000
01000000
00010000
,
00001000
00001000
00010000
00000000
,
00022000
00000000
00000000
00033000
,
00011000
00000000
00000100
00001000
,
00000010
00000100
00000001
00000010
,
00001001
00000000
00001000
00000100
,
00010000
00001000
01000000
00010000
,
10010000
00000000
10000000
00100000
,
10000000
00010000
00100000
00001000
,
00011000
00000000
00000100
00001000
,
00000010
00000010
00000100
00000001
,
00001001
00000000
00001000
00000100
,
00010000
00001000
01000000
00010000
,
10010000
00000000
00010000
00100000
,
00001000
00010000
00000010
00001000
,
00001001
00000000
00000001
00000010
,
00000100
00010000
00001000
00100000
,
00011000
00000000
01000000
00010000
,
00100000
00100000
01000000
10000000
,
20020000
00000000
30030000
00000000
,
02200000
00000000
03300000
00000000
,
00020000
02030000
03002000
00023000
,
00030020
00000000
00000030
00000000
,
00001000
00000100
00001000
00000001
,
00000010
00000001
00001000
00000010
,
00010000
00001000
01000000
00010000
,
10000000
00100000
20000000
30000000
,
01000000
01000000
00100000
00100000
,
01000000
10000000
00010000
00100000
,
00001000
00010000
00000010
00001000
,
00000002
00000000
00000103
00000010
,
00001000
00001000
00000100
00010000
,
00022000
00000000
00000000
00033000
,
00100000
00010000
00100000
00010000
,
01000000
01000000
00010000
10000000
,
01000000
00100000
01000000
00100000
,
00001000
00001000
00010000
00000100
,
00000220
00000000
00000330
00000000
,
00002002
00000000
00003003
00000000
,
00020200
00000000
00030300
00000000
,
00022000
00033000
00202000
00303000
,
00100000
00010000
00100000
00010000
,
01000000
01000000
00100000
10000000
,
00010000
00010000
01000000
01000000
,
00001000
00010000
00010000
00001000
,
00000000
00011000
00000100
00001000
,
00000010
00000100
00000001
00000010
,
00000110
00000000
00000100
00001000
,
00000010
00010000
00001000
00100000
,
10010000
00000000
00010000
01000000
,
00001000
00010000
00000100
00001000
,
00001001
00000000
00000001
00000010
,
00000001
00000100
00001000
00010000
,
00022000
00000000
00000000
00000000
,
00000000
00000000
00000000
00000000
,
00033000
00000000
00000000
00000000
;

//--------------- dance-double - forcednature ----------------
#NOTEDATA:;
#STEPSTYPE:dance-double;
#DESCRIPTION:forcednature;
#CREDIT:forcednature;
#DIFFICULTY:Medium;
#METER:11;
#RADARVALUES:0,0,0,0,0;
#NOTES:
00000000
00000000
00000000
00000000
,
00000000
00000000
00000000
00000000
,
00000000
00000000
00000000
00000000
,
00000000
00000000
00000000
00000000
,
00010000
00001000
00010000
00001000
00100000
00000000
01000000
00000000
,
20020000
00000000
30030000
00000000
00000000
10000000
01000000
10000000
,
00010000
00000000
00000000
00010000
00000000
00000000
00100000
00000000
00001000
00000000
00000000
00000000
00010000
00000000
00000000
00000000
,
00022000
00000000
00033000
00000000
00000000
00000010
00001000
00000010
,
00001000
00000000
00000000
00001000
00000000
00000000
00000001
00000000
00000100
00000000
00000000
00000000
00000010
00000000
00000000
00000000
,
00002002
00000000
00003003
00000000
00000000
00001000
00000100
00010000
,
00001000
00000000
00000000
00001000
00000000
00000000
00100000
00000000
00010000
00000000
00000000
00000000
01000000
00000000
00000000
00000000
,
20020000
00000000
30030000
00000000
00000000
00010000
00100000
00010000
,
01000000
00000000
00000000
01000000
00000000
00000000
00100000
00000000
10000000
00000000
01000000
00000000
00100000
00000000
00000000
00000000
,
00020000
01000000
00230000
00001000
,
00310000
10000000
00010000
00000000
10000000
00000000
01000000
00000000
,
00100000
00001000
00010000
00000000
00000010
00010000
00001000
00000000
,
00010000
00000100
00010000
00000100
00001000
00000000
00000010
00000000
,
00001001
00000000
00000001
00000000
00000100
00000010
00000000
00002000
,
00000000
00000000
00003100
00000000
00010000
00000000
00001000
00200000
,
00000000
00000000
00310000
00000000
01000000
00000000
00100000
20000000
,
00000000
31000000
00100000
00010000
,
10010000
00000000
01000000
00000000
00001000
00010000
00000000
00002000
,
00000000
00000000
00013000
00000000
00000100
00000000
00001000
00000020
,
00000000
00000100
00000130
00002000
,
00000001
00003001
00000010
00001001
,
00001000
00000100
00001000
00000000
00000100
00010000
00001000
00000000
,
00100000
00010000
00100000
00010000
10000000
01000000
10000000
00000000
,
00010000
01000000
00010000
00000000
01000000
00001000
00010000
00000000
,
00000020
00002030
00003002
00000203
,
00000310
00000010
00000010
00000000
00001000
00001000
00001000
00000000
,
00000100
00010000
00000100
00010000
00001000
00100000
00010000
00000000
,
02000000
03100000
20000000
30020000
,
00130000
00001000
00010000
00000100
,
00022000
00000000
00000000
00033000
00000000
00000000
00001000
00010000
00001000
00010000
00000000
00000000
,
00002020
00000000
00003030
00000000
00000001
00000100
00000001
00000100
,
00000001
00000000
00000000
00000001
00000000
00000000
00000010
00000000
00001000
00000000
00000000
00000000
00010000
00000000
00000000
00000000
,
00022000
00000000
00033000
00000000
00100000
00010000
00100000
00010000
,
10000000
00000000
00000000
01000000
00000000
00000000
00010000
00000000
00001000
00000000
00000000
00000000
00100000
00000000
00000000
00000000
,
00022000
00000000
00033000
00000000
00000010
00001000
00000010
00000100
,
00000001
00000000
00000000
00000010
00000000
00000000
00000100
00000000
00010000
00000000
00000000
00000000
00001000
00000000
00000000
00000000
,
00022000
00000000
00033000
00000000
00100000
00010000
10000000
01000000
,
10000000
00000000
00000000
10000000
00000000
00000000
00100000
00000000
01000000
00000000
00000000
00000000
01100000
00000000
00000000
00000000
,
20020000
00000000
30030000
00000000
00010000
00100000
00001000
00010000
,
00000010
00000000
00000000
00000010
00000000
00000000
00001000
00000000
00000100
00000000
00000000
00000000
00000010
00000000
00000000
00000000
,
00002002
00000000
00003003
00000000
00001000
00000100
00010000
00001000
,
01000000
00000000
00000000
00010000
00000000
00000000
00100000
00000000
01000000
00000000
00000000
00000000
10000000
00000000
00000000
00000000
,
20020000
00000000
30030000
00000000
00010000
00100000
00001000
00010000
,
00000010
00000000
00000000
00001000
00000000
00000000
00000100
00000000
00000020
00000000
00000000
00000000
00000032
00000000
00000000
00000000
,
00001003
00000010
00001000
00000000
00001000
00000100
00010000
00000000
,
00001000
00000000
00000000
00001000
00000000
00000000
00100000
00000000
00010000
00000000
00000000
00000000
01000000
00000000
00000000
00000000
,
10020000
01000000
10030000
00010000
,
00102000
00010000
01003000
00001000
,
00010000
00000000
00010000
00000100
00000000
00000000
00001000
00000000
00001000
00000010
00000000
00000000
,
00000202
00000000
00000000
00000303
,
00000000
00000001
00000000
00000010
00000000
00000100
00000000
00010000
,
00001000
00000000
00000000
00001000
00000000
00000000
00100000
00000000
00020000
00000000
00000000
00000000
02030000
00000000
00000000
00000000
,
03100000
00000000
00000000
10000000
00000000
00000000
00100000
00000000
10000000
00000000
00000000
01000000
00000000
00000000
10000000
00000000
,
01000000
00000000
00000000
00010000
00000000
00000000
01000000
00000000
00020000
00000000
00000000
00000000
00032000
00000000
00000000
00000000
,
00003010
00000000
00000000
00000010
00000001
00000000
00000000
00000000
00000100
00000000
00000000
00000100
00000001
00000000
00000000
00000000
,
00000020
00002030
00023000
02030000
,
13000000
00000000
10000000
00100000
00000000
00000000
10000000
00000000
10000000
01000000
00000000
00000000
,
00100000
00010000
00100000
00000000
00001000
00010000
00001000
00000000
,
00010000
00010000
00010000
00000000
00000100
00001000
00000010
00000000
,
00002002
00000000
00000000
00003003
,
00000001
00000001
00001000
00000000
00000001
00000001
00001000
00000000
,
00000100
00010000
00001000
00000000
00100000
00000000
00010000
00000000
,
10000000
10000000
00010000
00000000
10000000
10000000
00010000
00000000
,
01000000
01000000
01000000
00000000
00001000
00010000
00000010
00000000
,
00020020
00000000
00030030
00000000
,
02002000
00000000
03003000
00000000
,
00202000
00000000
00303000
00000000
,
00022000
00033000
00020200
00030300
,
00000100
00000000
00001000
00000000
00000010
00001000
00000010
00001000
,
00000001
00000000
00000000
00000001
00000000
00000000
00000100
00000000
00000010
00000000
00000000
00000000
00001000
00000000
00000000
00000000
,
00000100
00001000
00000100
00000000
00010000
00001000
00010000
00000000
,
00001000
00000000
00000000
00001000
00000000
00000000
00100000
00000000
00010000
00000000
00000000
00000000
02000000
00000000
00000000
00000000
,
03000000
00000000
10010000
00000000
10000000
00010000
00100000
00010000
,
01000000
00000000
00000000
01000000
00000000
00000000
00001000
00000000
00010000
00000000
00000000
00000000
00000010
00000000
00000000
00000000
,
00000220
00000000
00000330
00000000
00000100
00000001
00000100
00000010
,
00001000
00000000
00000000
00001000
00000000
00000000
00000100
00000000
00010000
00000000
00000000
00000000
00001000
00000000
00000000
00000000
,
00022000
00000000
00033000
00000000
00100000
00010000
00100000
01000000
,
10000000
00000000
00000000
00100000
00000000
00000000
01000000
00000000
00010000
00000000
00000000
00000000
00100000
00000000
00000000
00000000
,
00001000
00010000
00001000
00000000
00001000
00010000
00000100
00000000
,
00001000
00000000
00000000
00000010
00000000
00000000
00000100
00000000
00000001
00000000
00000000
00000000
00000010
00000000
00000000
00000000
,
00002002
00000000
00000000
00000000
,
00000000
00000000
00000000
00000000
,
00003003
00000000
00000000
00000000
;

//--------------- dance-double - forcednature ----------------
#NOTEDATA:;
#STEPSTYPE:dance-double;
#DESCRIPTION:forcednature;
#CREDIT:forcednature;
#DIFFICULTY:Hard;
#METER:15;
#RADARVALUES:0,0,0,0,0;
#NOTES:
00000000
00000000
00000000
00000000
,
00000000
00000000
00000000
00000000
,
00000000
00000000
00000000
00000000
,
00000000
00000000
00000000
00000000
,
00010000
00000000
00010000
00000000
00001000
00000000
00010000
00000000
00000100
00001000
00000100
00001000
00000001
00000010
00000001
00000010
,
00000200
00000000
00000300
00000000
00010000
00001000
01000000
00010000
,
10000000
00000000
00000000
00100000
01000000
00000000
00010000
00000000
00100000
00000000
00000000
00000000
00101000
00000000
00000000
00000000
,
00020100
00000000
00031000
00000000
00010000
00000010
00001000
00000001
,
00000100
00000000
00000000
00000010
00001000
00000000
00000100
00000000
00010000
00000000
00000000
00000000
00011000
00000000
00000000
00000000
,
00201000
00000000
00310000
00000000
10000000
01000000
00010000
00001000
,
00100000
00000000
00000000
00010000
10000000
00000000
00100000
00000000
01000000
00000000
00000000
00000000
01100000
00000000
00000000
00000000
,
10020000
00000000
00130000
00000000
00001000
00010000
00000100
00001000
,
00000010
00000000
00000000
00001010
00000000
00000000
00000001
00000000
00000100
00000000
00000100
00000000
00000001
00001000
00000001
00001000
,
00000010
00010000
00000100
00001000
00000001
00000010
00001000
00010000
,
01000000
01000000
01000000
00100000
00010000
00000000
10010000
00000000
,
10000000
01000000
00010000
00000000
00001000
00000100
00000001
00000000
,
00000010
00000100
00000010
00000100
00000010
00000000
00000001
00000000
00001000
00000100
00001000
00000100
00010000
00000000
00001000
00000000
,
00011000
00000000
00100000
00010000
00100000
00010000
10000000
01000000
,
00010000
00001000
00100000
00010000
00100000
00001000
00010000
00000010
,
00001000
00000010
00000100
00000001
00000100
00001000
00010000
00000010
,
00001000
00000010
00001000
00000001
00000010
00001000
00010000
00000000
,
00011000
00000000
00001000
00100000
00001000
00100000
00010000
10000000
,
01000000
00010000
00001000
00100000
00010000
00100000
00001000
00010000
,
00000010
00001000
00000010
00000100
00000001
00000010
00001000
00010000
,
00000100
00000100
00001000
00000010
00020000
00001000
00031000
00000000
,
10000000
01000000
00020000
00000000
00031000
00000100
00000002
00000000
,
00000013
00001000
00010000
00100000
00010000
00001000
00000010
00000000
,
00000001
00000100
00002000
00000000
00013000
01000000
10000000
00100000
,
01000000
00000000
00000000
01000000
00001000
00000000
00000000
00001000
00010000
00000000
00000000
00010000
00000010
00000000
00000100
00000000
,
00000001
00000010
00002000
00000000
00013000
00100000
20000000
00000000
,
31000000
00010000
00001000
00000100
00001000
00010000
01000000
00100000
,
20020000
30030000
20000000
30020000
,
00031000
00001000
00000100
00000010
00000001
00000001
00000100
00000010
,
00001000
00000100
00010000
00001000
00100000
00010000
01000000
00100000
10000000
01000000
00100000
00010000
,
01000000
00000000
10010000
00000000
00010000
01000000
10000000
01000000
,
00010000
00000000
00000000
00100000
00001000
00000000
00010000
00000000
00000100
00001000
00000100
00000000
00000010
00000001
00000010
00000000
,
00000100
00000000
00001001
00000000
00001000
00000100
00000001
00000100
,
00001000
00000000
00000000
00000010
00010000
00000000
00001000
00000000
01000000
00010000
01000000
00000000
00100000
10000000
00100000
00000000
,
01000000
00000000
10010000
00000000
00010000
00100000
10000000
00100000
,
00010000
00000000
00000000
01000000
00001000
00000000
00010000
00000000
00000010
00001000
00000001
00000000
00000100
00000001
00001000
00000000
,
00000100
00000000
00001001
00000000
00001000
00000010
00000001
00000010
,
00001000
00000000
00000000
00001100
00000000
00000000
00010000
00000000
00001000
00000000
00001000
00000000
00100000
00010000
00100000
00010000
,
01000000
00100000
10020000
00000000
00130000
10000000
00100000
00010000
,
01000000
00000000
00000000
00001000
00010000
00000000
00000010
00000000
00001000
00000100
00000010
00000000
00000001
00000100
00000010
00000000
,
00001000
00000000
00000110
00000000
00000001
00000010
00001000
00000010
,
00000100
00000000
00000000
00010000
00001000
00000000
00100000
00000000
00010000
01000000
00100000
00000000
10000000
01000000
00100000
00000000
,
00010000
00000000
01100000
00000000
10000000
00100000
00010000
00100000
,
01000000
00000000
00000000
00001000
00010000
00000000
00000010
00000000
00001000
00000100
00000010
00000000
00000001
00000100
00000010
00000000
,
00001000
00000000
00000100
00000000
00010000
00000000
00001000
00000000
00100000
00000000
00010000
00000000
01000000
00000000
00100000
10000000
,
00100000
00000000
00000000
01100000
00000000
00000000
00010000
00000000
00100000
00000000
00100000
00000000
00001000
00010000
00001000
00010000
,
00000200
00000000
00000000
00000000
00000000
00000000
00000310
00000001
00000010
00000001
00000100
00000001
,
00000200
00000000
00000000
00000000
00000000
00000000
00001300
00010000
00001000
00010000
00100000
00010000
,
00100000
10000000
00100000
10000000
01000000
10000000
01000000
00010000
00001000
00010000
00001000
00000010
,
00000002
00000000
00000000
00000000
00000000
00000000
00000000
00000000
00000103
00000000
00000010
00000000
00001000
00000001
00001000
00000001
,
00000100
00001000
00010000
00001000
00010000
00100000
10000000
00010000
,
01000000
00000000
00000000
01000000
00000000
00000000
00100000
00000000
10000000
00000000
00000000
10000000
00000000
00000000
01000000
00000000
,
00020000
00000000
00000000
00032000
00000000
00000000
00003020
00000000
00002030
00000000
00000000
00023000
00000000
00000000
00230000
00000000
,
20300000
00000000
00000000
32000000
00000000
00000000
03020000
00000000
00032000
00000000
00000000
00000000
00003020
00000000
00000000
00000000
,
00000031
00001000
00000001
00001000
00000100
00000000
00010000
00000000
00001000
00010000
00001000
00010000
00001000
00000000
00100000
00000000
,
00010000
01000000
00100000
10000000
01000000
00100000
00010000
01000000
00001000
00010000
00000010
00001000
,
00000100
00000010
00000100
00000010
00000001
00000010
00000001
00000100
00000001
00000100
00000010
00001000
,
00000200
00000000
00010000
00000000
00010300
00000000
00001000
00010000
00001000
00000000
00100000
00010000
00000000
01000000
00010000
00000000
,
01000000
00100000
01000000
00100000
10000000
00000000
01000000
00000000
00100000
00001000
00010000
00000000
00000100
00010000
00001000
00000000
,
00022000
00000000
00000000
00033000
,
00001000
00000010
00000001
00000000
00001000
00000010
00000001
00000000
,
00000010
00001000
00000010
00001000
00000010
00000000
00000100
00000000
00000100
00000000
00000001
00000000
00000010
00000000
00001000
00000000
,
00010000
00100000
10000000
00000000
00010000
00100000
10000000
00000000
,
00100000
00010000
00100000
00010000
00100000
00000000
00001000
00000000
00010000
00000000
00000010
00001000
00000010
00000100
00000001
00000000
,
00000020
00000000
00000030
00000000
,
00002002
00003003
00000200
00000300
,
00022000
00033000
00200000
00300000
,
20020000
00000000
00000000
00000000
30030000
00000000
00000000
00000000
10000000
00000000
00100000
00000000
10000000
00010000
10000000
00000000
,
01000000
00010000
00001000
00010000
00001000
00000010
00000001
00001000
,
00000010
00000100
00000000
00000100
00000001
00000000
00001000
00000000
00000010
00010000
00001000
00000000
01000000
00010000
10000000
00000000
,
00100000
01000000
00010000
00100000
00001000
00010000
00000100
00001000
,
00000010
00000000
00000000
00000000
00000100
00000000
00000000
00000000
00000001
00000000
00000000
00000000
00000100
00000000
00000000
00000000
00000010
00000000
00000000
00000000
00001000
00000000
00000000
00000000
00000100
00000000
00000000
00000000
00000001
00000000
00000000
00000000
00000100
00000000
00000000
00000000
00010000
00000000
00000000
00001000
00000000
00000000
00010000
00000000
00000000
00001000
00000000
00000000
,
00000000
00000000
00010000
00100000
20000000
00000000
00000000
00000000
31000000
00000000
10000000
00000000
00010000
00000000
00100000
00000000
,
00001000
00010000
00000000
00000010
00001000
00000000
00000001
00000000
00000100
00000010
00001000
00000000
00000100
00000010
00000001
00000000
,
00000100
00001000
00010000
00001000
00010000
00100000
10000000
00010000
,
01000000
00001000
00000000
00100000
00010000
00000000
01000000
00000000
00100000
10000000
01000000
00000000
00100000
00010000
01000000
00000000
,
10000000
01000000
00010000
00100000
00001000
00010000
00000010
00001000
,
00000100
00000010
00000000
00000100
00010000
00000000
00001000
00000000
00000010
00000001
00000100
00000000
00000010
00001000
00000100
00000000
,
00000010
00000000
00000001
00000000
00000100
00000000
00000010
00000000
00001000
00000000
00000100
00000000
00010000
00000000
00001000
00010000
,
00001000
00000000
00000000
00110000
00000000
00000000
10000000
00000000
00100000
00000000
01000000
00000000
00010000
10000000
00010000
10000000
,
01000000
00100000
00010000
00100000
00001000
00010000
00000010
00001000
00000010
00000100
00000001
00000010
,
00000200
00000000
00000000
00000000
,
00000300
00000000
00000000
00000000
;
