#VERSION:0.83;
#TITLE:HEAT-BIT-HIT-BEAT;
#SUBTITLE:;
#ARTIST:V.C.O.;
#TITLETRANSLIT:;
#SUBTITLETRANSLIT:;
#ARTISTTRANSLIT:;
#GENRE:LO-BIT SAMPLING;
#CREDIT:;
#MUSIC:HEAT-BIT-HIT-BEAT.ogg;
#BANNER:HEAT-BIT-HIT-BEAT.png;
#BACKGROUND:HEAT-BIT-HIT-BEAT-bg.png;
#CDTITLE:./CDTitles/pnm 20 fantasia.png;
#SAMPLESTART:24.676;
#SAMPLELENGTH:15.000;
#SELECTABLE:YES;
#OFFSET:-0.016;
#BPMS:0.000=179.994;
#STOPS:;
#TIMESIGNATURES:0.000=4=4,
4.000=7=4,
340.000=6=4,
346.000=4=4
;
#BGCHANGES:-4.000=../BGAs/26he.mp4=1.000=0=0=0=StretchNoLoop====,
99999.000=-nosongbg-=1.000=0=0=0=StretchNoLoop====
;
#FGCHANGES:;

//--------------- dance-single - forcednature ----------------
#NOTEDATA:;
#STEPSTYPE:dance-single;
#DESCRIPTION:forcednature;
#DIFFICULTY:Beginner;
#METER:4;
#RADARVALUES:0,0,0,0,0;
#CREDIT:forcednature;
#NOTES:
0000
0000
0000
0000
,
0001
0000
0000
0000
,
0000
0000
0000
1000
,
0000
0000
0000
0000
,
0000
0000
0010
0000
,
0000
0000
0000
0000
,
0000
0100
0000
0000
,
0000
0000
0000
0000
,
0001
0000
0000
0000
,
0000
0000
0000
1000
,
0000
0000
0000
0000
,
0000
0000
0100
0000
,
0000
0000
0000
0000
,
0000
0010
0000
0000
,
0000
0000
0000
0000
,
0001
0000
0001
0000
,
0100
0000
0000
0001
,
0000
0001
0000
0100
,
0000
0000
0010
0010
,
0010
0000
1000
0000
,
0000
0010
0010
0010
,
0000
1000
0000
0000
,
0100
0000
0100
0000
,
1000
0000
0000
0100
,
0000
0100
0000
1000
,
0000
0000
0001
0001
,
0001
0000
0010
0000
,
0000
0001
0001
0001
,
0000
0010
0000
0000
,
2002
0000
0000
0000
,
0000
3003
0000
0220
,
0000
0000
0000
0000
,
0330
0000
2002
0000
,
0000
0000
0000
3003
,
0000
0220
0000
0000
,
0000
0000
0330
0000
,
0001
0000
0000
0001
,
0000
0001
0000
1000
,
0000
0000
1000
0000
,
1000
0000
0010
0000
,
0000
0010
0000
0010
,
0000
0100
0000
0100
,
0100
0000
0000
0000
,
0001
1000
0001
0000
,
1000
0000
0000
0010
,
0100
0010
0000
0100
,
0000
0000
0001
1000
,
0001
0000
1000
0000
,
0000
0100
0010
0100
,
0000
0010
0000
0001
,
1000
0001
1000
0000
,
0010
0000
0000
0100
,
0010
0100
0000
0010
,
0000
0000
1000
0001
,
1000
0000
0100
0000
,
0000
0010
0100
0010
,
0000
0100
0000
0000
,
0220
0000
0000
0000
,
0000
0000
0000
0000
,
0000
0000
0000
0000
,
0330
0000
2002
0000
,
0000
0000
0000
0000
,
0000
0000
0000
0000
,
0000
0000
3003
0000
,
1000
0000
1000
0000
,
1000
0000
1000
0010
,
0000
0010
0000
0010
,
0000
0010
0100
0000
,
0001
0000
0100
0000
,
0000
0001
0000
0010
,
0000
0001
0000
0000
,
1000
0000
0010
0000
,
1000
0000
0000
0100
,
0000
1000
0000
0100
,
0000
0000
0010
0000
,
0010
0000
0010
0000
,
0010
0001
0000
0001
,
0000
0001
0000
0001
,
0100
0000
0100
0000
,
0010
0000
0000
1000
,
0000
1000
0000
0100
,
0000
0000
0010
0000
,
0010
0000
0001
0000
,
0000
0100
0000
0100
,
0000
0010
0000
0000
,
1000
0000
0001
0000
,
1000
0000
2002
0000
,
0000
0000
3003
0000
;

//--------------- dance-single - forcednature ----------------
#NOTEDATA:;
#STEPSTYPE:dance-single;
#DESCRIPTION:forcednature;
#DIFFICULTY:Easy;
#METER:8;
#RADARVALUES:0,0,0,0,0;
#CREDIT:forcednature;
#NOTES:
0000
0000
0000
0000
,
1000
0000
1000
0000
0000
1000
0000
1000
,
0000
1000
0010
0100
,
0100
0000
0000
0100
0000
0100
0000
0000
,
0100
0001
0010
0010
,
0000
0010
0000
0010
0000
0000
0010
0000
,
0001
0000
1000
0000
0001
0000
0000
0001
,
0000
0001
0000
0000
0001
0000
0010
0000
,
0100
0000
0100
0000
0000
0100
0000
0100
,
0000
0100
1000
0010
,
0010
0000
0000
0010
0000
0010
0000
0000
,
0010
1000
0100
0100
,
0000
0100
0000
0100
0000
0000
0010
0000
,
0001
2000
0000
0000
,
0000
3000
0000
0002
0000
0000
0003
0000
,
0100
0000
0100
0000
0010
0100
0000
0000
,
0010
1000
0001
0010
,
0010
0000
0100
0010
0000
0000
0001
0000
,
1000
0000
0010
0000
1000
0001
1000
0000
,
0001
1000
0001
0000
0010
0000
0100
0000
,
0000
0000
1000
0001
1000
0000
0001
1000
,
0001
0010
0100
0010
,
0001
0000
0001
0100
,
0000
0100
0001
0010
,
0000
0001
0100
0000
,
0100
0000
0001
0000
1000
0001
1000
0000
,
0001
1000
0001
0000
0010
0000
0100
0000
,
0000
0000
1000
0001
1000
0000
0001
1000
,
0001
0010
0100
0000
,
2000
0000
0000
0000
,
0000
0000
0000
3020
,
0000
0000
0000
0000
,
0000
0000
0230
0000
,
0000
0000
0000
0000
,
0000
0302
0000
0000
,
0000
0000
0000
0000
,
0013
0010
0001
0100
,
0110
0010
1010
1000
,
0001
0000
0000
0000
1000
0001
0000
0001
,
1000
0100
0110
0010
,
0001
0100
0110
0010
,
1010
0000
1000
0000
0001
0000
0000
0001
,
1000
0000
0000
0000
0000
0020
0000
0000
,
0130
0000
0100
0000
0100
0001
0100
0000
,
0010
0010
1000
0100
,
1000
0000
0100
1000
0100
0000
1000
0000
,
0010
0100
0001
0001
,
0010
0001
0010
0000
0100
0000
1000
0000
,
0010
0000
1000
0000
1000
0000
0001
1000
,
0001
0100
0010
1000
,
0100
0000
0100
0000
0010
0100
0010
0000
,
0001
1000
0010
0100
,
0100
0000
0010
0100
0010
0000
1000
0000
,
0100
0010
0001
0001
,
1000
0001
1000
0000
0010
0000
0100
0000
,
0001
0000
1000
0000
1000
0000
0001
1000
,
0001
0010
0100
1000
,
0020
0000
0000
0000
,
0000
0000
0000
0000
,
0000
0000
0000
0030
,
0100
0001
0020
0000
,
0000
0000
0000
0000
,
0000
0000
0000
0000
,
0000
0030
0100
1000
,
0001
0000
0001
0000
0100
0001
0000
0001
,
0000
1000
0100
0000
1000
0000
0010
0000
,
0010
0000
1000
0010
0000
1000
0000
0001
,
0010
0001
0100
0001
,
0010
0100
1000
0010
,
0100
0001
0001
0010
,
0001
1000
0010
1000
,
0100
0010
0001
0100
,
0010
1000
0100
1000
,
1000
0010
1000
0001
,
0010
0001
0100
0100
,
0010
0100
0000
0100
0000
0010
1000
0000
,
0001
0000
0010
0000
0010
0000
0100
0010
,
0000
0010
0000
0100
1000
0000
0001
0000
,
0100
0010
1000
0100
,
0010
0001
0100
0010
,
1000
1000
0010
0100
,
0001
0100
0010
1000
,
0100
0010
0001
0100
,
0010
1000
1000
0100
,
1000
0001
0100
0001
,
0010
0000
0010
0100
0010
0000
0100
0010
,
0100
0110
2002
0000
,
0000
0000
3003
0000
;

//--------------- dance-single - forcednature ----------------
#NOTEDATA:;
#STEPSTYPE:dance-single;
#DESCRIPTION:forcednature;
#DIFFICULTY:Medium;
#METER:12;
#RADARVALUES:0,0,0,0,0;
#CREDIT:forcednature;
#NOTES:
0000
0000
0000
0000
,
1000
0000
1000
0000
0100
1000
0000
1000
,
0000
0010
0100
0000
0110
0000
0001
0000
,
0001
0000
0100
0001
0000
0001
0000
0010
,
0100
0110
1000
1000
,
0010
1000
0000
1000
0000
0100
0010
0000
,
0110
0000
0001
0000
0001
0000
0010
0001
,
0000
0001
0000
0100
0010
0000
0110
0000
,
0001
0000
0001
0000
0100
0010
0000
0010
,
0000
0100
0001
0000
1001
0000
1000
0000
,
1000
0000
0100
0010
0000
0010
0000
0100
,
1000
1001
0001
0001
,
0010
1000
0000
1000
0000
0010
0001
0000
,
1001
0000
1000
0000
1000
0000
0000
0001
,
0000
0001
0000
1000
0001
1000
0000
0000
,
0010
0100
0010
0100
0001
0010
0100
0000
,
1000
0010
0100
0000
0110
0000
0010
0100
,
0010
0100
0001
0010
0100
0000
1000
0010
,
0100
0000
0110
0000
0001
0001
0001
0000
,
1000
1000
1000
0000
0100
0010
0001
0100
,
0000
0010
1000
0100
0010
0000
0001
0001
,
0001
0000
0100
0001
0010
0100
0000
1000
,
0010
0000
0010
0000
0100
0001
0010
0100
,
0000
0010
0001
0000
0011
0000
0010
0000
,
0010
0000
0100
1000
0010
0100
0000
0010
,
1000
0000
1010
0000
1000
1000
1000
0000
,
0001
0001
0001
0000
0100
1000
0100
0001
,
0000
0100
0100
0100
0100
0000
0010
0010
,
0010
0000
1000
0010
0001
0010
0000
1000
,
0200
0000
0000
0000
,
0000
0000
0000
0320
,
0000
0000
0000
0000
,
0000
0000
0032
0000
,
0000
0000
0000
0000
,
0000
2003
0000
0000
,
0000
0000
0000
0000
,
3010
0000
0010
0100
0000
1000
0100
0001
,
0100
0000
0100
0010
1000
1000
0010
0000
,
0100
0001
0000
0000
0011
0010
0000
0001
,
0001
0000
0100
0000
0010
1000
0010
0100
,
0000
1000
0100
0001
0100
0000
0110
0000
,
0010
0010
1000
0001
1000
0000
0100
0010
,
0001
0100
0000
0100
0000
0010
2000
0000
,
3001
0010
0000
0000
0011
0000
0000
0000
1000
0000
0100
0000
1000
0000
0000
0000
,
0001
0010
1000
0010
0001
1000
0001
0100
,
0101
0000
1000
0010
1000
0000
0100
0001
,
0100
0000
1000
0000
0010
0000
1000
0000
0001
0100
0000
0000
0101
0000
0000
0000
,
1000
0010
1000
0000
0001
0010
1000
0010
,
0001
1000
0010
1000
1010
0000
0001
0100
,
0001
0000
0100
0100
0010
1000
0001
0010
,
0100
1000
0000
0000
1100
0000
0000
0000
0001
0000
0010
0000
0001
0000
0000
0000
,
1000
0100
0001
0100
1000
0001
1000
0010
,
1010
0000
0001
0100
0001
0000
0010
1000
,
0010
0000
0001
0000
0100
0000
0001
0000
1000
0010
0000
0000
1010
0000
0000
0000
,
0001
0100
0001
0000
1000
0100
0001
0100
,
1000
0001
0100
0001
0101
0000
1000
0010
,
1000
0000
0010
0010
0100
0001
1000
0100
,
0020
0000
0032
0000
,
0203
0000
0000
0320
,
0000
2030
0000
3200
,
0000
0000
0320
0000
,
0032
0000
2003
0000
,
0000
3020
0000
2030
,
0000
0000
3002
0000
0000
0103
0010
1000
,
1001
0000
1001
0000
0001
0010
1000
0010
,
0000
0001
0100
0000
0110
0000
1001
0000
,
1001
0000
1000
0010
0001
0010
0000
1000
,
0100
1000
0010
0100
0001
0000
0001
0010
,
0100
0010
0001
0100
1000
0000
1000
0100
,
0001
0010
0100
1000
0010
0000
0010
1000
,
0100
0001
0100
1000
0001
0010
0100
0110
,
1000
0000
1000
0010
0100
0010
1000
0100
,
0001
0000
0001
0100
1000
0010
0100
0001
,
0010
0000
0010
0001
0100
1000
0100
0001
,
1000
0010
0100
0110
0001
0000
1001
0000
,
0001
0100
1000
0100
0000
0001
0010
0000
,
0110
0000
1001
0000
1001
0000
1000
0100
,
0001
0100
0000
1000
0010
1000
0100
0010
,
0001
0000
0001
0100
0010
0100
0001
0010
,
1000
0000
1000
0010
0001
0100
0010
1000
,
0100
0000
0100
1000
0010
0001
0010
1000
,
0001
0100
0010
0110
1000
0000
1000
0100
,
0010
0100
1000
0010
0001
0000
0001
0010
,
1000
0100
0010
0001
0100
0000
0100
0001
,
0010
1000
0010
0001
1000
0100
0010
0110
,
0001
0000
0001
0100
1000
0000
1000
0100
,
0001
0011
2020
0000
,
0000
0000
3030
0000
;

//--------------- dance-single - forcednature ----------------
#NOTEDATA:;
#STEPSTYPE:dance-single;
#DESCRIPTION:forcednature;
#DIFFICULTY:Hard;
#METER:16;
#RADARVALUES:0,0,0,0,0;
#CREDIT:forcednature;
#NOTES:
0000
0000
0000
0000
,
1000
0000
1000
0000
0100
1000
0000
0010
,
0000
0000
1000
0000
1000
0000
0010
1000
0010
0000
0000
0000
1001
0000
0000
0000
,
0001
0000
0100
0001
0000
0010
0000
0001
,
0001
0000
0010
0001
0010
0000
0000
0000
1001
0000
0000
0000
1000
0000
0000
0000
,
0010
0000
1000
0000
0000
0000
0100
0000
0000
0000
1000
0000
1000
0000
0100
1000
,
0100
0000
1001
0000
0001
0000
0010
0001
,
0000
0000
0100
0000
0000
0000
0001
0000
0001
0000
0100
0001
0100
0000
0000
0000
,
1010
0000
0110
0000
0100
0001
0000
0010
,
0000
0000
0100
0000
1000
0000
0010
0100
0001
0000
0000
0000
0011
0000
0000
0000
,
0110
0000
0100
1000
0000
0010
0000
0100
,
0001
0000
0010
0100
1000
0000
0000
0000
1010
0000
0000
0000
0011
0000
0000
0000
,
0001
0000
0100
0000
0000
0000
1000
0000
0000
0000
0100
0000
0001
0000
0010
0100
,
1000
0000
0002
0000
2003
0000
3000
0002
,
0000
0000
2003
0000
0000
0000
3100
1000
0100
1000
0100
1000
0000
0000
0010
1000
,
0010
0000
0100
0000
1000
0000
0100
0000
0001
0000
0100
0001
0100
0000
0010
0000
,
0000
1000
1000
0100
0001
0100
0010
1000
,
0010
0000
0001
0000
1000
0000
0100
1000
0100
0000
0010
0000
0000
0000
0001
0000
,
0001
0000
0100
0000
0001
0000
1000
0000
0100
1000
0100
1000
0001
0000
0000
0000
,
0100
0001
0100
0001
1000
0000
0000
0000
0010
0100
0010
0000
0001
0000
0010
0100
,
0010
0000
1000
0000
0001
0010
0001
0010
0100
0000
0000
0000
1000
0010
1000
0010
,
0100
0000
0000
0000
0010
0100
0010
0000
0001
0000
0010
0100
0010
0000
1000
0000
,
0100
0000
0010
0000
0001
0000
0010
0000
1000
0000
0010
0001
0010
0000
0001
0000
,
0000
0100
0100
0010
1000
0010
0100
1000
,
0100
0000
0001
0000
1000
0000
0010
1000
0010
0000
0100
0000
0000
0000
0001
0000
,
0001
0000
0010
0000
0001
0000
1000
0000
0100
1000
0100
1000
0001
0000
0000
0000
,
0100
0001
0100
0001
1000
0000
0000
0000
0010
0100
0001
0000
0010
0000
0100
0010
,
0001
0000
0100
0000
0010
1000
0010
1000
0001
0000
0000
0000
0010
0001
0010
0001
,
1000
0000
0000
0000
0100
0010
0001
0000
0100
0000
0010
0100
0001
0000
1000
0000
,
0200
0000
0310
0100
1000
0100
0010
0000
,
0010
0000
0100
0000
1000
0000
0100
0000
0010
0000
0000
0000
0001
1000
0001
0000
,
0100
0010
1000
0010
0100
0000
0100
0010
,
1000
0000
0010
0000
0100
0000
0000
0000
0001
1000
0001
0000
0010
0000
0100
0000
,
1000
0001
0100
0000
0010
0100
0001
1000
,
0100
0000
0000
0000
1000
0001
1000
0000
0010
0000
0100
0000
0001
0000
1000
0000
,
0100
0000
0000
0000
0010
0000
0100
0000
1000
0000
0001
0000
0100
0010
0100
0010
,
1000
0000
0100
0000
0001
0000
0100
0000
0000
0000
0010
0100
1000
0000
0010
0000
,
0001
0000
0010
0000
1000
0000
0010
0000
0100
0010
0100
0010
1000
0000
0100
0000
,
0001
0000
0100
0000
0000
0000
0000
0000
1000
0100
0010
0000
0001
0000
0100
0010
,
0100
0000
0001
0000
0010
0100
1000
0000
0001
0000
0100
0000
1000
0000
0100
0000
,
0000
0000
0010
0100
0001
0000
0010
0000
1000
0000
0010
0000
0001
0000
0010
0000
,
0100
0010
0100
0010
0001
0000
0100
0000
1000
0000
0100
0000
0001
0000
1000
0001
,
0010
0000
0100
0000
0000
0000
1000
0000
0010
0000
0100
0000
0001
0010
0100
1000
,
0010
0100
0010
1000
0010
0000
0000
0000
0100
0010
0100
0001
0100
0000
0000
0000
,
0010
1000
0100
0000
0100
0000
0010
0001
0100
0000
0100
0000
0001
0010
0100
0010
,
0001
0000
0000
0000
1000
0100
0010
0100
1000
0000
0000
0000
0001
0100
0010
0000
,
1000
0100
0010
0000
0001
0000
1000
0000
0010
0100
0001
0010
0100
0000
0000
0000
,
0010
0100
1000
0010
0100
0000
0000
0000
0010
1000
0100
0000
0100
0000
0010
0001
,
0100
0000
0100
0000
0001
1000
0100
1000
0001
0000
0000
0000
1000
0001
0010
0001
,
1000
0000
0000
0000
0010
0100
0010
0000
0010
0000
0100
0001
1000
0000
0001
0000
,
1000
0010
0001
0010
1000
0000
0000
0000
0010
0100
0010
0000
0110
0000
0000
0000
,
0100
0001
0010
0000
0010
0000
0100
1000
0010
0000
0010
0000
1000
0100
0001
0100
,
1000
0000
0000
0000
0100
0010
0100
0000
0110
0000
0000
0000
0001
1000
0010
0000
,
1000
0001
0010
0000
0100
0000
1000
0000
0001
0100
1000
0100
0001
0000
0000
0000
,
0100
0010
0100
0000
0110
0000
0000
0000
0010
1000
0100
0000
0100
0000
0010
0001
,
0100
0000
0100
0000
0001
0010
1000
0010
0001
0000
0000
0000
0010
0100
0010
0000
,
0110
0000
0000
0000
0100
1000
0010
0000
0010
0000
1000
0100
0010
0000
0001
0000
,
0200
0000
0000
0000
,
0000
0000
0300
0020
,
0000
0000
0030
2000
,
0000
0000
3000
0000
0001
0010
0001
0010
,
0010
0000
0001
0100
0010
1000
0010
1000
,
1000
0000
0100
0010
0001
0100
0100
0000
,
0010
0000
1000
0000
0010
1000
0010
0000
0100
0000
0001
1000
0100
1000
0001
0000
,
0010
0001
0100
0000
0100
0001
0010
0000
0100
0000
1000
0000
0000
0000
0001
0010
,
0001
0000
1000
0010
1000
0000
0100
0010
0001
0000
1000
0000
0010
1000
0100
0000
,
0100
1000
0010
0000
0100
0000
0001
0000
0000
0000
0010
0001
0010
0000
0100
1000
,
0100
1000
0100
0000
0010
0001
1000
0000
0010
0000
0100
0000
1000
0000
0100
0000
,
0001
0100
0001
0000
0100
0000
0010
0000
1000
0100
0010
0000
0001
0000
0100
0000
,
0010
0000
1000
0000
0100
0000
0001
0000
0100
0000
1000
0000
0100
0010
0100
0000
,
1000
0000
0001
0000
0100
0010
1000
0000
0100
0010
0001
0000
0100
0000
1001
0000
,
1000
0000
0100
0000
0001
0000
0100
0000
1000
0100
1000
0000
0100
0000
0010
0000
,
0001
0100
0010
0000
1000
0000
0100
0000
0010
0000
0001
0000
0100
0000
1000
0000
,
0100
0000
0001
0000
0100
0010
0100
0000
0001
0000
1000
0000
0010
0100
0001
0000
,
0010
0100
1000
0000
0010
0000
0110
0000
0100
0001
0010
0000
0010
0001
0100
0000
,
0010
0000
1000
0000
0000
0000
0001
0100
0001
0000
1000
0100
1000
0000
0010
0100
,
0001
0000
1000
0000
0100
1000
0010
0000
0010
1000
0100
0000
0010
0000
0001
0000
,
0000
0000
0100
0001
0100
0000
0010
1000
0010
1000
0010
0000
0100
0001
1000
0000
,
0100
0000
0010
0000
1000
0000
0010
0000
0001
0010
0001
0000
0010
0000
0100
0000
,
1000
0010
0100
0000
0001
0000
0010
0000
0100
0000
1000
0000
0010
0000
0001
0000
,
0010
0000
1000
0000
0010
0100
0010
0000
1000
0000
0001
0000
0010
0100
1000
0000
,
0010
0100
0001
0000
0010
0000
1001
0000
1000
0000
0010
0000
0001
0000
0010
0000
,
1000
0010
1000
0000
0010
0000
0100
0000
0001
0010
0100
0000
1000
0000
0010
0000
,
0100
0000
0001
0000
0010
0000
1000
0000
0010
0000
0001
0000
0010
0100
0010
0000
,
0001
0000
1000
0000
0010
0100
0001
0000
0010
0100
1000
0000
0010
0000
0110
0000
,
0100
0001
0010
0100
0010
0000
0010
0000
0100
1000
0010
0100
0010
0000
0010
0000
,
1000
0010
0001
0000
0010
0000
1000
0000
2002
0000
0000
0000
0000
0000
0000
0000
,
0000
0000
3003
0000
;

//--------------- dance-single - forcednature ----------------
#NOTEDATA:;
#STEPSTYPE:dance-single;
#DESCRIPTION:forcednature;
#DIFFICULTY:Challenge;
#METER:16;
#RADARVALUES:0,0,0,0,0;
#CREDIT:forcednature;
#NOTES:
0000
0000
0000
0000
,
1001
0000
1001
0000
1100
0100
0000
1000
,
0000
0001
0010
0000
0110
0000
1001
0000
,
1001
0000
0101
0100
0000
0001
0000
1000
,
0010
0110
1001
1001
,
1010
0010
0000
0101
0000
0001
0010
0100
,
0110
0000
1001
0000
1001
0000
1100
0100
,
0000
1000
0000
0001
0010
0100
0110
0000
,
1001
0000
1001
0000
0011
0001
0000
1000
,
0000
0010
0100
0000
0110
0000
0101
0000
,
0101
0000
0011
0010
0000
0110
0000
1000
,
1100
0110
1100
1100
,
1010
0010
0000
0100
0000
0001
0010
0100
,
0110
0000
1000
0000
1000
0000
0000
1000
,
0000
0000
1000
0000
0000
0000
0001
0000
0001
0000
0001
0000
0000
0000
0100
0010
,
0100
0010
0100
0010
1000
0001
0010
0100
,
0000
1100
1100
0000
1010
0000
0010
0100
,
0010
0100
0001
0010
0100
1000
0000
0110
,
0110
0000
1001
0000
1100
1100
1100
0000
,
0101
0101
0101
0000
1010
0010
0100
0110
,
0000
0010
0101
0101
0101
0000
1100
1100
,
1100
0000
0011
0001
0010
0110
0000
1000
,
0010
0000
0010
0000
0101
1100
0000
1000
,
0010
0100
0001
0000
1001
0000
0011
0000
,
0011
0000
1100
0101
0000
0001
0010
0100
,
1000
0000
1001
0000
1010
1010
1010
0000
,
0011
0011
0011
0000
1100
1001
0011
1001
,
0000
1010
0010
0100
0101
0000
0011
0011
,
0011
0000
1010
1001
0101
1001
0000
0010
,
2001
0000
0100
0100
,
0001
0010
3100
1002
,
0000
0100
0100
1000
,
0010
0103
2001
0000
,
0010
0010
0001
0100
,
3010
1002
0000
0010
,
0010
1000
0100
0013
,
0011
0000
0011
0000
0101
1000
0010
0000
,
1010
0000
0011
0000
0001
1000
1010
0000
,
1010
0001
0000
0000
0010
0101
0000
1001
,
1001
0110
1010
1010
,
1100
0001
0010
0000
0011
0000
1010
0000
,
1000
0001
0011
0000
0011
1000
0000
0110
,
0001
0010
0000
0100
1000
0010
0200
0000
,
0301
0100
0000
0000
0101
0000
0000
0000
1010
0000
0110
0000
1010
0000
0000
0000
,
1100
0001
0010
0110
1000
0010
1000
0100
,
1100
0000
0011
0110
0011
0000
0101
1000
,
1100
0000
0001
0000
0010
0000
0100
0000
1000
0010
0000
0000
1010
0000
0000
0000
,
0101
0110
0101
0000
0011
1000
0100
0110
,
0001
0100
0001
0010
0011
0000
1100
0110
,
1100
0000
0000
0000
1000
0001
1000
0000
1001
0000
0001
0000
0010
0000
0100
0000
,
0010
0001
0000
0000
0011
0000
0000
0000
0101
0000
1100
0000
0101
0000
0000
0000
,
0011
0010
0100
1010
0010
0100
0001
0100
,
0101
0000
1010
0011
1010
0000
0101
1000
,
1100
0000
0001
0000
0010
0000
0100
0000
1000
0010
0000
0000
1010
0000
0000
0000
,
1100
0101
1100
0000
1010
0010
0100
0011
,
0010
0100
1000
0100
1100
0000
0011
1010
,
0011
0000
0000
0000
0001
1000
0001
0000
1001
0000
1000
0000
0010
0000
0100
0000
,
0002
0023
2030
3200
,
0301
0010
1000
0000
0100
0000
2000
0000
,
3020
0032
0203
1300
,
0010
0110
0101
1010
2000
0000
3200
0000
,
0302
0000
0023
0000
1030
0100
0001
0000
,
0010
0002
0203
2300
,
3020
0000
0031
0000
0010
0110
1100
0010
,
1001
0000
1001
0000
0110
1001
0000
0110
,
0000
1001
1001
0000
0110
0000
1001
0000
,
1001
0000
0110
1001
0000
0110
0000
1001
,
1001
1000
0010
0100
0001
0010
1000
0010
,
0001
1001
0000
1000
0100
0001
0100
1000
,
0001
1001
1000
0010
0001
0010
1000
1001
,
0000
0001
0100
1000
0100
0001
1000
1001
,
0001
0010
1000
0001
0100
0110
0000
0010
,
0001
0100
0010
1000
1100
0110
1000
0010
,
0001
1000
0100
0110
0000
0010
1000
0100
,
0010
0011
0101
0100
1001
0000
1001
0000
,
0110
1001
0000
0110
0000
1001
1001
0000
,
0110
0000
1001
0000
1001
0000
0110
1001
,
0000
0110
0000
1001
1001
0001
0010
0100
,
1000
0010
0001
0010
1000
1001
0000
0001
,
0100
1000
0100
0001
1000
1001
0001
0010
,
1000
0010
0001
1001
0000
1000
0100
0001
,
0100
1000
0001
1001
1000
0010
0001
1000
,
0100
0110
0000
0010
1000
1100
0010
0001
,
0101
0110
0001
0010
1000
0001
0100
0110
,
0000
0010
0001
0101
0010
1010
1100
0100
,
1001
0000
0011
0011
1001
0000
1010
1010
,
1001
0010
0101
1100
2002
0000
0000
0000
,
0000
0000
3003
0000
;

//--------------- dance-double - forcednature ----------------
#NOTEDATA:;
#STEPSTYPE:dance-double;
#DESCRIPTION:forcednature;
#DIFFICULTY:Easy;
#METER:9;
#RADARVALUES:0,0,0,0,0;
#CREDIT:forcednature;
#NOTES:
00000000
00000000
00000000
00000000
,
00001000
00000000
00001000
00000000
00000000
00001000
00000000
00001000
,
00000000
00010000
00100000
10000000
,
10000000
00000000
00000000
10000000
00000000
10000000
00000000
00000000
,
01000000
00010000
00001000
00001000
,
00000000
00001000
00000000
00001000
00000000
00000000
00000010
00000000
,
00000001
00000000
00000100
00000000
00000010
00000000
00000000
00000010
,
00000000
00000010
00000000
00000000
00000010
00000000
00001000
00000000
,
00000100
00000000
00000100
00000000
00000000
00000100
00000000
00000100
,
00000000
00010000
00001000
00100000
,
00100000
00000000
00000000
00100000
00000000
00100000
00000000
00000000
,
00100000
00010000
01000000
01000000
,
00000000
01000000
00000000
01000000
00000000
00000000
00100000
00000000
,
10000000
02000000
00000000
00000000
,
00000000
03000000
00000000
00200000
00000000
00000000
00300000
00000000
,
00001000
00000000
00001000
00000000
00010000
00001000
00000000
00000000
,
00010000
00000100
00001000
00000010
,
00000010
00000000
00000100
00000010
00000000
00000000
00000100
00000000
,
00000001
00000000
00000010
00000000
00000001
00001000
00000001
00000000
,
00001000
00000001
00001000
00000000
00000001
00000000
00000100
00000000
,
00000000
00000000
00001000
00010000
00001000
00000000
00010000
00001000
,
00010000
00001000
00100000
00010000
,
01000000
00000000
01000000
00010000
,
00000000
01000000
00100000
10000000
,
00000000
10000000
01000000
00000000
,
00100000
00000000
01000000
00000000
00100000
00010000
00100000
00000000
,
00010000
00100000
00010000
00000000
01000000
00000000
00001000
00000000
,
00000000
00000000
00010000
00001000
00010000
00000000
00001000
00010000
,
00001000
00010000
00000100
00000000
,
00000020
00000000
00000000
00000000
,
00000000
00000000
00000000
00000032
,
00000000
00000000
00000000
00000000
,
00000000
00000000
00000203
00000000
,
00000000
00000000
00000000
00000000
,
00000000
00002300
00000000
00000000
,
00000000
00000000
00000000
00000000
,
00013000
00010000
00100000
10000000
,
10100000
01000000
01010000
00010000
,
00100000
00000000
00000000
00000000
00001000
00010000
00000000
00010000
,
00001000
00010000
00010100
00000100
,
00001000
00000010
00000110
00000100
,
00000101
00000000
00000001
00000000
00000010
00000000
00000000
00000010
,
00000100
00000000
00000000
00000000
00000000
00002000
00000000
00000000
,
00003001
00000000
00000001
00000000
00000001
00000100
00000001
00000000
,
00001000
00001000
00000100
00010000
,
00001000
00000000
00010000
00001000
00010000
00000000
00001000
00000000
,
00100000
00010000
01000000
01000000
,
00010000
01000000
00010000
00000000
00100000
00000000
01000000
00000000
,
10000000
00000000
00100000
00000000
00100000
00000000
01000000
00100000
,
01000000
00010000
00100000
00001000
,
00010000
00000000
00010000
00000000
00001000
00010000
00001000
00000000
,
00010000
00000100
00001000
00000010
,
00000010
00000000
00000100
00000010
00000100
00000000
00000001
00000000
,
00000010
00000100
00010000
00010000
,
00001000
00010000
00001000
00000000
00100000
00000000
00010000
00000000
,
01000000
00000000
00010000
00000000
00010000
00000000
10000000
00010000
,
10000000
01000000
00100000
00001000
,
00020000
00000000
00000000
00000000
,
00000000
00000000
00000000
00000000
,
00000000
00000000
00000000
00030000
,
00000010
00001000
00000200
00000000
,
00000000
00000000
00000000
00000000
,
00000000
00000000
00000000
00000000
,
00000000
00000300
00000010
00000001
,
00000100
00000000
00000100
00000000
00000001
00000100
00000000
00000100
,
00000000
00000010
00001000
00000000
00000100
00000000
00010000
00000000
,
00010000
00000000
00001000
00010000
00000000
00001000
00000000
00100000
,
00010000
01000000
00010000
01000000
,
00100000
10000000
01000000
00010000
,
00001000
00010000
00010000
00001000
,
00000010
00000001
00000100
00000010
,
00001000
00000100
00010000
00001000
,
01000000
00010000
00100000
01000000
,
01000000
10000000
00100000
10000000
,
01000000
00010000
00001000
00001000
,
00010000
00001000
00000000
00001000
00000000
00010000
00001000
00000000
,
00000010
00000000
00000001
00000000
00000001
00000000
00001000
00000001
,
00000000
00000001
00000000
00001000
00000010
00000000
00000100
00000000
,
00000001
00000100
00001000
00010000
,
00001000
00010000
00100000
10000000
,
01000000
01000000
00100000
01000000
,
10000000
01000000
00010000
00001000
,
00000100
00000001
00000010
00000100
,
00001000
00000010
00000010
00010000
,
00001000
01000000
00010000
01000000
,
00100000
00000000
00100000
01000000
00100000
00000000
01000000
00100000
,
01000000
01100000
20020000
00000000
,
00000000
00000000
30030000
00000000
;

//--------------- dance-double - forcednature ----------------
#NOTEDATA:;
#STEPSTYPE:dance-double;
#DESCRIPTION:forcednature;
#DIFFICULTY:Medium;
#METER:13;
#RADARVALUES:0,0,0,0,0;
#CREDIT:forcednature;
#NOTES:
00000000
00000000
00000000
00000000
,
00001000
00000000
00001000
00000000
00010000
00000100
00000000
00000100
,
00000000
00001000
00000010
00000000
00001010
00000000
00010000
00000000
,
00010000
00000000
00001000
01000000
00000000
01000000
00000000
00010000
,
00100000
00110000
10000000
10000000
,
00100000
00010000
00000000
00010000
00000000
00001000
00010000
00000000
,
00011000
00000000
00000100
00000000
00000100
00000000
00001000
00000010
,
00000000
00000010
00000000
00001000
00000100
00000000
00001100
00000000
,
00010000
00000000
00010000
00000000
00001000
00100000
00000000
00100000
,
00000000
00010000
01000000
00000000
00011000
00000000
00000010
00000000
,
00000010
00000000
00001000
00000100
00000000
00000100
00000000
00000010
,
00000001
00001001
00001000
00001000
,
00000010
00000100
00000000
00000100
00000000
00001000
00010000
00000000
,
00011000
00000000
00100000
00000000
00100000
00000000
00000000
00100000
,
00000000
00100000
00000000
01000000
01000000
01000000
00000000
00000000
,
10000000
01000000
10000000
01000000
00010000
00001000
00100000
00000000
,
00010000
01000000
00001000
00000000
00011000
00000000
00000010
00001000
,
00000010
00001000
00000001
00000100
00001000
00000000
00010000
00000010
,
00001000
00000000
00001001
00000000
00000001
00000001
00000001
00000000
,
00001000
00001000
00001000
00000000
00000010
00000100
00000010
00000100
,
00000000
00001000
00010000
00001000
00010000
00000000
00100000
00100000
,
00100000
00000000
10000000
01000000
00100000
00010000
00000000
01000000
,
00100000
00000000
00100000
00000000
10000000
01000000
10000000
00100000
,
00000000
00100000
00010000
00000000
00011000
00000000
00001000
00000000
,
00001000
00000000
00000010
00000100
00000010
00000001
00000000
00000100
,
00000001
00000000
00001001
00000000
00001000
00001000
00001000
00000000
,
00000010
00000010
00000010
00000000
00000100
00001000
00010000
00001000
,
00000000
00010000
00010000
00010000
00010000
00000000
00100000
00100000
,
00100000
00000000
10000000
00100000
00010000
00100000
00000000
10000000
,
02000000
00000000
00000000
00000000
,
00000000
00000000
00000000
03200000
,
00000000
00000000
00000000
00000000
,
00000000
00000000
00302000
00000000
,
00000000
00000000
00000000
00000000
,
00000000
00023000
00000000
00000000
,
00000000
00000000
00000000
00000000
,
00030100
00000000
00000100
00000010
00000000
00001000
00000010
00000001
,
00000010
00000000
00000010
00000100
00010000
00010000
00001000
00000000
,
00001000
00100000
00000000
00000000
00110000
00010000
00000000
01000000
,
01000000
00000000
00100000
00000000
10000000
00100000
10000000
01000000
,
00000000
00100000
01000000
00100000
00001000
00000000
00011000
00000000
,
00010000
00010000
00000100
00010000
00001000
00000000
00000010
00000001
,
00000100
00000001
00000000
00000001
00000000
00000010
00000200
00000000
,
00001300
00000001
00000000
00000000
00001001
00000000
00000000
00000000
00001000
00000000
00000010
00000000
00001000
00000000
00000000
00000000
,
00000001
00000010
00001000
00010000
00001000
00010000
00100000
10000000
,
10010000
00000000
00010000
01000000
00001000
00000000
00010000
00000100
,
00010000
00000000
00001000
00000000
00100000
00000000
00000000
00000000
00010000
10000000
00000000
00000000
10010000
00000000
00000000
00000000
,
00010000
00100000
00010000
00000000
10000000
00100000
00010000
00001000
,
00010000
00001000
00000010
00000001
00001001
00000000
00001000
00000100
,
00010000
00000000
00001000
01000000
00001000
00010000
00000010
00000000
,
00001000
00000001
00000000
00000000
00001001
00000000
00000000
00000000
00001000
00000000
00000100
00000000
00001000
00000000
00000000
00000000
,
00000001
00000100
00001000
00010000
00001000
00010000
01000000
10000000
,
10010000
00000000
00010000
00100000
00001000
00000000
00010000
00000010
,
00010000
00000000
00001000
00000000
01000000
00000000
00000000
00000000
00010000
10000000
00000000
00000000
10010000
00000000
00000000
00000000
,
00010000
01000000
00010000
00000000
10000000
01000000
00010000
00001000
,
00010000
00001000
00000100
00000001
00001001
00000000
00001000
00000010
,
00010000
00000000
00001000
00100000
00001000
00010000
00000100
00000000
,
00000020
00000000
00000032
00000000
,
00000203
00000000
00000000
00002300
,
00000000
00023000
00000000
00230000
,
00000000
00000000
20300000
00000000
,
32000000
00000000
03020000
00000000
,
00000000
00032000
00000000
00003020
,
00000000
00000000
00000032
00000000
00000000
00000103
00000010
00001000
,
00001001
00000000
00001001
00000000
00000001
00000010
00001000
00000010
,
00000000
00000001
00000010
00000000
00000110
00000000
00011000
00000000
,
00011000
00000000
00001000
00010000
00100000
00010000
00000000
00100000
,
10000000
01000000
10000000
00010000
00100000
00000000
00100000
01000000
,
10000000
01000000
00010000
00000000
00001000
00000000
00001000
00000010
,
00000001
00000010
00000100
00000000
00001000
00000000
00001000
00000010
,
00000100
00000001
00000010
00000000
00000100
00010000
00001000
00011000
,
00100000
00000000
00100000
00010000
01000000
00010000
10000000
00000000
,
01000000
00000000
01000000
00100000
00001000
00010000
00000100
00000000
,
00001000
00000000
00001000
00000010
00000100
00000001
00000010
00000000
,
00000100
00010000
00001000
00011000
00100000
00000000
10010000
00000000
,
00010000
01000000
10000000
01000000
00000000
00010000
00100000
00000000
,
01100000
00000000
00011000
00000000
00011000
00000000
00010000
00001000
,
00000010
00001000
00000000
00000010
00000001
00000100
00000001
00000010
,
00000100
00000000
00000100
00010000
00001000
00010000
00000010
00001000
,
00000010
00000000
00000100
00001000
00010000
00001000
00010000
00100000
,
10000000
00000000
01000000
00100000
00010000
01000000
00001000
00010000
,
00000100
00001000
00000010
00000110
00000001
00000000
00000001
00000010
,
00000100
00000010
00000001
00000100
00001000
00000000
00010000
00001000
,
00010000
00100000
10000000
01000000
00100000
00000000
00100000
01000000
,
10000000
01000000
00010000
00001000
00000100
00000001
00000010
00000110
,
00000001
00000000
00000001
00000010
00001000
00000000
00010000
00100000
,
10000000
11000000
02020000
00000000
,
00000000
00000000
03030000
00000000
;

//--------------- dance-double - forcednature ----------------
#NOTEDATA:;
#STEPSTYPE:dance-double;
#DESCRIPTION:forcednature;
#DIFFICULTY:Hard;
#METER:17;
#RADARVALUES:0,0,0,0,0;
#CREDIT:forcednature;
#NOTES:
00000000
00000000
00000000
00000000
,
00001000
00000000
00001000
00000000
00010000
00001000
00000000
00000010
,
00000000
00000000
00000001
00000000
00000100
00000000
00001000
00010000
00001000
00000000
00000000
00000000
00011000
00000000
00000000
00000000
,
00010000
00000000
00100000
00010000
00000000
00100000
00000000
10000000
,
01000000
00000000
00010000
00001000
00010000
00000000
00000000
00000000
00011000
00000000
00000000
00000000
00001000
00000000
00000000
00000000
,
00000010
00000000
00000001
00000000
00000000
00000000
00000100
00000000
00000000
00000000
00000001
00000000
00000010
00000000
00001000
00010000
,
00001000
00000000
00011000
00000000
00010000
00000000
00100000
00010000
,
00000000
00000000
00100000
00000000
00000000
00000000
10000000
00000000
01000000
00000000
00010000
00001000
00010000
00000000
00000000
00000000
,
00011000
00000000
00001000
00000000
00010000
00001000
00000000
00000010
,
00000000
00000000
00000001
00000000
00000100
00000000
00001000
00010000
00001000
00000000
00000000
00000000
00011000
00000000
00000000
00000000
,
00010000
00000000
00001000
00010000
00000000
00100000
00000000
10000000
,
01000000
00000000
00010000
00001000
00010000
00000000
00000000
00000000
00011000
00000000
00000000
00000000
00011000
00000000
00000000
00000000
,
00010000
00000000
00001000
00000000
00000000
00000000
00000100
00000000
00000000
00000000
00000001
00000000
00000010
00000000
00001000
00010000
,
00001000
00000000
00020000
00000000
00032000
00000000
00003000
00020000
,
00000000
00000000
00032000
00000000
00000000
00000000
00103000
00010000
00100000
00010000
00100000
00010000
00000000
00000000
01000000
00010000
,
01000000
00000000
00100000
00000000
10000000
00000000
00100000
00000000
00010000
00000000
00001000
00010000
00001000
00000000
00000100
00000000
,
00000000
00000010
00000010
00001000
00000001
00000010
00000100
00000010
,
00000100
00000000
00010000
00000000
00001000
00000000
00100000
00001000
00100000
00000000
00010000
00000000
00000000
00000000
01000000
00000000
,
01000000
00000000
00100000
00000000
10000000
00000000
00010000
00000000
00100000
00001000
00100000
00001000
00010000
00000000
00000000
00000000
,
00000010
00010000
00000010
00010000
00001000
00000000
00000000
00000000
00100000
01000000
00100000
00000000
00010000
00000000
01000000
00100000
,
01000000
00000000
00010000
00000000
00100000
00001000
00100000
00001000
00010000
00000000
00000000
00000000
00000010
00010000
00000010
00010000
,
00001000
00000000
00000000
00000000
00100000
01000000
00100000
00000000
00010000
00000000
01000000
00100000
01000000
00000000
00010000
00000000
,
00100000
00000000
01000000
00000000
10000000
00000000
01000000
00000000
00010000
00000000
00001000
00010000
00001000
00000000
00000010
00000000
,
00000000
00000001
00000001
00000100
00000010
00001000
00000001
00000010
,
00001000
00000000
00010000
00000000
00000100
00000000
00001000
00000100
00001000
00000000
00000010
00000000
00000000
00000000
00000100
00000000
,
00000100
00000000
00000001
00000000
00000100
00000000
00000010
00000000
00001000
00000100
00001000
00000100
00010000
00000000
00000000
00000000
,
00001000
01000000
00001000
01000000
00010000
00000000
00000000
00000000
10000000
01000000
00100000
00000000
00010000
00000000
00001000
00000100
,
00000010
00000000
00000001
00000000
00001000
00000010
00001000
00000010
00010000
00000000
00000000
00000000
00001000
00010000
00001000
00010000
,
00000100
00000000
00000010
00000000
00000001
00000100
00000010
00000000
00001000
00000000
00010000
01000000
00100000
00000000
10000000
00000000
,
02000000
00000000
03100000
01000000
10000000
01000000
00100000
00000000
,
00100000
00000000
01000000
00000000
10000000
00000000
01000000
00000000
00010000
00000000
00000000
00000000
00001000
00010000
00001000
00000000
,
00000010
00000100
00000010
00000001
00000100
00000000
00000100
00000010
,
00000100
00000000
00000001
00000000
00000010
00000000
00000000
00000000
00001000
00010000
00001000
00000000
00010000
00000000
00100000
00000000
,
10000000
01000000
00100000
00000000
01000000
10000000
00100000
01000000
,
00001000
00000000
00000000
00000000
00010000
00001000
00010000
00000000
00001000
00000000
00000010
00000000
00000001
00000000
00000010
00000000
,
00001000
00000000
00000000
00000000
00001000
00000000
00010000
00000000
01000000
00000000
10000000
00000000
00100000
01000000
00100000
01000000
,
00010000
00000000
00100000
00000000
01000000
00000000
00010000
00000000
00000000
00000000
00001000
00010000
00001000
00000000
00000010
00000000
,
00000100
00000000
00000010
00000000
00000001
00000000
00000010
00000000
00001000
00010000
00001000
00010000
00001000
00000000
01000000
00000000
,
00010000
00000000
01000000
00000000
00000000
00000000
00000000
00000000
00100000
10000000
01000000
00000000
00100000
00000000
01000000
00100000
,
01000000
00000000
00010000
00000000
00001000
00010000
00001000
00000000
00010000
00000000
00100000
00000000
10000000
00000000
00100000
00000000
,
00000000
00000000
01000000
00100000
10000000
00000000
01000000
00000000
00100000
00000000
01000000
00000000
00010000
00000000
00001000
00000000
,
00010000
00001000
00010000
00001000
00100000
00000000
00001000
00000000
00010000
00000000
00001000
00000000
00000010
00000000
00000100
00000010
,
00000001
00000000
00000100
00000000
00000000
00000000
00000010
00000000
00001000
00000000
00000001
00000000
00000010
00000100
00001000
00000100
,
00010000
00001000
00010000
00001000
00100000
00000000
00000000
00000000
00001000
00010000
00001000
00010000
00000010
00000000
00000000
00000000
,
00000100
00000001
00000100
00000000
00001000
00000000
00010000
00001000
00010000
00000000
00001000
00000000
01000000
00001000
01000000
00001000
,
00010000
00000000
00000000
00000000
00000100
00010000
00000100
00010000
00001000
00000000
00000000
00000000
01000000
00010000
00100000
00000000
,
01000000
00000000
10000000
00000000
01000000
00000000
00010000
00000000
00001000
00010000
00001000
00010000
00000010
00000000
00000000
00000000
,
00010000
00001000
00010000
00001000
00100000
00000000
00000000
00000000
01000000
10000000
01000000
00000000
00010000
00000000
00001000
00010000
,
00001000
00000000
00010000
00000000
00000100
00010000
00000100
00010000
00001000
00000000
00000000
00000000
01000000
00001000
01000000
00001000
,
00010000
00000000
00000000
00000000
00000100
00001000
00000010
00000000
00000100
00000000
00000001
00000000
00000010
00000000
00001000
00000000
,
00010000
00001000
00100000
00001000
00010000
00000000
00000000
00000000
00001000
00010000
00000010
00010000
00001000
00000000
00000000
00000000
,
00000100
00000001
00000100
00000000
00001000
00000000
00010000
00000010
00010000
00000000
00001000
00000000
00100000
00010000
01000000
00001000
,
00010000
00000000
00000000
00000000
00000010
00001000
00000100
00010000
00001000
00000000
00000000
00000000
01000000
00010000
00100000
00000000
,
01000000
00000000
10000000
00000000
01000000
00000000
00010000
00000000
00001000
00010000
00000100
00010000
00001000
00000000
00000000
00000000
,
00010000
00001000
01000000
00001000
00010000
00000000
00000000
00000000
00100000
10000000
00100000
00000000
00010000
00000000
00001000
01000000
,
00001000
00000000
00010000
00000000
00000100
00001000
00000010
00010000
00001000
00000000
00000000
00000000
01000000
00010000
00100000
00001000
,
00010000
00000000
00000000
00000000
00000010
00001000
00000100
00000000
00000010
00000000
00000001
00000000
00000100
00000000
00001000
00000000
,
00020000
00000000
00000000
00000000
,
00000000
00000000
00030000
00200000
,
00000000
00000000
00300000
20000000
,
00000000
00000000
30000000
00000000
01000000
00100000
00010000
00100000
,
00100000
00000000
00001000
00010000
00000100
00010000
00001000
00000010
,
00000010
00000000
00000001
00000010
00000100
00001000
00001000
00000000
,
00000010
00000000
00000100
00000000
00000001
00000100
00000001
00000000
00000010
00000000
00000100
00001000
00000100
00010000
00001000
00000000
,
00100000
00010000
01000000
00000000
01000000
00100000
10000000
00000000
01000000
00000000
00010000
00000000
00000000
00000000
00001000
00010000
,
00001000
00000000
00100000
00010000
00100000
00000000
00001000
00010000
00000100
00000000
00001000
00000000
00000010
00001000
00000100
00000000
,
00000100
00000010
00000001
00000000
00000100
00000000
00001000
00000000
00000000
00000000
00010000
00001000
00010000
00000000
00000010
00001000
,
00000010
00000000
00010000
00001000
01000000
00000000
00010000
00000000
00100000
00000000
01000000
00000000
10000000
00000000
01000000
00000000
,
00010000
01000000
00010000
00000000
00001000
00000000
00010000
00000000
00001000
00000010
00001000
00000000
00000010
00000000
00000001
00000000
,
00000100
00000000
00001000
00000000
00010000
00000000
00001000
00000000
00010000
00000000
00100000
00000000
10000000
00100000
10000000
00000000
,
00100000
00000000
01000000
00000000
00010000
00100000
01000000
00000000
00100000
00001000
00010000
00000000
00001000
00000000
00011000
00000000
,
00000010
00000000
00000100
00000000
00000001
00000000
00000100
00000000
00001000
00000100
00001000
00000000
00010000
00000000
00001000
00000000
,
00010000
00100000
00010000
00000000
00100000
00000000
10000000
00000000
01000000
00000000
00010000
00000000
00001000
00000000
00010000
00000000
,
00001000
00000000
00000010
00000000
00000001
00000010
00000001
00000000
00000010
00000000
00000100
00000000
00001000
00000010
00000100
00000000
,
00000010
00010000
00001000
00000000
00010000
00000000
00011000
00000000
01000000
00010000
00100000
00000000
00100000
01000000
10000000
00000000
,
00100000
00000000
00010000
00000000
00000000
00000000
00001000
00010000
00001000
00000000
01000000
00010000
01000000
00000000
00001000
00010000
,
00000010
00000000
00001000
00000000
00000100
00001000
00000010
00000000
00000010
00000100
00000001
00000000
00000010
00000000
00001000
00000000
,
00000000
00000000
00010000
00001000
00010000
00000000
00000100
00001000
00000100
00000000
00010000
00001000
00100000
00000000
00010000
00000000
,
01000000
00000000
00100000
00000000
10000000
00000000
00100000
00000000
00010000
00100000
00010000
00000000
00001000
00000000
00010000
00000000
,
00001000
00000100
00001000
00000000
00000100
00000000
00000001
00000000
00000010
00000000
00001000
00000000
00010000
00000000
00001000
00000000
,
00010000
00000000
00100000
00000000
10000000
01000000
10000000
00000000
01000000
00000000
00100000
00000000
00010000
01000000
00100000
00000000
,
01000000
00001000
00010000
00000000
00001000
00000000
00011000
00000000
00000100
00000000
00000010
00000000
00000001
00000000
00000010
00000000
,
00001000
00000010
00001000
00000000
00010000
00000000
00001000
00000000
00010000
01000000
00010000
00000000
01000000
00000000
10000000
00000000
,
00100000
00000000
00010000
00000000
00001000
00000000
00010000
00000000
00001000
00000000
00000010
00000000
00000001
00000100
00000001
00000000
,
00000100
00000000
00000010
00000000
00001000
00000100
00000010
00000000
00000100
00010000
00001000
00000000
00010000
00000000
00011000
00000000
,
00100000
00010000
01000000
00010000
00100000
00000000
00100000
00000000
00001000
00010000
00000100
00010000
00001000
00000000
00001000
00000000
,
00000010
00000001
00000100
00000000
00000010
00000000
00001000
00000000
00002200
00000000
00000000
00000000
00000000
00000000
00000000
00000000
,
00000000
00000000
00003300
00000000
;

//--------------- dance-double - forcednature ----------------
#NOTEDATA:;
#STEPSTYPE:dance-double;
#DESCRIPTION:forcednature;
#DIFFICULTY:Challenge;
#METER:17;
#RADARVALUES:0,0,0,0,0;
#CREDIT:forcednature;
#NOTES:
00000000
00000000
00000000
00000000
,
00011000
00000000
00011000
00000000
00001000
00010000
00000000
00100000
,
00000000
10000000
01000000
00000000
01100000
00000000
00011000
00000000
,
00011000
00000000
00010000
00001000
00000000
00000010
00000000
00000001
,
00000100
00000110
00011000
00011000
,
00001000
00010000
00000000
01000000
00000000
10000000
00100000
01000000
,
01100000
00000000
00011000
00000000
00011000
00000000
00010000
00001000
,
00000000
00000010
00000000
00000001
00000100
00000010
00000110
00000000
,
00011000
00000000
00011000
00000000
00001000
00010000
00000000
00100000
,
00000000
10000000
01000000
00000000
01100000
00000000
00011000
00000000
,
00011000
00000000
00010000
00001000
00000000
00000100
00000000
00000001
,
00000011
00000110
00011000
00011000
,
00001000
00010000
00000000
01000000
00000000
10000000
00100000
01000000
,
01100000
00000000
10000000
00000000
10000000
00000000
00000000
00010000
,
00000000
00000000
00010000
00000000
00000000
00000000
00001000
00000000
00001000
00000000
00001000
00000000
00000000
00000000
00000001
00001000
,
00000001
00000010
00000001
00000010
00001000
00000010
00000001
00000100
,
00000000
00000110
00000110
00000000
00011000
00000000
00010000
00100000
,
00010000
00100000
10000000
01000000
00010000
01000000
00000000
01100000
,
01100000
00000000
00011000
00000000
00010100
00010100
00010100
00000000
,
01001000
01001000
01001000
00000000
00001000
00010000
00100000
01000000
,
00000000
00010000
00101000
00101000
00101000
00000000
00010010
00010010
,
00010010
00000000
00010000
00001000
00000010
00000100
00000000
00000010
,
00001001
00000000
00001001
00000000
00000001
00000100
00001000
00010000
,
00000000
00100000
01000000
00000000
01100000
00000000
10010000
00000000
,
10010000
00000000
10000000
01000000
00010000
00001000
00000000
00000010
,
00000100
00000000
00000110
00000000
00010100
00010100
00010100
00000000
,
01001000
01001000
01001000
00000000
00110000
00101000
00011000
00101000
,
00000000
00100000
01001000
01001000
01001000
00000000
00010100
00010100
,
00010100
00000000
00001010
00010010
00011000
00010010
00000000
00000010
,
00002001
00000000
00000100
00000100
,
00000001
00000001
00000010
00023000
,
00000000
01000000
01000000
10000000
,
10000000
00100000
00032000
00000000
,
00000100
00000100
00000001
00000001
,
00000010
00023000
00000000
01000000
,
01000000
10000000
10000000
00100000
,
00031000
00000000
00011000
00000000
00000000
00001100
00000001
00000000
,
00000101
00000000
00001100
00000000
00010000
00001000
00011000
00000000
,
00101000
00010000
00000000
00000000
00100000
01010000
00000000
01100000
,
01100000
10010000
11000000
11000000
,
01010000
00001000
00010000
00000000
00010100
00000000
00010100
00000000
,
00001000
00000010
00000110
00000000
00000110
00000001
00000000
00000011
,
00001000
00000100
00000000
00010000
00001000
00100000
02000000
00000000
,
13000000
00100000
00000000
00000000
01100000
00000000
00000000
00000000
10100000
00000000
01100000
00000000
10100000
00000000
00000000
00000000
,
11000000
01000000
00010000
00011000
00001000
00000010
00000001
00000100
,
00001001
00000000
00000011
00000110
00000011
00000000
00000101
00000100
,
00001000
00000000
00011000
00000000
00010000
00000000
00100000
00000000
10000000
01000000
00000000
00000000
10010000
00000000
00000000
00000000
,
10100000
11000000
10100000
00000000
11000000
01000000
00010000
00011000
,
00001000
00000010
00000001
00000100
00001001
00000000
00000011
00000101
,
00000011
00000000
00000000
00000000
00000001
00001000
00000001
00000000
00001001
00000000
00010000
00000000
00001000
00000000
00000010
00000000
,
00000001
00000100
00000000
00000000
00000110
00000000
00000000
00000000
00000011
00000000
00001010
00000000
00000011
00000000
00000000
00000000
,
00000110
00001000
00010000
00011000
00100000
01000000
01100000
00010000
,
00100000
00000000
10100000
00110000
10100000
00000000
11000000
01000000
,
00110000
00000000
00100000
00000000
00001000
00000000
00010000
00000000
00000010
00001000
00000000
00000000
00001100
00000000
00000000
00000000
,
00000011
00001010
00000011
00000000
00000110
00001000
00010000
00011000
,
00100000
01000000
01100000
10000000
00010000
00000000
00110000
10100000
,
00110000
00000000
00000000
00000000
10000000
00010000
10000000
00000000
10010000
00000000
00010000
00000000
00100000
00000000
01000000
00000000
,
00020000
00032000
00003020
00000032
,
00000103
00000100
00000010
00000000
00000100
00000000
00002000
00000000
,
00023000
00230000
20300000
31000000
,
00100000
00110000
00101000
00011000
00020000
00000000
00032000
00000000
,
00003020
00000000
00000032
00000000
00000103
00000100
00000010
00000000
,
00000100
00002000
00023000
00230000
,
20300000
00000000
31000000
00000000
00100000
01100000
11000000
00100000
,
10010000
00000000
10010000
00000000
01100000
01100000
00000000
00011000
,
00000000
00000110
00000110
00000000
00001001
00000000
00001001
00000000
,
00001001
00000000
00000110
00000110
00000000
00011000
00000000
01100000
,
01100000
00000000
10010000
00000000
10000000
00100000
00010000
00001000
,
01000000
00100000
00010000
00001000
00000100
00000001
00000010
00001000
,
00011000
00010100
00000100
00001000
00000010
00000100
00001000
00010000
,
01000000
00100000
00001000
00010000
00011000
00101000
00110000
01010000
,
01000000
00100000
10000000
01000000
00010000
00001000
01000000
00100000
,
00010000
00001000
00000100
00000001
00000011
00001001
00001000
00000100
,
00000010
00001000
00010000
00000100
00010000
00001000
00100000
00010000
,
01000000
01100000
10100000
11000000
10010000
00000000
10010000
00000000
,
00011000
00011000
00000000
00001001
00000000
00011000
00011000
00000000
,
00011000
00000000
00001001
00000000
00001001
00000000
00011000
00011000
,
00000000
10010000
00000000
00011000
00011000
00011000
00000010
00001000
,
00000001
00000010
00001000
00010000
00000100
00000010
00001000
00010000
,
01000000
10000000
00100000
00010000
00011000
01001000
01000000
00010000
,
00100000
01000000
00010000
00001000
00000100
00000010
00010000
00001000
,
00011000
00010010
00001010
00001100
00000100
00000010
00000001
00000100
,
00001000
00010000
00000100
00000010
00001000
00010000
01000000
10000000
,
10100000
10010000
00010000
01000000
00100000
00010000
00001000
01000000
,
00001000
00010000
00000010
00001000
00000100
00000110
00000011
00000101
,
00001001
00000000
00011000
00011000
00011000
00000000
10010000
10010000
,
10010000
00101000
00010100
00001001
00000220
00000000
00000000
00000000
,
00000000
00000000
00000330
00000000
;
