#VERSION:0.83;
#TITLE:HAT TRICK;
#SUBTITLE:;
#ARTIST:P*Light;
#TITLETRANSLIT:;
#SUBTITLETRANSLIT:;
#ARTISTTRANSLIT:;
#GENRE:HANDZ STYLE;
#CREDIT:;
#MUSIC:HAT TRICK.ogg;
#BANNER:HAT TRICK.png;
#BACKGROUND:HAT TRICK-bg.png;
#CDTITLE:./CDTitles/bm IIDX 25 CANNON BALLERS.png;
#SAMPLESTART:37.779;
#SAMPLELENGTH:15.000;
#SELECTABLE:YES;
#OFFSET:0.604;
#BPMS:0.000=150.000
,34.000=75.000
,41.500=150.000
,158.000=75.000
,159.000=150.000
;
#STOPS:32.000=0.800
,41.500=0.200
,159.000=0.400
;
#TIMESIGNATURES:0.000=4=4,
40.000=2=4,
42.000=4=4,
158.000=2=4,
160.000=4=4
;
#BGCHANGES:0.000=HAT TRICK.mp4=1.000=0=0=0=StretchNoLoop====,
99999.000=-nosongbg-=1.000=0=0=0=StretchNoLoop====
;
#FGCHANGES:;

//--------------- dance-single - forcednature ----------------
#NOTEDATA:;
#STEPSTYPE:dance-single;
#DESCRIPTION:forcednature;
#DIFFICULTY:Beginner;
#METER:4;
#RADARVALUES:0,0,0,0,0;
#CREDIT:forcednature;
#NOTES:
0000
0000
0000
0000
,
0000
0000
0000
0000
,
0000
0000
0000
0000
,
0000
0000
0000
0000
,
0000
0000
0000
0000
,
1000
0000
0000
0000
,
0001
0000
0000
0000
,
0100
0000
0010
0000
,
0110
0000
0001
0000
,
0000
0000
1000
0000
,
0000
0000
0100
0000
,
0000
0000
0010
0000
,
0000
0000
0001
0000
,
0000
0000
1000
0000
,
0000
0000
1001
0000
,
0000
0000
0001
0000
,
0000
0000
0100
0000
,
0000
0000
0001
0000
,
0000
0000
1000
0000
,
1000
0000
0001
0000
,
1000
0000
0010
0000
,
0100
0000
0110
0000
,
0000
0000
0001
0001
,
0001
0000
1000
0000
,
0000
0000
0100
0000
,
1000
0000
0010
0000
,
0100
0000
0001
0000
,
0000
0000
1001
0000
,
0000
0000
0001
0000
,
0010
0000
0001
0000
,
0100
0000
0010
0000
,
0000
0000
1000
0000
,
1000
0000
0001
0000
,
0001
0000
1000
0000
,
0001
0000
0100
0000
,
0000
0000
1001
0000
,
0000
0000
0110
0000
,
0000
0000
0001
0000
,
1000
0000
0100
0100
,
0100
0000
1001
0000
,
1000
0000
0000
0000
,
1000
0000
1000
0000
,
0010
0000
1000
0000
,
0010
0000
0100
0000
,
0000
1001
0000
0000
,
0001
0000
0001
0000
,
0010
0000
0001
0000
,
0100
0000
0020
0000
,
0030
0000
0000
0000
,
0000
0000
0000
0000
,
0000
0000
0000
0000
,
1001
0000
0000
0000
,
1000
0000
0001
0000
,
0100
0000
0001
0000
,
0010
0100
0010
0100
,
0010
0000
0000
0000
,
0001
0001
1000
1000
,
0001
0000
1000
0000
,
0010
0010
0010
0000
,
1001
0000
1000
0000
,
0100
0000
1000
0000
,
0010
0000
0100
0000
,
0010
0010
0010
0000
,
0100
0000
0001
0000
,
1000
0000
0001
0000
,
0010
0000
0100
0000
,
0010
0010
0010
0000
,
1001
0000
0000
0000
;

//--------------- dance-single - forcednature ----------------
#NOTEDATA:;
#STEPSTYPE:dance-single;
#DESCRIPTION:forcednature;
#DIFFICULTY:Easy;
#METER:7;
#RADARVALUES:0,0,0,0,0;
#CREDIT:forcednature;
#NOTES:
0000
0000
0000
0000
,
0000
0000
0000
0000
,
0000
0000
0000
0000
,
0000
0000
0000
0000
,
0000
0000
0000
0000
,
0001
0000
0000
0001
0000
0000
1000
0000
,
0001
0000
0000
0001
0000
0000
1000
0000
,
0020
0030
0200
0300
,
1001
0000
0000
0000
2000
0000
0000
3000
,
0200
0000
0000
0300
0020
0000
0000
0030
,
0002
0000
0000
0003
0100
0000
0000
0000
,
0110
0000
0010
0000
,
0110
0000
1001
0000
,
0110
0000
1001
1000
,
0002
0003
0010
0001
,
0100
0001
1000
0001
,
0100
0001
0010
0010
,
0100
0010
0220
0330
,
1000
0001
1001
0000
,
0110
0000
1001
0000
,
0110
0000
1000
0001
,
0100
0010
0220
0000
,
0000
0330
1001
1001
,
2002
3003
1000
0100
,
0010
0100
1000
0010
,
0100
0000
0001
1000
,
0100
1000
1001
0100
,
0220
0330
0001
0100
,
0001
0010
0001
1000
,
0010
0100
0110
0000
,
1001
0100
0220
0330
,
2002
3003
0001
0010
,
1000
0010
0001
0100
,
1000
0100
0001
1000
,
0100
1000
1001
0010
,
0220
0330
0001
1000
,
2002
3003
0100
0010
,
0220
0330
1001
0000
,
1000
0000
0010
0000
0100
0010
0100
0000
,
0002
0003
2002
3003
,
1000
0100
0001
0100
,
1000
0100
0001
0100
,
1000
0010
0001
0010
,
1000
0010
0001
0010
,
0000
1001
0001
0100
,
1000
0100
0001
0100
,
0001
0010
1000
0010
,
0001
1000
0001
0000
2000
0000
0000
0000
,
3010
0000
0010
0000
,
0100
0000
0000
0000
,
0001
0000
1000
0000
,
2002
0000
3003
0000
,
1001
0000
0110
0000
,
1001
0000
0110
0000
,
0001
0001
1000
0100
,
0220
0000
0000
0330
,
1001
1001
1001
1001
,
0020
0030
0200
0300
,
1001
0110
2002
3003
,
1000
0010
0100
0010
,
1000
0001
0100
0001
,
1000
1000
0001
1000
,
0100
0010
0220
0330
,
0001
1000
0001
0000
1000
0000
0100
0000
,
1000
0010
0100
0001
,
1001
0000
0110
0000
,
0001
1000
0001
0000
2000
0000
3000
0000
,
1001
0000
0000
0000
;

//--------------- dance-single - forcednature ----------------
#NOTEDATA:;
#STEPSTYPE:dance-single;
#DESCRIPTION:forcednature;
#DIFFICULTY:Medium;
#METER:9;
#RADARVALUES:0,0,0,0,0;
#CREDIT:forcednature;
#NOTES:
0000
0000
0000
0000
,
0000
0000
0000
0000
,
0000
0000
0000
0000
,
0000
0000
0000
0000
,
0000
0000
0000
0000
,
1001
0000
0000
1010
0000
0000
0001
0000
,
1001
0000
0000
0011
0000
0000
1000
0000
,
0100
0110
0010
0110
,
2002
3003
2000
0000
,
3020
0000
0230
0000
,
0302
0000
0000
0000
0000
0000
0003
0000
1000
0000
0000
0100
0000
0000
1000
0000
,
0020
0000
0000
0000
0030
0000
0000
0000
0100
0000
0000
0001
0000
0000
0010
0000
,
0002
0000
0000
0000
0003
0000
0000
0000
0001
0000
0000
0010
0000
0000
0001
0000
,
0200
0000
0000
0000
0300
0000
0000
0000
0010
0000
0000
1000
0000
0000
0100
0000
,
2000
3000
1001
0100
,
0001
0010
0100
1000
,
0010
0000
1000
0000
0001
1000
0001
0000
,
1000
0001
1000
0000
0010
0000
0100
0010
,
0200
0300
0101
0000
,
1100
0000
0011
0000
,
1010
0000
1001
0100
,
1001
0010
0220
0000
,
0000
0330
1001
1001
,
2002
0000
3003
0000
1000
0100
0010
0000
,
0001
0000
0100
0000
0001
0010
0100
0000
,
0010
0001
0100
0110
,
0010
0000
1001
0000
0001
1000
0001
1000
,
0200
0000
0300
0000
0010
0001
0100
0000
,
0010
0000
1000
0000
0100
0010
0001
0000
,
0100
0000
0010
0000
1000
0100
0010
0000
,
0100
1000
0001
0000
2002
0000
3003
0000
,
0001
0000
1000
0000
0001
0000
1000
0000
0000
0000
0000
0000
1100
0000
0000
0000
0000
0000
0001
0000
0000
0010
0000
0000
,
0100
0000
0010
0000
0101
0000
1000
0010
,
0100
0000
0010
0000
1000
0001
0100
0000
,
0001
1000
0100
0000
0010
0000
0100
0010
,
0200
0000
0000
0000
0300
0000
0000
0000
0010
0000
0000
0010
0000
0000
0001
0000
,
0200
0000
0000
0000
0300
0000
0000
0000
0010
0000
0000
0010
0000
0000
1000
0000
,
0200
0000
0000
0000
0300
0000
0000
0000
1000
0000
0000
1000
0000
0000
0001
0000
,
0100
0000
0110
0000
0010
1000
0010
1000
,
0002
0003
2002
3003
,
1100
0001
1100
0010
,
1100
0001
1100
0010
,
0101
1000
0101
0010
,
0101
1000
0101
0010
,
0000
1001
1100
1001
,
1100
1001
0101
1001
,
0001
1000
0001
0000
1000
0001
1000
0000
,
0010
0100
0010
0100
0002
0000
0000
0000
,
1003
0100
0000
0100
,
1000
0010
0000
0010
,
0100
0001
0000
0001
,
2002
0000
3003
0000
,
0011
0000
1010
0000
,
0101
0000
1100
0000
,
1001
0101
1001
1100
,
0220
0000
0000
0330
,
1001
1001
1001
1001
,
0202
0303
2200
3300
,
1001
0110
2002
3003
,
1000
0100
0001
0000
0100
0000
1000
0000
,
0001
0100
1000
0000
0100
0000
0001
0000
,
0010
0001
1000
0000
0010
1000
0001
0000
,
0010
0100
0010
0100
0020
0000
0030
0000
,
0001
0001
0001
0000
0100
0000
0010
0000
,
1001
0000
1000
0000
0100
0000
0010
0100
,
0010
0000
0000
0010
0000
0000
0001
0000
0100
0000
0000
0000
0110
0000
0000
0000
,
1000
0001
1000
0001
0200
0000
0300
0000
,
1001
0000
0000
0000
;

//--------------- dance-single - forcednature ----------------
#NOTEDATA:;
#STEPSTYPE:dance-single;
#DESCRIPTION:forcednature;
#DIFFICULTY:Hard;
#METER:14;
#RADARVALUES:0,0,0,0,0;
#CREDIT:forcednature;
#NOTES:
0000
0000
0000
0000
,
0000
0000
0000
0000
,
0000
0000
0000
0000
,
0000
0000
0000
0000
,
0000
0000
0000
0000
,
1001
0000
0001
0101
0000
1000
1010
0000
,
0110
0000
1000
1100
0000
0001
0011
0000
,
0001
0100
0010
1000
0000
0000
0001
0010
0100
1000
0000
0000
,
2002
3003
0002
0000
,
0203
0000
0320
0000
,
2030
0000
0000
0000
3002
0000
0013
0000
0001
0100
0000
0010
0000
1000
0010
0000
,
2002
0000
0000
0000
3003
0000
0000
0000
1000
0100
0000
0010
0000
0001
0010
0000
,
2002
0000
0000
0000
3003
0000
0000
0000
0001
0100
0000
0001
0000
0010
0100
0000
,
2002
0000
0000
0000
3003
0000
0000
0000
1000
0100
0000
1000
0000
0010
0100
0000
,
1002
0000
0000
0000
0013
0000
0000
0000
0101
0000
0000
0001
0010
0000
0000
0000
,
0001
0000
0000
0100
0010
0000
0000
0000
0100
0000
0000
0001
0010
0000
0100
0000
,
1000
0000
0010
0100
0001
0010
0001
0100
,
0001
0000
1000
0000
0001
0000
0010
0000
0100
0000
0000
1000
0010
0000
0100
0000
,
0002
0000
0000
0000
0013
0000
0000
0000
0001
0100
0000
0000
0001
0000
0010
0000
,
1000
0100
0000
0000
1000
0000
0010
0000
0001
0100
0000
0000
0001
0000
0010
0000
,
1000
0100
0000
0000
1000
0000
0010
0000
0101
0000
0000
0000
0011
0000
0000
0000
,
1010
1100
2002
0000
,
0000
3003
0110
0110
,
0110
0000
0001
0000
0010
0000
0000
0000
0001
0100
0000
0001
0000
1000
0010
0000
,
1000
0100
0000
1000
0000
0001
0010
0000
0100
1000
0000
1000
0000
0010
0100
0000
,
0001
0000
0010
0001
0101
0000
0110
0000
,
1000
0100
0000
0001
0000
0100
0010
0000
0001
1000
0001
1000
0001
0000
0100
0000
,
0210
0000
0000
0000
0301
0000
0000
0000
1000
0100
0000
1000
0000
0001
0010
0000
,
0001
0100
0000
0001
0000
1000
0010
0000
0100
0001
0000
0001
0000
0010
0100
0000
,
1000
0000
0010
0100
1001
0000
1100
0000
,
0001
0010
0000
0110
0000
0100
1000
0000
0010
0100
0010
0100
0010
0000
0000
0000
,
1000
0000
0000
0000
0100
0000
0000
0000
0010
0000
0000
0000
0011
0000
0000
0000
0000
0000
0000
0000
0000
0000
0000
0000
0001
0000
0000
0100
0000
0000
0000
0000
0000
0010
0000
0000
0000
0000
0000
0100
0000
0000
0001
0000
0000
0100
0000
0000
,
0001
0000
1000
0000
0010
0000
1000
0000
0001
0010
0000
0100
0000
0010
0001
0010
,
0001
0000
1000
0000
1000
0000
0000
0000
0010
0100
0000
0001
0000
0010
0001
0000
,
0010
0100
0000
1000
0000
0010
1000
0000
0001
1000
0001
1000
0001
0000
0010
0000
,
0110
0000
0000
0000
1001
0000
0000
0000
1000
0100
0000
1100
0000
1000
0010
0000
,
1001
0000
0000
0000
0000
0000
0000
0000
0001
0100
0000
0101
0000
0001
0010
0000
,
1001
0000
0000
0000
0100
0000
0010
0000
0110
0000
0000
1001
0000
0000
0001
0000
,
0010
0001
0000
0100
0000
0010
0100
0000
0010
1000
0010
1000
0001
0000
0100
0000
,
0220
0330
2002
3003
,
1000
0100
1000
0010
1000
0001
1000
0010
,
0100
0010
0100
0010
0100
0000
0001
0000
0010
0000
0000
0100
1000
0000
1000
0000
,
0001
0000
0000
0010
0001
0000
1000
0000
0001
0100
0000
0000
0010
0000
0010
0000
,
1000
0000
0000
0010
1000
0000
0001
0000
0100
0000
0100
0000
0010
0000
0220
0000
,
0000
0330
1001
0100
0001
0010
0001
1000
,
0010
0100
0010
0100
0010
0000
1000
0000
0100
0000
0001
0000
0100
0000
1000
0000
,
0001
0010
0001
0000
0100
0000
0001
1000
0001
0000
0100
0000
0001
0000
0010
0000
,
0100
0010
0100
0010
0100
0010
0100
0010
0200
0000
0000
0000
0000
0000
0000
0000
,
1300
1000
0100
0000
1000
1000
0010
0000
,
1000
1000
0100
0010
0001
0000
0100
0010
,
0110
0000
1001
0000
0001
0001
0010
0000
,
2002
0000
3003
0000
,
1100
0000
1000
0010
0101
0000
0001
0010
,
1100
0000
1000
0010
0101
0000
0001
0010
,
0110
1100
0011
0110
,
2002
0000
0000
3003
,
0110
0000
0110
0000
0110
1000
0010
0000
,
0100
0001
0000
0001
0000
0010
0000
0000
0100
1000
0000
1000
0000
0010
0000
0000
,
0110
0000
0101
0000
1010
0001
1000
0000
,
0001
0010
0000
0100
0000
0010
0100
1000
0100
0000
1000
0000
0010
0000
0100
0000
,
0010
1000
0000
0001
0000
0010
0001
0010
0001
0000
1000
0000
0010
0000
0010
0000
,
0100
0001
0000
0010
0000
0100
0010
0000
0100
1000
0000
0010
0000
0100
0010
0000
,
1000
0001
1000
0000
0001
1000
0001
0000
0010
0000
0000
0000
0110
0000
0000
0000
,
0100
1000
0100
1000
0001
0000
0010
0000
0001
0100
0000
0100
0000
0010
1000
0000
,
0001
0010
0000
0100
0000
0010
0001
0000
1000
0000
0000
0000
0010
0000
0100
0000
,
0110
0000
0000
0101
0000
0000
0011
0000
0010
0000
0100
1000
0001
0000
0010
0000
,
0001
0100
0001
0100
0010
0000
1000
0000
2002
0000
0000
0000
3003
0000
0000
0000
,
0110
0000
0000
0000
;

//--------------- dance-double - forcednature ----------------
#NOTEDATA:;
#STEPSTYPE:dance-double;
#DESCRIPTION:forcednature;
#DIFFICULTY:Easy;
#METER:7;
#RADARVALUES:0,0,0,0,0;
#CREDIT:forcednature;
#NOTES:
00000000
00000000
00000000
00000000
,
00000000
00000000
00000000
00000000
,
00000000
00000000
00000000
00000000
,
00000000
00000000
00000000
00000000
,
00000000
00000000
00000000
00000000
,
00001000
00000000
00000000
00001000
00000000
00000000
00010000
00000000
,
00001000
00000000
00000000
00001000
00000000
00000000
00010000
00000000
,
00002000
00003000
00020000
00030000
,
00011000
00000000
00000000
00000000
00000200
00000000
00000000
00000300
,
00002000
00000000
00000000
00003000
00000020
00000000
00000000
00000030
,
00000200
00000000
00000000
00000300
00000001
00000000
00000000
00000000
,
00001001
00000000
00000100
00000000
,
00000110
00000000
00001000
00000000
,
00011000
00000000
00100000
00100000
,
00020000
00030000
01000000
00010000
,
01000000
00010000
10000000
00100000
,
01000000
00010000
00100000
00100000
,
00001000
00010000
00022000
00033000
,
00000100
00001000
00001100
00000000
,
00000011
00000000
00000101
00000000
,
00001010
00000000
00010000
00001000
,
00010000
00001000
00022000
00000000
,
00000000
00033000
00011000
00011000
,
00022000
00033000
00100000
00010000
,
01000000
00010000
10000000
01000000
,
00100000
00000000
00010000
01000000
,
00001000
00010000
00011000
00000100
,
00022000
00033000
00000010
00001000
,
00000010
00000100
00000001
00000100
,
00000010
00001000
00001001
00000000
,
00000110
00000000
00022000
00033000
,
00022000
00033000
00010000
00100000
,
10000000
00100000
00010000
00001000
,
00010000
01000000
10000000
01000000
,
00010000
00001000
00011000
00000100
,
00000220
00000330
00000001
00000100
,
00002000
00003000
00010000
01000000
,
20000000
30000000
10010000
00000000
,
00010000
00000000
00100000
00000000
00001000
00010000
00001000
00000000
,
00020000
00030000
00022000
00033000
,
00000100
00001000
00000010
00001000
,
00000100
00000001
00000100
00001000
,
00000010
00000100
00001000
00010000
,
00100000
01000000
00010000
01000000
,
00000000
10010000
00010000
00100000
,
01000000
00100000
00001000
00010000
,
00000100
00010000
00000010
00001000
,
00000010
00000100
00000010
00000000
00000200
00000000
00000000
00000000
,
00000301
00000000
00000001
00000000
,
00001000
00000000
00000000
00000000
,
00000100
00000000
00010000
00000000
,
00022000
00000000
00033000
00000000
,
00011000
00000000
01000000
00000000
,
00011000
00000000
00000100
00000000
,
00010000
00010000
00001000
00010000
,
00022000
00000000
00000000
00033000
,
00011000
00011000
00011000
00011000
,
00200000
00300000
00020000
00030000
,
01000000
00100000
20020000
30030000
,
10000000
00100000
01000000
00100000
,
10000000
00010000
01000000
00001000
,
00010000
00010000
00001000
00010000
,
00000100
00001000
00002002
00003003
,
00000001
00001000
00000001
00000000
00000010
00000000
00000100
00000000
,
00001000
00000100
00010000
00001000
,
00011000
00000000
00011000
00000000
,
00010000
00001000
00010000
00000000
00002000
00000000
00003000
00000000
,
00011000
00000000
00000000
00000000
;

//--------------- dance-double - forcednature ----------------
#NOTEDATA:;
#STEPSTYPE:dance-double;
#DESCRIPTION:forcednature;
#DIFFICULTY:Medium;
#METER:9;
#RADARVALUES:0,0,0,0,0;
#CREDIT:forcednature;
#NOTES:
00000000
00000000
00000000
00000000
,
00000000
00000000
00000000
00000000
,
00000000
00000000
00000000
00000000
,
00000000
00000000
00000000
00000000
,
00000000
00000000
00000000
00000000
,
00011000
00000000
00000000
00101000
00000000
00000000
00100000
00000000
,
00011000
00000000
00000000
00010010
00000000
00000000
00000010
00000000
,
00001000
00001100
00010000
00011000
,
00200000
00300000
00020000
00000000
,
02030000
00000000
03002000
00000000
,
00023000
00000000
00000000
00000000
00000000
00000000
00030000
00000000
00000100
00000000
00000000
00000100
00000000
00000000
00010000
00000000
,
00002000
00000000
00000000
00000000
00003000
00000000
00000000
00000000
01000000
00000000
00000000
01000000
00000000
00000000
00001000
00000000
,
00020000
00000000
00000000
00000000
00030000
00000000
00000000
00000000
00000010
00000000
00000000
00000010
00000000
00000000
00010000
00000000
,
00002000
00000000
00000000
00000000
00003000
00000000
00000000
00000000
00100000
00000000
00000000
00100000
00000000
00000000
00001000
00000000
,
00020000
00030000
00011000
00000100
,
00001000
00000010
00010000
00001000
,
01000000
00000000
00010000
00000000
10000000
00010000
10000000
00000000
,
00010000
10000000
00010000
00000000
00100000
00000000
01000000
00100000
,
02000000
03000000
01100000
00000000
,
00101000
00000000
00011000
00000000
,
00010010
00000000
00000110
00001000
,
00001001
00000010
00000220
00000000
,
00000000
00000330
00001001
00001001
,
00002002
00000000
00003003
00000000
00000001
00000100
00000010
00000000
,
00001000
00000000
00000100
00000000
00010000
00001000
00010000
00000000
,
00001000
00100000
00010000
10010000
,
01000000
00000000
01100000
00000000
10000000
00010000
10000000
00010000
,
02000000
00000000
03000000
00000000
00010000
00100000
01000000
00000000
,
00100000
00000000
00001000
00000000
00010000
00000100
00010000
00000000
,
00000010
00000000
00001000
00000000
00000001
00000010
00000100
00000000
,
00000010
00000001
00001000
00000000
00002002
00000000
00003003
00000000
,
00000001
00000000
00001000
00000000
00000001
00000000
00001000
00000000
00000000
00000000
00000000
00000000
00001100
00000000
00000000
00000000
00000000
00000000
00000100
00000000
00000000
00010000
00000000
00000000
,
00001000
00000000
00100000
00000000
00011000
00000000
00001000
00010000
,
00001000
00000000
01000000
00000000
00010000
00100000
01000000
00000000
,
10000000
00100000
01000000
00000000
00010000
00000000
10000000
00010000
,
20000000
00000000
00000000
00000000
30000000
00000000
00000000
00000000
01000000
00000000
00000000
01000000
00000000
00000000
00010000
00000000
,
00002000
00000000
00000000
00000000
00003000
00000000
00000000
00000000
00000100
00000000
00000000
00000100
00000000
00000000
00001000
00000000
,
00020000
00000000
00000000
00000000
00030000
00000000
00000000
00000000
00100000
00000000
00000000
00100000
00000000
00000000
00010000
00000000
,
00001000
00000000
00011000
00000000
00010000
00001000
00010000
00001000
,
00020000
00030000
00022000
00033000
,
00010100
00000100
00010100
00000100
,
00011000
00100000
00011000
00100000
,
01010000
00010000
01010000
00010000
,
10100000
01000000
10100000
01000000
,
00000000
10010000
00010000
00100000
,
00011000
00011000
00011000
00011000
,
00000100
00001000
00000100
00000000
00010000
00001000
00010000
00000000
,
00000010
00001000
00000010
00001000
00000002
00000000
00000000
00000000
,
00000103
00001000
00000000
00001000
,
00010000
00001000
00000000
00001000
,
00010000
00100000
00000000
00100000
,
20020000
00000000
30030000
00000000
,
00110000
00000000
00011000
00000000
,
00001010
00000000
00011000
00000000
,
01010000
10010000
11000000
10010000
,
02200000
00000000
00000000
03300000
,
10010000
10010000
10010000
10010000
,
02020000
03030000
00022000
00033000
,
00001010
00001010
00002200
00003300
,
00000100
00000010
00000001
00000000
00000100
00000000
00000010
00000000
,
00000001
00000010
00001000
00000000
00000100
00000000
00010000
00000000
,
00001000
00010000
00000010
00000000
00010000
00001000
00100000
00000000
,
00010000
10000000
00010000
10000000
02000000
00000000
03000000
00000000
,
00100000
00100000
00100000
00000000
00001000
00000000
00010000
00000000
,
00011000
00000000
00000100
00000000
00001000
00000000
00000010
00000100
,
00000010
00000000
00000000
00000010
00000000
00000000
00001000
00000000
00000001
00000000
00000000
00000000
00001001
00000000
00000000
00000000
,
00001000
00000100
00001000
00000100
00020000
00000000
00030000
00000000
,
00011000
00000000
00000000
00000000
;

//--------------- dance-double - forcednature ----------------
#NOTEDATA:;
#STEPSTYPE:dance-double;
#DESCRIPTION:forcednature;
#DIFFICULTY:Hard;
#METER:14;
#RADARVALUES:0,0,0,0,0;
#CREDIT:forcednature;
#NOTES:
00000000
00000000
00000000
00000000
,
00000000
00000000
00000000
00000000
,
00000000
00000000
00000000
00000000
,
00000000
00000000
00000000
00000000
,
00000000
00000000
00000000
00000000
,
00011000
00000000
00100000
00110000
00000000
00010000
01010000
00000000
,
00011000
00000000
00000010
00001010
00000000
00001000
00001100
00000000
,
00010000
00001000
00100000
00001000
00000000
00000000
00010000
00001000
01000000
00001000
00000000
00000000
,
02200000
03300000
00020000
00000000
,
00230000
00000000
00302000
00000000
,
00023000
00000000
00000000
00000000
00030200
00000000
00000310
00000000
00000100
00001000
00000000
00000100
00000000
00010000
00001000
00000000
,
00202000
00000000
00000000
00000000
00303000
00000000
00000000
00000000
01000000
00010000
00000000
01000000
00000000
00001000
00010000
00000000
,
00020020
00000000
00000000
00000000
00030030
00000000
00000000
00000000
00000100
00001000
00000000
00000100
00000000
00010000
00001000
00000000
,
00202000
00000000
00000000
00000000
00303000
00000000
00000000
00000000
01000000
00001000
00000000
00010000
00000000
00000010
00010000
00000000
,
00022000
00000000
00000000
00000000
00033000
00000000
00000000
00000000
00011000
00000000
00000000
00000010
00001000
00000000
00000000
00000000
,
00000100
00000000
00000000
00001000
00000010
00000000
00000000
00000000
00010000
00000000
00000000
00001000
00100000
00000000
00010000
00000000
,
00100000
00000000
01000000
10000000
00100000
01000000
10000000
01000000
,
00010000
00000000
01000000
00000000
00100000
00000000
01000000
00000000
00001000
00000000
00000000
00001000
00010000
00000000
00001000
00000000
,
00200000
00000000
00000000
00000000
00300000
00000000
00000000
00000000
00001000
00010000
00000000
00010000
00000100
00000000
00000000
00000000
,
00010000
00001000
00000000
00001000
01000000
00000000
00000000
00000000
00001000
00010000
00000000
00010000
00000010
00000000
00000000
00000000
,
00010000
00001000
00000000
00001000
00100000
00000000
00000000
00000000
00110000
00000000
00000000
00000000
01001000
00000000
00000000
00000000
,
00010100
00001010
00022000
00000000
,
00000000
00033000
00011000
00011000
,
00011000
00000000
00100000
00000000
00010000
00000000
00000000
00000000
01000000
00010000
00000000
01000000
00000000
00100000
10000000
00000000
,
01000000
10000000
00000000
01000000
00000000
00100000
00010000
00000000
00100000
00001000
00000000
00001000
00000000
00010000
00000100
00000000
,
00000100
00000000
00001000
00000010
00000110
00000000
00000101
00000000
,
00000001
00000010
00000000
00000100
00000000
00001000
00000100
00000000
00010000
00001000
00010000
00001000
00010000
00000000
00000010
00000000
,
00002020
00000000
00000000
00000000
00003030
00000000
00000000
00000000
00010000
00001000
00000000
01000000
00000000
00010000
01000000
00000000
,
00100000
10000000
00000000
01000000
00000000
10000000
01000000
00000000
00100000
01000000
00000000
01000000
00000000
00100000
00010000
00000000
,
00010000
00000000
01000000
00001000
00011000
00000000
00010010
00000000
,
00000010
00001000
00000000
00001010
00000000
00000010
00000100
00000000
00000001
00000100
00000001
00000100
00000001
00000000
00000000
00000000
,
00001000
00000000
00000000
00000000
00001000
00000000
00000000
00000000
00000001
00000000
00000000
00000000
00002000
00000000
00000000
00000000
00000000
00000000
00000000
00000000
00000000
00000000
00000000
00000000
00003100
00000000
00000000
00000010
00000000
00000000
00000000
00000000
00000000
00000100
00000000
00000000
00000000
00000000
00000000
00010000
00000000
00000000
00001000
00000000
00000000
00010000
00000000
00000000
,
00001000
00000000
00001000
00000000
00100000
00000000
00010000
00000000
01000000
00100000
00000000
01000000
00000000
00001000
00010000
00001000
,
00010000
00000000
00010000
00000000
00000010
00000000
00000000
00000000
00001000
00000100
00000000
00000001
00000000
00000100
00001000
00000000
,
00000100
00010000
00000000
00001000
00000000
00100000
00010000
00000000
10000000
00010000
10000000
00010000
10000000
00000000
00100000
00000000
,
01100000
00000000
00000000
00000000
10010000
00000000
00000000
00000000
10000000
01000000
00000000
00010000
00000000
00010000
00001000
00000000
,
00000020
00000000
00000000
00000000
00000030
00000000
00000000
00000000
00000001
00000100
00000000
00000100
00000000
00001000
00010000
00000000
,
00200000
00000000
00000000
00000000
01300000
00000000
00100000
00000000
01100000
00000000
00000000
10010000
00000000
00000000
00010000
00000000
,
00100000
00010000
00000000
01000000
00000000
00010000
01000000
00000000
00001000
00010000
00001000
00010000
00001000
00000000
00100000
00000000
,
00220000
00330000
00022000
00033000
,
00001000
00000010
00000001
00000010
00001000
00000010
00000001
00000010
,
00000100
00000010
00000100
00000010
00000100
00000000
00010000
00000000
00001000
00000000
00000000
00001000
00100000
00000000
00100000
00000000
,
00010000
00000000
00000000
01000000
00010000
00000000
10000000
00000000
00010000
01000000
00000000
00000000
00001000
00000000
00001000
00000000
,
00010000
00000000
00000000
00000100
00010000
00000000
00001000
00000000
00000010
00000000
00000010
00000000
00000100
00000000
00000220
00000000
,
00000000
00000330
00001001
00000100
00001000
00000010
00001000
00000100
,
00010000
00001000
00010000
00001000
00010000
00000000
00001000
00000000
00100000
00000000
00010000
00000000
01000000
00000000
00010000
00000000
,
10000000
00100000
10000000
00000000
10000000
00000000
10000000
01000000
10000000
00000000
01000000
00000000
00100000
00000000
00001000
00000000
,
00010000
00001000
00010000
00001000
00010000
00001000
00010000
00001000
00020000
00000000
00000000
00000000
00000000
00000000
00000000
00000000
,
00031000
00000010
00000100
00000000
00001000
00000010
00000100
00000000
,
00001000
00000100
00000001
00000010
00000001
00000000
00000100
00001000
,
00010000
00000000
00011000
00000000
00001000
00010000
00100000
00000000
,
20020000
00000000
30030000
00000000
,
01002000
00103000
00020100
00030010
,
01002000
00103000
00020100
00030010
,
00001010
00010100
01001000
00110000
,
00022000
00000000
00000000
00033000
,
00011000
00000000
00011000
00000000
00011000
00000100
00001000
00000000
,
00000001
00000100
00000000
00000100
00000000
00000010
00001000
00000000
00010000
01000000
00000000
01000000
00000000
00100000
10000000
00000000
,
01000000
00000000
10010000
00000000
01100000
00010000
00100000
00000000
,
01000000
10000000
00000000
01000000
00000000
00100000
00010000
00100000
00010000
00000000
00100000
00000000
00001000
00000000
00010000
00000000
,
00000010
00001000
00000000
00000010
00000000
00000100
00000001
00000100
00000001
00000000
00000010
00000000
00000100
00000000
00000100
00000000
,
00000010
00000001
00000000
00000100
00000000
00000100
00000001
00000000
00001000
00000010
00000000
00000100
00000000
00000100
00001000
00000000
,
00010000
00001000
00010000
00000000
00001000
00010000
00001000
00000000
00100000
00000000
00000000
00000000
00011000
00000000
00000000
00000000
,
01000000
00010000
01000000
00010000
10000000
00000000
00000000
00000000
00100000
01000000
00000000
01000000
00000000
00010000
01000000
00000000
,
00001000
00010000
00000000
00000010
00000000
00010000
00001000
00000000
00001000
00000000
00000000
00000000
00000010
00000000
00000100
00000000
,
00000110
00000000
00000000
00000110
00000000
00000000
00000011
00000000
00000001
00000000
00000100
00000010
00001000
00000000
00000100
00000000
,
00010000
00001000
00010000
00001000
00010000
00000000
00001000
00000000
00022000
00000000
00000000
00000000
00033000
00000000
00000000
00000000
,
00011000
00000000
00000000
00000000
;
