#VERSION:0.83;
#TITLE:グッバイ宣言;
#SUBTITLE:;
#ARTIST:Chinozo;
#TITLETRANSLIT:Goodbye sengen;
#SUBTITLETRANSLIT:;
#ARTISTTRANSLIT:;
#GENRE:;
#CREDIT:video/audio extraordiberry;
#MUSIC:Goodbye sengen.ogg;
#BANNER:Goodbye sengen.png;
#BACKGROUND:Goodbye sengen-bg.png;
#CDTITLE:;
#SAMPLESTART:36.331;
#SAMPLELENGTH:15.000;
#SELECTABLE:YES;
#OFFSET:-0.000;
#BPMS:0.000=170.000;
#STOPS:196.000=0.706
,256.500=0.706
;
#TIMESIGNATURES:0.000=4=4,
196.000=2=4,
198.000=4=4,
254.000=6=4,
260.000=4=4
;
#BGCHANGES:0.000=Goodbye sengen.mp4=1.000=0=0=0=StretchNoLoop====,
99999.000=-nosongbg-=1.000=0=0=0=StretchNoLoop====
;
#FGCHANGES:;

//--------------- dance-single - forcednature ----------------
#NOTEDATA:;
#STEPSTYPE:dance-single;
#DESCRIPTION:forcednature;
#CREDIT:forcednature;
#DIFFICULTY:Beginner;
#METER:1;
#RADARVALUES:0,0,0,0,0;
#NOTES:
0000
0000
0000
0000
,
0000
0000
0000
0000
,
0000
0000
0000
0000
,
0000
0000
0000
0000
,
0000
0000
0000
0000
,
0000
0000
0000
0000
,
0001
0000
0000
0000
,
0000
0000
0000
0000
,
0000
0000
0000
0000
,
0000
0000
0000
0000
,
1000
0000
0000
0000
,
0000
0000
0000
0000
,
0000
0000
0000
0000
,
0000
0000
0000
0000
,
0100
0000
0000
0000
,
0000
0000
0000
0000
,
0000
0000
0000
0000
,
0000
0000
0000
0000
,
0010
0000
0000
0000
,
0000
0000
0000
0000
,
0000
0000
0000
0000
,
0000
0000
0000
0000
,
0001
0000
0000
0000
,
0000
0000
0000
0000
,
0000
0000
0000
0000
,
0000
0000
0000
0000
,
0100
0000
0000
0000
,
0000
0000
0000
0000
,
0000
0000
0000
0000
,
0000
0000
0000
0000
,
0010
0000
0000
0000
,
0000
0000
0000
0000
,
0000
0000
0000
0000
,
0000
0000
0000
0000
,
1000
0000
0000
0000
,
0000
0000
0000
0000
,
0000
0000
0000
0000
,
0000
0000
0000
0000
,
0010
0000
0000
0000
,
0000
0000
0000
0000
,
0000
0000
0000
0000
,
0000
0000
0000
0000
,
0100
0000
0000
0000
,
0000
0000
0000
0000
,
0000
0000
0000
0000
,
0000
0000
0000
0000
,
0001
0000
0000
0000
,
0000
0000
0000
0000
,
0000
0000
0000
0000
,
1000
0000
0000
0000
,
0000
0000
0000
0000
,
0000
0000
0000
0000
,
0000
0000
0000
0000
,
0000
0000
0001
0000
,
0000
0000
0000
0000
,
0000
0000
0000
0000
,
0000
0000
0000
0000
,
0000
0000
0010
0000
,
0000
0000
0000
0000
,
0000
0000
0000
0000
,
0000
0000
0000
0000
,
0000
0000
0100
0000
,
0000
0000
0000
0000
,
0000
0000
0000
0000
,
0000
0000
0000
0000
,
1000
0000
0000
0000
,
0000
0000
0000
0000
,
0000
0000
0000
0000
,
0000
0000
0000
0000
,
0010
0000
0000
0000
,
0000
0000
0000
0000
,
0000
0000
0000
0000
,
0000
0000
0000
0000
,
0100
0000
0000
0000
,
0000
0000
0000
0000
,
0000
0000
0000
0000
,
0000
0000
0000
0000
,
0001
0000
0000
0000
,
0000
0000
0000
0000
,
0000
0000
0000
0000
,
0000
0000
0000
0000
,
0010
0000
0000
0000
,
0000
0000
0000
0000
,
0000
0000
0000
0000
,
0000
0000
0000
0000
,
0001
0000
0000
0000
,
0000
0000
0000
0000
,
0000
0000
0000
0000
,
1000
0000
0000
0000
;

//--------------- dance-single - forcednature ----------------
#NOTEDATA:;
#STEPSTYPE:dance-single;
#DESCRIPTION:forcednature;
#CREDIT:forcednature;
#DIFFICULTY:Easy;
#METER:4;
#RADARVALUES:0,0,0,0,0;
#NOTES:
0000
0000
0000
0000
,
0000
0000
0000
0000
,
0000
0000
0000
0000
,
0000
0000
0000
0000
,
0000
0000
0000
0000
,
0000
0000
0000
0000
,
1000
0000
0000
0000
,
0001
0000
0100
0000
,
0010
0000
0000
0000
,
1000
0002
0003
0000
,
0010
0000
0000
0010
,
0000
0000
0001
0000
,
0100
0000
0000
0010
,
0000
0000
1000
0000
,
0100
0000
0100
0000
,
1000
0000
0001
0000
,
0010
0000
0001
0000
,
0100
0000
0000
0000
,
0010
0000
0000
0010
0000
0000
0010
0000
,
0000
0000
0000
0000
,
1000
0000
0000
1000
0000
0000
1000
0000
,
0000
0000
0000
0000
,
0001
0000
0100
0000
,
0002
0000
0003
0000
,
0110
0000
1000
0000
,
1001
0000
0000
0000
,
0110
0000
0001
0000
,
0001
0000
0000
0000
,
0010
0000
0100
0000
,
1000
0000
0000
0000
,
0010
0000
1000
0000
,
1000
0000
0000
0000
,
0100
0000
0010
0000
,
0001
1000
0001
0000
,
0100
0000
0100
0000
,
0010
0000
0000
0000
,
1000
0000
0001
0000
,
0010
0000
0000
0000
,
0100
0000
0100
0000
,
1000
0000
0000
0000
,
0001
0000
0100
0000
,
0001
1000
0001
0000
,
2000
0000
0000
3000
,
0000
0000
0100
0000
,
0020
0000
0000
0030
,
0000
0000
0001
0000
,
0200
0000
0000
0300
,
0000
0000
0010
0000
,
1000
0000
0001
1000
,
0001
0000
0010
0000
,
0000
0000
0001
0000
,
0001
0000
0100
0000
,
0000
0000
0010
0000
,
0000
0000
1000
0000
,
0000
0000
0001
0000
,
0001
0000
0010
0000
,
0000
0000
0200
0000
,
0300
0000
1000
0000
,
0000
0000
0010
0000
,
0000
0000
1000
0000
,
0000
0000
0001
0000
,
0000
0000
0100
0000
,
0100
0000
0020
0000
,
0000
0030
0000
0000
0000
0000
0000
0000
,
0000
0000
0000
0000
,
1000
0000
1000
0000
,
0001
0000
0000
0000
,
0010
0000
0001
0000
,
0100
0000
0000
0000
,
0010
0000
0010
0000
,
1000
0000
0000
0000
,
0001
0000
0010
0000
,
0001
1000
0001
0000
,
1000
0000
1000
0000
,
0100
0000
0000
0000
,
1000
0000
1000
0000
,
0010
0000
0000
0000
,
0100
0000
0100
0000
,
0001
0000
0000
0000
,
0010
0000
0001
0000
,
1000
0001
1000
0000
,
0020
0000
0000
0030
,
0000
0000
0100
0000
,
0002
0000
0000
0003
,
0000
0000
1000
0000
,
0100
0000
0100
0000
,
1000
0000
0010
0000
,
0110
0000
1001
0000
,
0010
0000
0000
0000
;

//--------------- dance-single - forcednature ----------------
#NOTEDATA:;
#STEPSTYPE:dance-single;
#DESCRIPTION:forcednature;
#CREDIT:forcednature;
#DIFFICULTY:Medium;
#METER:9;
#RADARVALUES:0,0,0,0,0;
#NOTES:
0000
0000
0000
0000
,
0000
0000
0000
0000
,
0000
0000
0000
0000
,
0000
0000
0000
0000
,
0000
0000
0000
0000
,
0000
0000
0000
0000
,
0001
1000
0000
0001
,
1000
0000
0010
0100
,
0001
1000
0100
1000
,
0001
0020
0030
0000
,
0110
0000
0000
1000
0000
0000
0001
0000
,
0000
1000
0000
0000
0010
0000
0100
0000
,
0010
0000
0000
1000
0000
0000
0001
0000
,
0000
0010
0100
0000
,
1000
0001
1000
0001
,
0200
0300
0010
1000
,
0001
0010
0100
1000
,
0010
0100
0110
0000
,
1001
0000
0000
0101
0000
0000
2020
0000
,
3030
0001
0100
0000
,
1001
0000
0000
1100
0000
0000
0022
0000
,
0033
0001
1000
0010
,
0100
0100
0001
0001
,
2000
0000
0000
0000
3010
0000
0000
0110
,
0000
0000
0001
0000
1000
0000
1000
0001
,
0000
0001
0000
1000
0001
0000
0000
0000
,
0110
0000
1000
0000
0001
0000
0100
0010
,
0000
0010
0100
0000
0001
0000
1000
0000
,
0200
0000
0300
0010
0002
0000
0003
1000
,
0100
1000
2002
3003
,
1000
0000
0001
0000
1000
0000
0100
0010
,
0000
0010
0100
0000
1000
0000
0001
0000
,
0200
0000
0300
0010
2000
0000
3002
0000
,
0013
0100
0010
0100
1000
0000
0000
0000
,
1000
0000
0100
0000
0010
0000
0001
1000
,
0000
1000
0001
0000
0100
0000
0010
0000
,
2000
0000
3000
0100
0020
0000
0030
0001
,
0100
0010
0220
0330
,
0001
0000
0100
0000
0010
0000
1000
0001
,
0000
0001
1000
0000
0100
0000
0010
0000
,
0002
0000
0003
1000
0020
0000
0230
0000
,
0301
1000
0001
1000
0200
0000
0300
0000
,
0020
0000
0000
0032
0000
0000
0023
0000
,
0030
0100
1000
0001
,
0200
0000
0000
0320
0000
0000
0230
0000
,
0300
0001
1000
0100
,
2000
0000
0000
3020
0000
0000
2030
0000
,
3000
0001
0010
0100
,
0110
0001
1001
0110
,
1000
0000
0001
0010
,
0000
0100
0010
0001
,
1000
0010
0100
0001
,
0000
1000
0100
0001
,
0100
1000
0001
0010
,
0000
0001
1000
0010
,
0100
0001
1000
0100
,
0000
1000
0010
0100
,
0110
0000
0001
1000
,
0100
0000
1000
0000
0001
0010
0001
0010
,
0000
0001
0000
1000
0000
0000
0010
0000
,
0100
0001
0100
0001
0000
0000
1000
0000
,
0010
0000
1000
0002
0000
0003
0010
0200
,
0000
0300
1000
0001
0000
0001
0000
1000
,
0010
0000
0000
0200
0000
0000
0000
0000
,
0000
0300
0000
0000
0000
0000
0000
0000
,
0110
0000
0001
0000
1000
0000
0100
0010
,
0000
0010
0100
0000
1000
0000
0001
0000
,
0200
0000
0300
0010
2000
0000
3000
0001
,
0100
0001
2002
3003
,
0001
0000
1000
0000
0001
0000
0100
0010
,
0000
0010
0100
0000
0001
0000
1000
0000
,
0200
0000
0300
0010
0002
0000
2003
0000
,
3010
0100
0010
0100
0001
0000
0000
0000
,
0001
0000
0100
0000
0010
0000
1000
0001
,
0000
0001
1000
0000
0100
1000
0100
1000
,
0002
0000
0203
0000
0320
0000
0030
1000
,
0001
1000
0001
0020
0000
0030
0000
0000
,
1000
0000
0100
0000
0010
0000
0001
1000
,
0000
1000
0001
0000
0100
0000
0010
0000
,
2000
0000
3000
0001
0020
0000
0230
0000
,
1300
0001
1000
0001
0200
0000
0300
0000
,
0020
0000
0000
2030
0000
0000
3020
0000
,
0030
0100
0001
1000
,
0200
0000
0000
0320
0000
0000
0230
0000
,
0300
1000
0001
1000
0001
0000
0010
0000
,
0011
1000
0010
0100
,
0001
0000
1000
0001
1000
0000
0010
0000
,
0110
0001
1001
0100
,
2000
3000
0000
0000
0000
0000
0000
0000
0000
0000
0000
0000
0000
0000
0000
0000
;

//--------------- dance-single - forcednature ----------------
#NOTEDATA:;
#STEPSTYPE:dance-single;
#DESCRIPTION:forcednature;
#CREDIT:forcednature;
#DIFFICULTY:Hard;
#METER:14;
#RADARVALUES:0,0,0,0,0;
#NOTES:
0000
0000
0000
0000
,
0000
0000
0000
0000
,
0000
0000
0000
0000
,
0000
0000
0000
0000
,
0000
0000
0000
0000
,
0000
0000
0000
0000
,
0001
0100
0010
1000
0000
1000
0001
0010
,
0100
1000
0000
1000
0001
0100
1000
0100
,
0001
0010
0100
1000
0100
0010
0001
1000
,
0010
0100
0002
0000
0003
0000
1000
0001
,
1000
0000
0000
0200
0000
0300
1000
0000
,
0000
0020
0000
0030
0100
0001
0100
0010
,
1000
0000
0000
0002
0000
0013
0200
0000
,
0300
0010
0001
0100
0010
1000
0000
0100
,
1000
0000
0000
1000
0000
0000
0010
0000
0100
0000
0000
0100
0000
0000
0001
0000
,
0020
0000
0030
0000
0100
1000
0001
0010
,
0200
2300
3002
0203
,
0310
1000
0001
0100
0010
0000
1001
0000
,
2000
0000
3100
0002
0000
0103
0020
0000
,
0030
0001
1000
0010
1000
0001
0010
0100
,
2000
0000
3010
0002
0000
0013
0200
0000
,
0300
0001
1000
0100
1000
0010
0010
0000
,
0100
0000
0000
0100
0000
0000
0001
0000
0010
0000
0000
0010
0000
0000
0100
0000
,
2000
0000
0001
0000
3010
0100
0000
0110
,
0000
0001
1000
0010
1000
0100
1000
0010
,
0000
0110
0000
0100
0001
0010
0010
0000
,
0001
0000
1000
0001
1000
0000
0100
0000
0020
0000
0000
0000
0130
0000
0002
0000
,
0000
0103
1000
0010
0100
0001
0010
0100
,
2000
0000
3010
0100
0002
0000
0013
0100
,
1000
0000
0000
1000
0010
0000
0000
0010
0100
0000
0001
0000
0001
0000
0000
0000
,
1000
0000
0001
1000
0001
0000
0100
0000
0020
0000
0000
0000
0130
0000
2000
0000
,
0000
3100
0001
0010
0100
1000
0010
0100
,
0002
0000
0013
0100
2000
0000
3002
0000
,
0103
0000
1000
0000
0100
0000
0001
0000
1000
0000
0010
0000
0010
0000
0100
0001
,
1000
0000
0001
1000
0001
0000
0010
0000
0200
0000
0000
0000
0310
0000
2000
0000
,
0000
3010
0001
0100
0010
1000
0100
1000
,
0002
0000
0103
0010
2000
0000
3100
0010
,
0001
0000
0000
0001
0100
0000
0000
0100
0010
0000
1000
0000
1000
0000
0000
0000
,
0001
0000
1000
0001
1000
0000
0010
0000
0200
0000
0000
0000
0310
0000
0002
0000
,
0000
0013
1000
0100
0010
0001
0100
0001
,
2000
0000
3100
0010
0002
0000
0203
0000
,
0310
0000
1000
0000
0010
0000
0001
0000
0010
1000
0010
0000
1000
0000
0001
0000
,
0200
0000
0310
2000
0000
3001
0200
0000
,
0300
0010
1000
0100
0001
0100
1000
0001
,
0020
0000
0130
2000
0000
3001
0010
0100
,
0000
0010
0001
0100
1000
0100
0100
0001
,
2000
0000
3010
0200
0000
0301
2000
0000
,
3000
0100
0010
0100
1000
0010
0100
0001
,
0010
0001
0101
1100
,
1001
0000
0000
0000
1000
0100
0001
0100
,
0000
0100
1000
0010
0001
0010
0000
1000
,
0001
0100
0010
1000
0001
0010
1000
0010
,
0001
0100
1000
0100
0001
1000
0010
0100
,
0001
0000
0010
0000
0001
0000
1000
0001
1000
0000
0100
0000
0010
0000
1000
0000
,
0000
1000
0001
0100
0010
0001
0000
0001
,
1000
0010
0001
0010
1000
0100
0010
1000
,
0001
0000
0100
0000
1000
0000
0001
0000
0020
0000
0000
0000
0031
0000
1000
0001
,
1000
0010
0100
0001
0010
0000
0110
0000
,
1000
0000
1100
0000
0001
0010
1000
0010
,
0000
0001
1000
0100
0000
1000
0010
0100
,
0001
0010
1000
0002
0000
0103
1000
0001
,
0010
0000
0100
2001
0000
3010
0100
2000
,
0000
3100
0001
0101
0000
1010
0000
1001
,
1001
0000
0000
0220
0000
0000
0000
0000
,
0000
0330
0000
0000
0000
0001
1000
0001
,
1000
0000
0100
0010
0100
0000
1000
0000
0002
0000
0000
0000
0103
0000
2000
0000
,
0000
3100
0001
1000
0001
0010
1000
0010
,
0002
0000
0103
0010
2000
0000
3100
0010
,
0001
0000
0000
1000
0010
0000
0000
0100
0001
0000
1000
0000
1001
0000
0000
0000
,
0001
0000
0100
0010
0100
0000
0001
0000
2000
0000
0000
0000
3100
0000
0002
0000
,
0000
0103
1000
0001
1000
0010
0001
0010
,
2000
0000
3100
0010
0002
0000
2003
0000
,
3010
0000
0001
0000
0010
0000
1000
0000
0001
0000
0100
0010
0100
0000
0010
1000
,
0001
0000
0010
0100
0010
0000
0001
0000
2000
0000
0000
0000
3010
0000
0002
0000
,
0000
0013
0200
0000
0301
1000
0100
0001
,
0100
0000
0000
0100
1000
0000
0000
1000
0020
0000
0000
0000
0130
0000
0001
0000
,
1000
0000
0010
0000
0001
0000
0010
0000
1000
0000
0001
0100
0001
0000
1000
0000
,
0010
0000
0100
0010
0100
0000
0001
0000
2000
0000
0000
0000
3100
0000
0002
0000
,
0000
0103
0020
0000
0031
1000
0010
0100
,
0001
0000
0000
0001
0010
0000
0100
0000
1000
0000
0000
1000
0010
0000
0000
0000
,
0100
0000
1000
0000
0100
0000
0001
0000
1000
0010
1000
0000
0001
0000
0010
0000
,
0200
0000
1300
0002
0000
0013
0200
0000
,
0300
1000
0010
0001
0010
1000
0001
0100
,
0002
0000
0013
0200
0000
1300
0001
0100
,
0000
0000
0010
0000
1000
0000
0100
0000
0001
0000
0100
1000
0100
0000
1000
0001
,
0010
0000
0100
1000
0010
1000
0002
0000
,
0103
0000
0000
0100
0010
0000
1000
0000
0001
0000
0010
0001
0010
0000
0100
0000
,
1000
0010
0101
1000
,
0200
0300
0000
0000
0000
0000
0000
0000
0000
0000
0000
0000
0000
0000
0000
0000
;

//--------------- dance-double - forcednature ----------------
#NOTEDATA:;
#STEPSTYPE:dance-double;
#DESCRIPTION:forcednature;
#CREDIT:forcednature;
#DIFFICULTY:Easy;
#METER:4;
#RADARVALUES:0,0,0,0,0;
#NOTES:
00000000
00000000
00000000
00000000
,
00000000
00000000
00000000
00000000
,
00000000
00000000
00000000
00000000
,
00000000
00000000
00000000
00000000
,
00000000
00000000
00000000
00000000
,
00000000
00000000
00000000
00000000
,
00001000
00000000
00000000
00000000
,
00010000
00000000
00001000
00000000
,
00010000
00000000
00000000
00000000
,
00001000
00020000
00030000
00000000
,
00001000
00000000
00000000
00001000
,
00000000
00000000
00100000
00000000
,
00010000
00000000
00000000
00100000
,
00000000
00000000
01000000
00000000
,
10000000
00000000
10000000
00000000
,
01000000
00000000
00100000
00000000
,
00010000
00000000
00100000
00000000
,
00001000
00000000
00000000
00000000
,
00010000
00000000
00000000
00010000
00000000
00000000
00010000
00000000
,
00000000
00000000
00000000
00000000
,
00001000
00000000
00000000
00001000
00000000
00000000
00001000
00000000
,
00000000
00000000
00000000
00000000
,
00010000
00000000
00001000
00000000
,
00020000
00000000
00030000
00000000
,
00011000
00000000
00000100
00000000
,
00001000
00000000
00000000
00000000
,
00001001
00000000
00000001
00000000
,
00000001
00000000
00000000
00000000
,
00000100
00000000
00000010
00000000
,
00001000
00000000
00000000
00000000
,
00000100
00000000
00001000
00000000
,
00001000
00000000
00000000
00000000
,
00000100
00000000
00010000
00000000
,
00001000
00000000
00010000
00000000
,
00001000
00000000
00001000
00000000
,
00010000
00000000
00000000
00000000
,
00001000
00000000
00100000
00000000
,
00010000
00000000
00000000
00000000
,
00100000
00000000
00100000
00000000
,
00010000
00000000
00000000
00000000
,
01000000
00000000
00010000
00000000
,
10000000
00010000
10000000
00000000
,
00020000
00000000
00000000
00030000
,
00000000
00000000
00100000
00000000
,
00002000
00000000
00000000
00003000
,
00000000
00000000
00010000
00000000
,
00002000
00000000
00000000
00003000
,
00000000
00000000
00010000
00000000
,
00000100
00000000
00001000
00000001
,
00001000
00000000
00000001
00000000
,
00000000
00000000
00000100
00000000
,
00000100
00000000
00000001
00000000
,
00000000
00000000
00000010
00000000
,
00000000
00000000
00000100
00000000
,
00000000
00000000
00001000
00000000
,
00001000
00000000
00000100
00000000
,
00000000
00000000
00020000
00000000
,
00030000
00000000
00001000
00000000
,
00000000
00000000
00010000
00000000
,
00000000
00000000
00001000
00000000
,
00000000
00000000
00100000
00000000
,
00000000
00000000
00010000
00000000
,
00010000
00000000
02000000
00000000
,
00000000
03000000
00000000
00000000
,
00000000
00000000
00000000
00000000
,
00100000
00000000
00100000
00000000
,
10000000
00000000
00000000
00000000
,
01000000
00000000
00100000
00000000
,
00010000
00000000
00000000
00000000
,
01000000
00000000
01000000
00000000
,
00010000
00000000
00000000
00000000
,
00100000
00000000
00001000
00000000
,
00010000
00001000
00010000
00000000
,
00001000
00000000
00001000
00000000
,
00010000
00000000
00000000
00000000
,
00000100
00000000
00000100
00000000
,
00001000
00000000
00000000
00000000
,
00000010
00000000
00000010
00000000
,
00000100
00000000
00000000
00000000
,
00000001
00000000
00001000
00000000
,
00000100
00001000
00000100
00000000
,
00020000
00000000
00000000
00030000
,
00000000
00000000
00001000
00000000
,
00200000
00000000
00000000
00300000
,
00000000
00000000
00001000
00000000
,
00010000
00000000
00010000
00000000
,
00000100
00000000
00010000
00000000
,
00011000
00000000
00001000
00000000
,
00100000
00000000
00000000
00000000
;

//--------------- dance-double - forcednature ----------------
#NOTEDATA:;
#STEPSTYPE:dance-double;
#DESCRIPTION:forcednature;
#CREDIT:forcednature;
#DIFFICULTY:Medium;
#METER:9;
#RADARVALUES:0,0,0,0,0;
#NOTES:
00000000
00000000
00000000
00000000
,
00000000
00000000
00000000
00000000
,
00000000
00000000
00000000
00000000
,
00000000
00000000
00000000
00000000
,
00000000
00000000
00000000
00000000
,
00000000
00000000
00000000
00000000
,
00001000
00010000
00000000
00010000
,
00001000
00000000
00100000
00000000
,
00001000
00010000
00000100
00001000
,
00000100
00000020
00000030
00000000
,
00001001
00000000
00000000
00001000
00000000
00000000
00000100
00000000
,
00000000
00001000
00000000
00000000
00000100
00000000
00010000
00000000
,
00001000
00000000
00000000
00010000
00000000
00000000
00001000
00000000
,
00000000
00100000
00010000
00000000
,
01000000
00010000
01000000
00010000
,
20000000
30000000
00100000
01000000
,
00100000
10000000
01000000
00100000
,
00001000
00010000
00011000
00000000
,
00001100
00000000
00000000
00000110
00000000
00000000
00000022
00000000
,
00000033
00000001
00000100
00000000
,
00000110
00000000
00000000
00001010
00000000
00000000
00002200
00000000
,
00003300
00010000
00001000
00100000
,
00010000
00010000
01000000
00100000
,
20000000
00000000
00000000
00000000
31000000
00000000
00000000
01100000
,
00000000
00000000
00010000
00000000
10000000
00000000
10000000
00100000
,
00000000
00100000
00000000
10000000
00010000
00000000
00000000
00000000
,
01100000
00000000
00010000
00000000
00100000
00000000
00001000
00010000
,
00000000
00010000
00001000
00000000
00010000
00000000
00000100
00000000
,
00002000
00000000
00003000
00000010
00000200
00000000
00000300
00000001
,
00001000
00000100
00000220
00000330
,
00000001
00000000
00001000
00000000
00000010
00000000
00000100
00000001
,
00000000
00000001
00000100
00000000
00000010
00000000
00001000
00000000
,
00000200
00000000
00000300
00010000
00002000
00000000
00023000
00000000
,
00031000
00000000
00010000
00001000
00100000
00000000
00000000
00000000
,
00010000
00000000
01000000
00000000
00010000
00000000
10000000
00100000
,
00000000
00100000
10000000
00000000
01000000
00000000
00100000
00000000
,
00020000
00000000
00030000
01000000
00002000
00000000
00003000
00010000
,
00001000
00010000
00022000
00033000
,
00000100
00000000
00001000
00000000
00000100
00000000
00001000
00000001
,
00000000
00000001
00001000
00000000
00000010
00000000
00000100
00000000
,
00000002
00000000
00000003
00001000
00000020
00000000
00000230
00000000
,
00000301
00000000
00001000
00000001
00002000
00000000
00003000
00000000
,
00000200
00000000
00000000
00020300
00000000
00000000
00030200
00000000
,
00000300
00010000
00001000
00010000
,
00002000
00000000
00000000
02003000
00000000
00000000
03002000
00000000
,
00003000
01000000
00010000
01000000
,
00200000
00000000
00000000
20300000
00000000
00000000
30200000
00000000
,
00300000
10000000
01000000
00100000
,
01100000
00010000
10010000
01000000
,
01100000
00000000
00010000
00100000
,
00000000
00100000
00001000
00010000
,
00000100
00000000
00010000
00001000
,
00000000
00001000
00010000
00000010
,
00001000
00000000
00000100
00001000
,
00000000
00001000
00000010
00000100
,
00000001
00000000
00000010
00000100
,
00000000
00000100
00000010
00000001
,
00001001
00000000
00001000
00000100
,
00010000
00000000
00001000
00000000
00100000
00010000
00100000
00010000
,
00000000
01000000
00000000
00100000
00000000
00000000
10000000
00000000
,
01000000
00100000
01000000
00100000
00000000
00000000
00010000
00000000
,
01000000
00000000
00001000
00020000
00000000
00030000
00000000
00000200
,
00000000
00000300
00000000
00001000
00000000
00001000
00000000
00000001
,
00001000
00000000
00000000
00000020
00000000
00000000
00000000
00000000
,
00000000
00000030
00000000
00000000
00000000
00000000
00000000
00000000
,
00000110
00000000
00000001
00000000
00001000
00000000
00000100
00000010
,
00000000
00000010
00000100
00000000
00001000
00000000
00000010
00000000
,
00020000
00000000
00030000
00001000
00200000
00000000
00300000
00001000
,
00010000
00001000
00022000
00033000
,
01000000
00000000
00010000
00000000
01000000
00000000
00100000
10000000
,
00000000
10000000
00100000
00000000
01000000
00000000
00010000
00000000
,
00200000
00000000
00300000
00001000
00020000
00000000
00030200
00000000
,
00010300
00000000
00001000
00010000
00001000
00000000
00000000
00000000
,
00010000
00000000
00000010
00000000
00001000
00000000
00000001
00001000
,
00000000
00001000
00000001
00000000
00000010
00000001
00000010
00000001
,
00002000
00000000
00003200
00000000
00020300
00000000
00030000
00001000
,
00010000
00001000
00010000
00000020
00000000
00000030
00000000
00000000
,
00010000
00000000
00001000
00000000
01000000
00000000
00010000
10000000
,
00000000
10000000
00010000
00000000
00100000
00000000
01000000
00000000
,
20000000
00000000
30000000
00010000
02000000
00000000
03200000
00000000
,
10300000
00010000
10000000
00010000
02000000
00000000
03000000
00000000
,
00200000
00000000
00000000
20300000
00000000
00000000
30200000
00000000
,
00300000
01000000
00010000
00100000
,
00002000
00000000
00000000
00023000
00000000
00000000
00032000
00000000
,
00003000
00010000
00001000
00010000
00000100
00000000
00001000
00000000
,
00001001
00000001
00000100
00000001
,
00001000
00000000
00000010
00001000
00000010
00000000
00000100
00000000
,
00000110
00001000
00001001
00000010
,
00000200
00000300
00000000
00000000
00000000
00000000
00000000
00000000
00000000
00000000
00000000
00000000
00000000
00000000
00000000
00000000
;

//--------------- dance-double - forcednature ----------------
#NOTEDATA:;
#STEPSTYPE:dance-double;
#DESCRIPTION:forcednature;
#CREDIT:forcednature;
#DIFFICULTY:Hard;
#METER:14;
#RADARVALUES:0,0,0,0,0;
#NOTES:
00000000
00000000
00000000
00000000
,
00000000
00000000
00000000
00000000
,
00000000
00000000
00000000
00000000
,
00000000
00000000
00000000
00000000
,
00000000
00000000
00000000
00000000
,
00000000
00000000
00000000
00000000
,
00001000
00010000
00001000
00100000
00000000
00100000
00001000
00010000
,
00001000
00100000
00000000
00100000
00010000
01000000
00100000
10000000
,
01000000
00100000
00010000
00100000
01000000
00010000
00001000
00100000
,
00010000
01000000
00002000
00000000
00003000
00000000
00010000
00001000
,
00010000
00000000
00000000
00000200
00000000
00000300
00010000
00000000
,
00000000
00000020
00000000
00000030
00001000
00000001
00000100
00000001
,
00000100
00000000
00000000
00000020
00000000
00001030
00000200
00000000
,
00000300
00010000
00001000
00100000
00010000
01000000
00000000
00100000
,
10000000
00000000
00000000
10000000
00000000
00000000
01000000
00000000
00100000
00000000
00000000
00100000
00000000
00000000
00001000
00000000
,
00020000
00000000
00030000
00000000
00000100
00001000
00000001
00000010
,
00000200
00000320
00000032
00002003
,
00003010
00001000
00000010
00010000
00001000
00000000
00011000
00000000
,
00020000
00000000
00130000
20000000
00000000
30100000
02000000
00000000
,
03000000
00010000
00100000
01000000
00100000
00001000
00010000
00000100
,
00002000
00000000
00003010
00000002
00000000
00000013
00000200
00000000
,
00000300
00000001
00001000
00000100
00001000
00000010
00000010
00000000
,
00010000
00000000
00000000
00010000
00000000
00000000
00001000
00000000
00100000
00000000
00000000
00100000
00000000
00000000
00010000
00000000
,
02000000
00000000
00100000
00000000
03010000
10000000
00000000
10010000
,
00000000
00010000
00100000
01000000
00100000
00010000
00100000
00001000
,
00000000
00011000
00000000
00010000
00000100
00001000
00001000
00000000
,
00000001
00000000
00001000
00000001
00001000
00000000
00000010
00000000
00000200
00000000
00000000
00000000
00000301
00000000
00000020
00000000
,
00000000
00001030
00000010
00000001
00000100
00000010
00001000
00000100
,
00020000
00000000
00031000
01000000
00020000
00000000
00130000
01000000
,
10000000
00000000
00000000
10000000
00100000
00000000
00000000
00100000
01000000
00000000
00010000
00000000
00010000
00000000
00000000
00000000
,
10000000
00000000
00010000
10000000
00010000
00000000
01000000
00000000
00200000
00000000
00000000
00000000
10300000
00000000
02000000
00000000
,
00000000
03100000
01000000
10000000
00100000
01000000
00001000
00010000
,
00000020
00000000
00010030
00001000
00000020
00000000
00000230
00000000
,
00000310
00000000
00000001
00000000
00000100
00000000
00001000
00000000
00000100
00000000
00000001
00000000
00000001
00000000
00000100
00000001
,
00001000
00000000
00000001
00001000
00000001
00000000
00000010
00000000
00000200
00000000
00000000
00000000
00001300
00000000
00000020
00000000
,
00000000
00000130
00000010
00010000
00001000
00100000
01000000
00100000
,
00020000
00000000
01030000
00100000
20000000
00000000
31000000
00100000
,
00010000
00000000
00000000
00010000
01000000
00000000
00000000
01000000
00001000
00000000
00010000
00000000
00010000
00000000
00000000
00000000
,
00001000
00000000
00010000
00001000
00010000
00000000
00000010
00000000
00002000
00000000
00000000
00000000
00003100
00000000
00000020
00000000
,
00000000
00001030
00000010
00000001
00000100
00000010
00001000
00000100
,
00020000
00000000
00031000
00100000
00020000
00000000
02030000
00000000
,
03100000
00000000
10000000
00000000
00100000
00000000
00010000
00000000
00100000
10000000
00100000
00000000
10000000
00000000
00000000
00000000
,
00020000
00000000
00130000
02000000
00000000
13000000
00020000
00000000
,
00030000
00100000
01000000
00100000
00001000
00010000
00000100
00010000
,
00002000
00000000
00003010
00000002
00000000
00000013
00000100
00000010
,
00000000
00000001
00000100
00001000
00000100
00000001
00000001
00001000
,
00000020
00000000
00000130
00002000
00000000
00013000
00200000
00000000
,
00300000
01000000
00010000
10000000
00100000
10000000
00010000
00100000
,
01000000
00010000
00011000
00010100
,
00001100
00000000
00000000
00000000
00001000
00000100
00000001
00000100
,
00000000
00000100
00001000
00000010
00000001
00000010
00000000
00000010
,
00001000
00000100
00010000
00001000
01000000
00010000
00100000
00010000
,
10000000
00100000
00010000
00001000
01000000
00010000
10000000
01000000
,
00100000
00000000
01000000
00000000
00100000
00000000
00010000
00100000
00010000
00000000
01000000
00000000
10000000
00000000
01000000
00000000
,
00000000
01000000
00010000
00100000
10000000
00100000
00000000
00100000
,
00010000
01000000
00001000
00010000
00000010
00000100
00001000
00000100
,
00000001
00000000
00001000
00000000
00000100
00000000
00000010
00000000
00000002
00000000
00000000
00000000
00001003
00000000
00000001
00001000
,
00000001
00000100
00000010
00001000
00000100
00000000
00001100
00000000
,
00010000
00000000
00011000
00000000
00100000
00010000
00100000
00001000
,
00000000
00010000
00001000
01000000
00000000
00010000
10000000
00100000
,
10000000
00010000
00100000
20000000
00000000
30100000
00010000
00100000
,
00001000
00000000
00010000
00011000
00000000
00001000
00010000
00000200
,
00000000
00010300
00001000
00011000
00000000
00101000
00000000
00011000
,
00011000
00000000
00000000
00000200
00000000
00000000
00000000
00000000
,
00000000
00000300
00000000
00000000
00000000
00000000
00000000
00000000
,
00001000
00000000
00000001
00001000
00000001
00000000
00000100
00000000
00000020
00000000
00000000
00000000
00000130
00000000
00002000
00000000
,
00000000
00013000
00001000
00100000
00010000
00100000
01000000
00010000
,
00002000
00000000
00103000
00010000
20000000
00000000
30100000
01000000
,
00010000
00000000
00000000
00010000
00100000
00000000
00000000
00100000
00001000
00000000
00010000
00000000
00011000
00000000
00000000
00000000
,
00010000
00000000
00001000
00010000
00001000
00000000
00010000
00000000
00000200
00000000
00000000
00000000
00000310
00000000
00000200
00000000
,
00000000
00001300
00000010
00001000
00000001
00000010
00001000
00010000
,
00000200
00000000
00001300
00000010
00020000
00000000
00032000
00000000
,
01003000
00000000
00010000
00000000
00100000
00000000
00010000
00000000
10000000
00000000
01000000
10000000
01000000
00000000
00100000
01000000
,
10000000
00000000
00010000
10000000
00010000
00000000
00100000
00000000
00020000
00000000
00000000
00000000
01030000
00000000
00002000
00000000
,
00000000
00013000
00000200
00000000
00001300
00000010
00000100
00001000
,
00000100
00000000
00000000
00000100
00000001
00000000
00000000
00000001
00000020
00000000
00000000
00000000
00001030
00000000
00000010
00000000
,
00000001
00000000
00001000
00000000
00000001
00000000
00000100
00000000
00000010
00000000
00001000
00000010
00001000
00000000
00000100
00000000
,
00010000
00000000
00001000
00010000
00001000
00000000
00100000
00000000
00020000
00000000
00000000
00000000
01030000
00000000
20000000
00000000
,
00000000
31000000
00020000
00000000
00130000
00001000
00010000
00000100
,
00010000
00000000
00000000
00010000
00001000
00000000
00000010
00000000
00000100
00000000
00000000
00000100
00000010
00000000
00000000
00000000
,
00000001
00000000
00000100
00000000
00001000
00000000
00010000
00000000
00001000
00010000
00001000
00000000
00011000
00000000
00000000
00000000
,
00200000
00000000
01300000
00020000
00000000
00031000
00200000
00000000
,
00300000
01000000
10000000
00100000
01000000
00010000
00100000
00001000
,
00020000
00000000
00030010
00000200
00000000
00001300
00010000
00001000
,
00000000
00000000
00000010
00000000
00000100
00000000
00000010
00000000
00000001
00000000
00000100
00000001
00000100
00000000
00000010
00001000
,
00000001
00000000
00000010
00000100
00000010
00001000
00020000
00000000
,
00031000
00000000
00000000
00001000
00100000
00000000
00010000
00000000
01000000
00000000
00010000
01000000
00010000
00000000
01000000
00100000
,
10000000
01000000
01100000
00010000
,
00002000
00003000
00000000
00000000
00000000
00000000
00000000
00000000
00000000
00000000
00000000
00000000
00000000
00000000
00000000
00000000
;
