#VERSION:0.83;
#TITLE:Golden Palms;
#SUBTITLE:;
#ARTIST:Dirty Androids;
#TITLETRANSLIT:;
#SUBTITLETRANSLIT:;
#ARTISTTRANSLIT:;
#GENRE:NU DISCO;
#CREDIT:;
#MUSIC:Golden Palms.ogg;
#BANNER:Golden Palms.png;
#BACKGROUND:Golden Palms-bg.png;
#CDTITLE:./CDTitles/bm IIDX 18 Resort Anthem.png;
#SAMPLESTART:59.411;
#SAMPLELENGTH:15.000;
#SELECTABLE:YES;
#OFFSET:1.498;
#BPMS:0.000=130.000;
#STOPS:;
#TIMESIGNATURES:0.000=4=4;
#BGCHANGES:;
#FGCHANGES:;

//--------------- dance-single - forcednature ----------------
#NOTEDATA:;
#STEPSTYPE:dance-single;
#DESCRIPTION:forcednature;
#CREDIT:forcednature;
#DIFFICULTY:Beginner;
#METER:1;
#RADARVALUES:0,0,0,0,0;
#NOTES:
0000
0000
0000
0000
,
0000
0000
0000
0000
,
0000
0000
0000
0000
,
0000
0000
0000
0000
,
0000
0000
0000
0000
,
0001
0000
0000
0000
,
0000
0000
0000
0000
,
0000
0000
0000
0000
,
0000
0000
0000
0000
,
1000
0000
0000
0000
,
0000
0000
0000
0000
,
0100
0000
0000
0000
,
0000
0000
0000
0000
,
1000
0000
0000
0000
,
0000
0000
0000
0000
,
0010
0000
0000
0000
,
0000
0000
0000
0000
,
0100
0000
0000
0000
,
0000
0000
0000
0000
,
0001
0000
0000
0000
,
0000
0000
0000
0000
,
0010
0000
0000
0000
,
0000
0000
0000
0000
,
0001
0000
0000
0000
,
0000
0000
0000
0000
,
0100
0000
0000
0000
,
0000
0000
0000
0000
,
0010
0000
0000
0000
,
0000
0000
0000
0000
,
1000
0000
0000
0000
,
0000
0000
0000
0000
,
0100
0000
0000
0000
,
0000
0000
0000
0000
,
2000
0000
0000
0000
,
0000
0000
0000
0000
,
0000
0000
0000
0000
,
3000
0000
0000
0000
,
0002
0000
0000
0000
,
0000
0000
0000
0000
,
0000
0000
0000
0000
,
0003
0000
0000
0000
,
0200
0000
0000
0000
,
0000
0000
0000
0000
,
0000
0000
0000
0000
,
0300
0000
0000
0000
,
0020
0000
0000
0000
,
0000
0000
0000
0000
,
0000
0000
0000
0000
,
0030
0000
0000
0000
,
1000
0000
0000
0000
,
0000
0000
0000
0000
,
0001
0000
0000
0000
,
0000
0000
0000
0000
,
0001
0000
0000
0000
,
0000
0000
0000
0000
,
1000
0000
0000
0000
,
0000
0000
0000
0000
,
0010
0000
0000
0000
,
0000
0000
0000
0000
,
0100
0000
0000
0000
,
0000
0000
0000
0000
,
0001
0000
0000
0000
,
0000
0000
0000
0000
,
1000
0000
0000
0000
;

//--------------- dance-single - forcednature ----------------
#NOTEDATA:;
#STEPSTYPE:dance-single;
#DESCRIPTION:forcednature;
#CREDIT:forcednature;
#DIFFICULTY:Easy;
#METER:5;
#RADARVALUES:0,0,0,0,0;
#NOTES:
0000
0000
0000
0000
,
0000
0000
0000
0000
,
0000
0000
0000
0000
,
0000
0000
0000
0000
,
0000
0000
0000
0000
,
0001
0000
0000
0001
,
0100
0000
0000
0100
,
0010
0000
0000
0010
,
2000
0000
3000
0000
,
1001
0000
0001
0010
,
0000
0010
0001
0000
,
0100
0000
0010
1000
,
0000
1000
0010
0000
,
1000
0000
0100
0010
,
0000
0010
0100
0000
,
1000
0000
0001
0100
,
0000
0100
0001
0000
,
1001
0000
1000
0010
,
0000
0100
0001
0000
,
0010
0000
0100
0010
,
0000
0001
1000
0000
,
1001
0000
0001
0100
,
0000
0010
1000
0000
,
0100
0000
0010
0001
,
0000
1000
0010
0000
,
0110
0000
0001
0100
,
0001
0010
0001
0000
,
0110
0000
1000
0100
,
1000
0010
1000
0000
,
1001
0000
0001
0010
,
0100
0010
0001
0000
,
1001
0000
1000
0010
,
0100
0001
1000
0000
,
0020
0000
0230
0000
,
0302
0000
0000
0003
,
0020
0000
0230
0000
,
2300
0000
0000
3000
,
0002
0000
0203
0000
,
0320
0000
2030
0000
,
3002
0000
0000
0000
,
0000
0000
0000
0003
,
2000
0000
3200
0000
,
0320
0000
0032
0000
,
0203
0000
0320
0000
,
2030
0000
3002
0000
,
0023
0000
0230
0000
,
2300
0000
3002
0000
,
0203
0000
0320
0000
,
2030
0000
0000
3000
,
1001
1001
1001
0000
,
0001
0010
0100
0000
,
1001
1001
1001
0000
,
1000
1000
0010
0000
,
0110
0110
0110
0000
,
0001
1000
0100
0000
,
0110
0110
0110
0000
,
1000
0001
1000
0000
,
1001
0000
0001
0010
,
0100
0010
0001
0000
,
1001
0000
1000
0010
,
0100
0001
1000
0000
,
1001
0000
0001
0010
,
0100
0010
0001
0000
,
1001
0000
1000
0100
,
1000
0001
0200
0000
,
0300
0000
0000
0000
;

//--------------- dance-single - forcednature ----------------
#NOTEDATA:;
#STEPSTYPE:dance-single;
#DESCRIPTION:forcednature;
#CREDIT:forcednature;
#DIFFICULTY:Medium;
#METER:8;
#RADARVALUES:0,0,0,0,0;
#NOTES:
0000
0000
0000
0000
,
0000
0000
0000
0000
,
0000
0000
0000
0000
,
0000
0000
0000
0000
,
0000
0000
0000
0000
,
1000
0100
0000
0100
,
1000
0010
0000
0010
,
0001
0010
0000
0010
,
0002
0000
0103
0100
,
1001
0000
1000
0010
,
0100
0000
0010
0000
1000
0001
1000
0000
,
0100
0000
0010
0100
,
0010
0000
0001
0000
1000
0001
1000
0000
,
0010
0000
0100
0001
,
0010
0000
0001
0000
1000
0001
1000
0000
,
0100
0000
1000
0010
,
0200
0000
0000
0300
0001
1000
0001
0000
,
1001
0000
0001
0010
,
0100
0010
0100
0000
1000
0000
0001
0000
,
0100
0000
0010
0100
,
0010
0100
0010
0000
1000
0000
0001
0000
,
0010
0000
0001
1000
,
0100
0010
0100
0000
0010
0000
0001
0000
,
1000
0000
0001
0100
,
0020
0000
1030
0001
,
1001
0000
1000
0100
,
0010
0100
0010
0000
0001
0000
1000
0000
,
0010
0000
0100
0001
,
0100
0010
0100
0000
0010
0000
1000
0000
,
0001
0000
0010
0001
,
0010
0100
0010
0000
0100
0000
1000
0000
,
0001
0000
0100
0001
,
0100
0010
0100
0000
0010
0000
0000
0000
,
2000
3200
0320
0032
,
0203
0000
0000
0300
,
0020
2030
3002
0023
,
0230
0000
0000
0300
,
0020
0032
2003
3002
,
0203
0000
0320
0000
,
2030
0000
3002
0000
,
0023
0000
0030
0000
,
0002
2003
3200
2300
,
3002
0000
0023
0000
,
0032
2003
3020
2030
,
3002
0000
0203
0000
,
0320
2030
3002
2003
,
3200
0000
0320
0000
,
0032
0000
2003
0000
,
3020
0000
0100
0130
,
1001
0110
1001
0000
,
0001
0010
1000
0010
,
1001
0110
1001
0000
,
1000
0010
0001
0010
,
1001
1100
0101
0000
,
0001
0010
1000
0010
,
1001
0000
0101
0000
1100
0000
0001
1000
,
0001
0100
0020
0030
,
1001
0000
1000
0000
0100
0010
0100
0000
,
0010
0001
1000
0000
,
0001
0000
0100
0000
0010
0100
0010
0000
,
1000
0001
0010
0000
,
0100
0000
0010
0000
0100
1000
0100
0000
,
1000
0010
0100
0000
,
0010
0000
0100
0000
0001
0100
0001
0000
,
0010
0001
1000
0020
,
0030
0000
0000
0000
;

//--------------- dance-single - forcednature ----------------
#NOTEDATA:;
#STEPSTYPE:dance-single;
#DESCRIPTION:forcednature;
#CREDIT:forcednature;
#DIFFICULTY:Hard;
#METER:11;
#RADARVALUES:0,0,0,0,0;
#NOTES:
0000
0000
0000
0000
,
0000
0000
0000
0000
,
0000
0000
0000
0000
,
0000
0000
0000
0000
,
0000
0000
0000
0000
,
1000
1100
0001
0100
,
0001
0010
0100
1000
,
0001
0101
1000
0010
,
0200
0000
0001
0000
0010
0010
0310
0000
,
1001
0000
1000
0100
0001
0000
0100
0000
,
1000
0001
0010
0001
0100
0010
1000
0000
,
0001
0100
1000
0000
0100
0000
0001
0000
,
1000
0010
0100
0010
1000
0001
0010
0000
,
0100
1000
0001
0000
0010
0000
1000
0000
,
0010
0001
0100
0001
1000
0100
0010
0000
,
0001
0100
1000
0000
0100
0000
0001
0000
,
0010
0000
0000
0010
0000
0000
0001
0000
0000
0000
0000
0000
0100
0000
0010
0000
0100
0000
0020
0000
0000
0000
0000
0000
,
1030
0000
1001
0000
0001
0010
0100
0000
,
0001
0100
1000
0001
0010
0001
2000
0000
,
3010
0000
1001
0000
1000
0010
0100
0000
,
1000
0100
0001
1000
0010
1000
0001
0000
,
0010
0000
1001
0000
1000
0100
0001
0000
,
0100
1000
0010
0100
0001
0010
0200
0000
,
0310
0000
1001
0000
1000
0010
0001
0000
,
0020
0000
0000
0000
1030
0000
0000
1000
0000
1000
0000
0000
0001
0000
0010
0000
,
1001
0000
0000
0000
0000
1000
0100
0000
0000
0000
0000
0000
0001
0000
0000
0100
0000
0000
1000
0000
0000
0000
0000
0000
,
0001
0010
0001
0100
1000
0100
0002
0000
,
0013
0000
0000
0000
0000
0001
1000
0000
0000
0000
0000
0000
0100
0000
0000
0010
0000
0000
0001
0000
0000
0000
0000
0000
,
1000
0010
0001
0010
1000
0001
0100
0000
,
0010
0000
0000
0000
0000
1000
0001
0000
0000
0000
0000
0000
1000
0000
0000
0100
0000
0000
0001
0000
0000
0000
0000
0000
,
0100
1000
0010
0100
1000
0100
0002
0000
,
0013
0000
0000
0000
0000
0001
1000
0000
0000
0000
0000
0000
0010
0000
0000
0100
0000
0000
0001
0000
0000
0000
0000
0000
,
0010
0000
0000
0100
0000
0000
0001
0000
0000
0100
0000
0000
2000
0000
0000
0001
0000
0000
3000
0000
0001
0000
0000
0000
,
0200
0001
0010
1000
,
0010
0010
0010
0000
0301
0000
1000
0000
,
0200
0001
0010
1000
,
0010
0010
0010
0000
1300
0000
0001
0000
,
0020
1000
0100
0001
,
0100
0100
0100
0000
0031
0000
1000
0020
,
0000
0000
0130
0002
0000
0000
0013
0200
,
0000
0000
1000
0000
0010
0010
0310
0000
,
0002
0000
1000
0000
0100
0100
0100
0000
,
2003
0000
0001
0000
0100
0100
0100
0000
,
3020
0000
0001
0000
1000
1000
1000
0000
,
0230
0000
1000
0000
0001
0001
0001
0000
,
0320
1000
1000
0000
0100
0100
1030
0000
,
2000
0100
0100
0000
0001
0001
0100
0000
,
3020
0230
0302
0023
,
0230
0000
1000
1000
1000
0000
0310
0000
,
1001
1001
1001
0110
,
1000
0100
0001
0100
1000
0100
0001
0000
,
0110
1001
0110
1001
,
0001
0000
1000
0001
0000
1000
0001
0000
0100
0000
0100
0000
0010
0000
0000
0000
,
1001
0000
0110
0000
1000
0001
1001
0000
,
0001
0010
1000
0010
0001
0010
1001
0000
,
0110
0000
1001
0000
0100
0010
0110
0000
,
1000
0000
0000
0000
0000
0001
1000
0000
0000
1000
0000
0000
0001
0000
0000
1000
0000
0001
0020
0000
0000
0000
0000
0000
,
0130
0000
0000
0000
0000
1000
0001
0000
0000
0100
0000
0000
0010
0000
0000
1000
0000
0000
0100
0000
0000
0000
0000
0000
,
0001
0100
1000
0001
0010
0100
1002
0000
,
0103
0000
0000
0000
0000
0010
1000
0000
0000
0000
0000
0000
0001
0000
0000
0010
0000
0000
1000
0000
0000
0000
0000
0000
,
0010
0001
0100
1000
0100
0001
0011
0000
,
1000
0000
0000
0000
0000
0010
0100
0000
0000
0000
0000
0000
0001
0000
0000
0010
0000
0000
0100
0000
0000
0000
0000
0000
,
0001
0100
1000
0001
0100
0010
2010
0000
,
3100
0000
0000
0000
0000
0010
0001
0000
0000
0000
0000
0000
1000
0000
0000
0010
0000
0000
0001
0000
0000
0000
0000
0000
,
0010
1000
0100
0100
1000
0001
0020
0000
,
0030
0000
0000
0000
;

//--------------- dance-single - forcednature ----------------
#NOTEDATA:;
#STEPSTYPE:dance-single;
#DESCRIPTION:forcednature;
#CREDIT:forcednature;
#DIFFICULTY:Challenge;
#METER:15;
#RADARVALUES:0,0,0,0,0;
#NOTES:
0000
0000
0000
0000
,
0000
0000
0000
0000
,
0000
0000
0000
0000
,
0000
0000
0000
0000
,
0000
0000
0000
0000
,
1000
0000
0000
0000
0000
0100
0010
0000
0000
0100
0000
0000
1000
0000
0001
0000
0000
0000
0011
0000
0000
0000
0000
0000
,
0001
0000
0000
0000
0000
0100
0010
0000
0000
0100
0000
0000
0001
0000
1000
0000
0000
0000
1010
0000
0000
0000
0000
0000
,
1000
0000
0000
0000
0000
0010
0100
0000
0000
0010
0000
0000
1000
0000
0001
0000
0000
0000
0011
0000
0000
0000
0000
0000
,
0001
0100
0010
1000
0100
0010
0110
0000
,
2001
0000
0000
0000
0000
0000
3100
0000
0000
1000
0000
0010
0100
0000
0000
0001
0000
0100
0000
0000
0001
0010
0000
0000
,
0100
0000
0000
1000
0000
0000
0001
0000
0100
0001
0000
0000
0100
0000
0010
1000
0000
0000
0020
0000
0000
0000
0000
0000
,
1030
0000
0000
0100
0000
0000
1002
0000
0000
0000
0000
0000
0013
0000
0000
0100
0000
0010
0000
0000
0100
1000
0000
0000
,
0001
0000
0000
0100
0000
0010
0100
0000
0000
0010
0000
1000
0100
0000
0000
1000
0000
0001
0010
0000
0000
0000
0000
0000
,
1002
0000
0000
0000
0000
0000
0103
0000
0000
0001
0000
0010
0100
0000
0000
1000
0000
0100
0000
0000
1000
0010
0000
0000
,
0100
0000
0000
0001
0000
0000
1000
0000
0100
1000
0000
0000
0100
0000
0010
0001
0000
0000
0020
0000
0000
0000
0000
0000
,
0031
0000
0000
0100
0000
0000
2001
0000
0000
0000
0000
0000
3010
0000
0000
0100
0000
0010
0000
0000
0100
0001
0000
0000
,
2000
0000
0000
3000
0000
0000
2000
0000
0000
3000
0000
0000
0100
0000
0000
0000
1000
0000
0001
0000
0000
0000
0001
0000
0010
0000
0000
0000
0100
0000
0000
0000
0010
0000
0000
0000
0002
0000
0000
0000
0000
0000
0000
0000
0000
0000
0000
0000
,
0103
0000
0000
0010
0000
0000
1001
0000
0000
1000
0000
0010
0000
0000
1000
0100
0000
0000
0010
0000
0100
0010
0000
0000
,
0001
0000
0000
0100
0000
0000
0001
0000
1000
0010
0000
0000
1000
0000
0001
0010
0000
0000
0200
0000
0000
0000
0000
0000
,
1300
0000
0000
0010
0000
0000
1001
0000
0000
1000
0000
0100
0000
0000
1000
0010
0000
0100
0010
0000
0100
0001
0000
0000
,
1000
0000
0000
0001
0000
0010
0100
0000
0100
0010
0000
0000
0001
0000
0000
1000
0000
0010
0100
0000
0000
0001
0000
0000
,
0020
0000
0000
0000
0000
0000
0130
0000
0000
1000
0000
0100
0000
0000
1000
0010
0000
0000
0100
0000
0001
0100
0000
0000
,
0001
0000
0000
0010
0000
0000
0100
0000
1000
0001
0000
0000
0100
0000
0010
1000
0000
0000
0200
0000
0000
0000
0000
0000
,
1300
0000
0000
0010
0000
0000
1001
0000
0000
0001
0000
0100
0000
0000
0010
0100
0000
0010
1000
0000
0100
1000
0000
0000
,
1002
0000
0000
0000
0000
0000
0000
0000
0000
0000
0000
0000
0013
0000
0000
0000
0000
0000
0001
0000
0000
1000
0000
0000
0000
0000
0000
0100
0000
0000
1000
0000
0000
0100
0000
0000
0010
0000
0000
0000
0001
0000
0100
0000
0000
0000
0000
0000
,
1001
0000
0000
1000
0000
0010
0100
0000
0000
0001
0000
0100
0000
0000
0001
0010
0000
0100
0010
0000
0100
1000
0000
0000
,
0001
0000
0000
0100
0000
0010
1000
0000
0100
0010
0000
0000
0100
0000
1000
0001
0000
0000
0021
0000
0000
0000
0000
0000
,
0130
0000
0000
1000
0000
0001
0100
0000
0000
0010
0000
0100
0000
0000
0010
1000
0000
0001
0010
0000
0001
1000
0000
0000
,
0100
0000
0000
0010
0000
0100
1000
0000
0010
0100
0000
0001
0010
0000
0010
0001
0000
0000
0100
0000
0000
0010
0000
1000
,
0001
0000
0000
0010
0000
0001
0100
0000
0000
0100
0000
0010
0000
0000
1000
0100
0000
0010
0100
0000
0010
0001
0000
0000
,
1000
0000
0000
0010
0000
0100
0001
0000
0010
0001
0000
0000
1000
0000
0010
0100
0000
0000
0102
0000
0000
0000
0000
0000
,
0013
0000
0000
0100
0000
0010
0001
0000
0000
1000
0000
0100
0000
0000
0001
0100
0000
1000
0100
0000
1000
0001
0000
0000
,
0010
0000
0000
0001
0000
0100
0001
0000
0100
0010
0000
0000
1000
0000
0000
0100
0000
0100
0010
0000
0010
0001
0000
0000
,
0200
0320
2030
3002
0203
2300
3200
0302
,
0000
0023
0230
2300
0010
0000
3002
0000
,
0203
2300
3200
0302
0023
2030
3020
0032
,
0000
2003
3020
0230
1000
0000
0001
0000
,
0320
2030
3002
0023
0230
0302
0203
2300
,
0000
3002
0023
2030
0000
3020
0032
0203
,
0000
0320
2030
3002
0000
0203
2300
3200
,
0302
0000
0010
0000
1000
1000
1003
0000
,
0002
0023
0230
0302
2003
3020
0230
2300
,
3002
0203
2300
3200
0302
0023
2030
0000
,
3002
0203
2300
3020
0032
2003
3200
0302
,
0010
1000
0100
2003
3020
0230
2300
3002
,
0023
2030
3200
0302
2003
3020
0032
0203
,
0320
2030
3200
0302
2003
3020
0032
0203
,
0320
0000
0032
2003
3020
0000
0230
0320
,
0001
0001
0100
0100
1030
0010
0001
0000
,
0110
0000
0000
0100
0000
0001
0010
0000
0000
0100
0000
1000
0010
0000
0000
0100
0000
0001
0010
0000
0100
0010
0000
0100
,
1000
0000
0001
0100
1000
0000
0100
0001
1000
0000
0001
0100
0020
0000
0000
0000
,
1030
0000
0000
0010
0000
1000
0100
0000
0000
0010
0000
0001
0100
0000
0000
0010
0000
1000
0100
0000
0010
0100
0000
0010
,
0001
0000
0000
0000
0000
0000
0100
0000
0000
1000
0000
0000
0000
0000
0000
0100
0000
0000
0001
0000
0000
0100
0000
0000
0001
0000
0000
0000
0000
0000
0001
0000
0000
0000
0000
0000
0010
0000
0000
0000
0100
0000
1000
0000
0000
0000
1000
0000
,
0010
0000
0000
0100
0000
0001
0010
0000
0000
0100
0000
1000
0010
0000
0000
0110
0000
0000
0100
0000
0001
0010
0000
0001
,
1000
0000
0000
0100
0000
0010
0001
0000
0000
0100
0000
0010
1000
0000
0000
0100
0000
0010
0001
0000
0100
0010
0000
1000
,
0100
0000
0000
0001
0000
0100
1000
0000
0000
0001
0000
0010
1000
0000
0000
1000
0000
0000
0010
0000
0001
0100
0000
0010
,
1000
0000
0000
0100
0000
0010
0001
0000
0000
0011
0000
0000
1001
0000
0000
1000
0010
0100
0002
0000
0000
0000
0000
0000
,
0013
0000
0000
0000
0000
0100
1000
0000
0000
0010
0000
0100
0000
0000
0100
0001
0000
0000
0010
0000
0100
1000
0000
0000
,
0001
0000
0000
0100
0000
0010
1000
0000
0001
0010
0000
0000
0100
0000
0010
0100
0000
1000
0002
0000
0000
0000
0000
0000
,
0103
0000
0000
0010
0000
1000
0010
0000
0000
0100
0000
0001
0000
0000
0010
0001
0000
0100
0001
0000
1000
0100
0000
0000
,
0010
0000
0000
0100
0000
1000
0001
0000
0000
0100
0000
0000
0010
0000
1000
0010
0000
1000
0100
0000
0000
0010
0000
0100
,
2000
0000
0000
0000
0000
0000
3001
0000
0000
0100
0000
0110
0000
0000
0010
1000
0000
0001
0100
0000
0010
1000
0000
0000
,
0001
0000
0000
0010
0000
0100
1000
0000
1000
0010
0000
0100
0001
0000
0000
0010
0000
0100
2000
0000
0000
0000
0000
0000
,
3010
0000
0000
0100
0000
0001
0010
0000
0000
0001
0000
1000
0000
0000
0100
0001
0000
0100
1000
0000
0001
0010
0000
0000
,
0110
0000
0000
0100
0000
1000
0001
0000
0100
0001
0000
0000
0010
0000
0000
0100
0000
1000
0002
0000
0000
0000
0000
0000
,
0003
0000
0000
0000
;

//--------------- dance-double - forcednature ----------------
#NOTEDATA:;
#STEPSTYPE:dance-double;
#DESCRIPTION:forcednature;
#CREDIT:forcednature;
#DIFFICULTY:Easy;
#METER:5;
#RADARVALUES:0,0,0,0,0;
#NOTES:
00000000
00000000
00000000
00000000
,
00000000
00000000
00000000
00000000
,
00000000
00000000
00000000
00000000
,
00000000
00000000
00000000
00000000
,
00000000
00000000
00000000
00000000
,
00010000
00000000
00000000
00010000
,
00001000
00000000
00000000
00001000
,
00100000
00000000
00000000
00100000
,
00020000
00000000
00030000
00000000
,
10010000
00000000
10000000
00100000
,
00000000
00100000
10000000
00000000
,
01000000
00000000
00100000
00010000
,
00000000
00010000
00100000
00000000
,
00001000
00000000
00010000
00000100
,
00000000
00000100
00010000
00000000
,
00001000
00000000
00010000
00000010
,
00000000
00000010
00010000
00000000
,
00011000
00000000
00000100
00001000
,
00000000
00001000
00000100
00000000
,
00000010
00000000
00000001
00001000
,
00000000
00000010
00001000
00000000
,
00001001
00000000
00000001
00000010
,
00000000
00000100
00000010
00000000
,
00000100
00000000
00001000
00000100
,
00000000
00010000
00001000
00000000
,
00011000
00000000
00100000
00010000
,
00100000
00010000
00100000
00000000
,
01100000
00000000
01000000
10000000
,
00100000
10000000
00100000
00000000
,
10010000
00000000
00010000
00100000
,
01000000
00100000
00010000
00000000
,
10010000
00000000
10000000
00100000
,
01000000
00010000
10000000
00000000
,
00200000
00000000
02300000
00000000
,
03020000
00000000
00000000
00030000
,
00200000
00000000
00302000
00000000
,
00023000
00000000
00000000
00030000
,
00000200
00000000
00002300
00000000
,
00003200
00000000
00000320
00000000
,
00000032
00000000
00000000
00000000
,
00000000
00000000
00000000
00000003
,
00000200
00000000
00000320
00000000
,
00002030
00000000
00003200
00000000
,
00000320
00000000
00000032
00000000
,
00000203
00000000
00000320
00000000
,
00002030
00000000
00003200
00000000
,
00020300
00000000
00032000
00000000
,
00023000
00000000
00030200
00000000
,
00002300
00000000
00000000
00003000
,
00001001
00001001
00001001
00000000
,
00000001
00000010
00000100
00000000
,
00000110
00000110
00000110
00000000
,
00000100
00010000
00001000
00000000
,
00011000
00011000
00011000
00000000
,
00010000
00001000
01000000
00000000
,
01100000
01100000
01100000
00000000
,
00100000
10000000
00010000
00000000
,
10010000
00000000
00010000
00100000
,
01000000
00100000
00010000
00000000
,
10010000
00000000
10000000
00100000
,
01000000
00010000
00100000
00000000
,
00011000
00000000
00001000
00010000
,
00000100
00001000
00000100
00000000
,
00000110
00000000
00000010
00000001
,
00001000
00000010
00000200
00000000
,
00000300
00000000
00000000
00000000
;

//--------------- dance-double - forcednature ----------------
#NOTEDATA:;
#STEPSTYPE:dance-double;
#DESCRIPTION:forcednature;
#CREDIT:forcednature;
#DIFFICULTY:Medium;
#METER:8;
#RADARVALUES:0,0,0,0,0;
#NOTES:
00000000
00000000
00000000
00000000
,
00000000
00000000
00000000
00000000
,
00000000
00000000
00000000
00000000
,
00000000
00000000
00000000
00000000
,
00000000
00000000
00000000
00000000
,
00001000
00010000
00000000
00010000
,
00001000
00100000
00000000
00100000
,
00010000
01000000
00000000
01000000
,
00200000
00000000
10300000
01000000
,
10010000
00000000
00010000
00100000
,
00001000
00000000
00010000
00000000
00001000
00010000
00001000
00000000
,
00010000
00000000
00000100
00001000
,
00000010
00000000
00001000
00000000
00000001
00001000
00000001
00000000
,
00000100
00000000
00000001
00000010
,
00000100
00000000
00000010
00000000
00000100
00001000
00000100
00000000
,
00001000
00000000
00000100
00010000
,
00002000
00000000
00000000
00003000
00010000
00001000
00010000
00000000
,
00011000
00000000
00001000
00100000
,
00010000
00100000
00010000
00000000
01000000
00000000
00010000
00000000
,
10000000
00000000
00100000
10000000
,
01000000
10000000
01000000
00000000
10000000
00000000
00010000
00000000
,
00100000
00000000
00001000
00010000
,
00001000
00010000
00001000
00000000
00010000
00000000
00000100
00000000
,
00001000
00000000
00000010
00001000
,
00000002
00000000
00000103
00000010
,
00000110
00000000
00001000
00000100
,
00010000
00001000
00010000
00000000
00001000
00000000
00100000
00000000
,
00010000
00000000
01000000
00010000
,
01000000
00100000
01000000
00000000
00100000
00000000
10000000
00000000
,
00010000
00000000
00100000
00010000
,
00100000
00010000
00100000
00000000
00001000
00000000
00010000
00000000
,
00001000
00000000
00010000
00000010
,
00001000
00000010
00001000
00000000
00000001
00000000
00000000
00000000
,
00000020
00000230
00002300
00003200
,
00020300
00000000
00000000
00030000
,
00002000
00203000
00320000
00230000
,
02300000
00000000
00000000
03000000
,
20000000
30020000
02030000
03020000
,
02030000
00000000
03200000
00000000
,
20300000
00000000
30020000
00000000
,
00230000
00000000
00300000
00000000
,
00020000
00230000
00302000
00023000
,
00030200
00000000
00002300
00000000
,
00003020
00000230
00000302
00000203
,
00000320
00000000
00002030
00000000
,
00003200
00020300
00032000
00203000
,
00302000
00000000
00023000
00000000
,
00030020
00000000
00020030
00000000
,
00032000
00000000
00010000
00013000
,
00011000
00011000
00011000
00000000
,
00100000
00010000
01000000
00001000
,
00011000
00011000
00011000
00000000
,
00000010
00001000
00000100
00010000
,
00011000
00101000
00011000
00000000
,
00010000
00000100
00001000
00000010
,
00011000
00010010
00011000
00001000
,
00010000
00001000
00200000
00300000
,
10010000
00000000
10000000
00000000
01000000
00100000
01000000
00000000
,
00100000
00010000
01000000
00000000
,
00010000
00000000
00100000
00000000
00001000
00010000
00001000
00000000
,
00010000
00000100
00001000
00000000
,
00000010
00000000
00000100
00000000
00000001
00000100
00000001
00000000
,
00000010
00000001
00001000
00000000
,
00000100
00000000
00010000
00000000
00001000
00010000
00001000
00000000
,
00100000
00010000
10000000
00200000
,
00300000
00000000
00000000
00000000
;

//--------------- dance-double - extraordiberry ----------------
#NOTEDATA:;
#STEPSTYPE:dance-double;
#DESCRIPTION:extraordiberry;
#CREDIT:extraordiberry;
#DIFFICULTY:Hard;
#METER:11;
#RADARVALUES:0,0,0,0,0;
#NOTES:
00000000
00000000
00000000
00000000
,
00000000
00000000
00000000
00000000
,
00000000
00000000
00000000
00000000
,
00000000
00000000
00000000
00000000
,
00000000
00000000
00000000
00000000
,
00010000
00001000
00000010
00000011
,
00000001
00000100
00001000
00011000
,
00010000
00100000
10000000
01000000
,
00020000
00000000
01000000
00000000
00001000
00001000
00031000
00000000
,
00011000
00000000
00010000
00000000
00001000
00000010
00000001
00000000
,
00001000
00000010
00000100
00000001
00001000
00000010
00010000
00000000
,
00011000
00000000
00001000
00000000
00010000
00100000
10000000
00000000
,
00010000
00100000
01000000
10000000
00010000
00100000
00001000
00000000
,
00011000
00000000
00010000
00000000
00001000
00000100
00000001
00000000
,
00001000
00000100
00000010
00000001
00001000
00000100
00010000
00000000
,
00011000
00000000
00000010
00000000
00001000
00000001
00001000
00000000
,
00000001
00000000
00000000
00000100
00000000
00000000
00001000
00000000
00000000
00000000
00000000
00000000
00010000
00000000
00001000
00000000
00010000
00000000
00002000
00000000
00000000
00000000
00000000
00000000
,
00013000
00000000
00001000
00010000
00100000
10000000
00010000
00000000
,
00010000
00100000
01000000
00000000
00100000
00001000
00020000
00000000
,
00031000
00000000
00010000
00001000
00000010
00000001
00001000
00000000
,
00001000
00000010
00000100
00000000
00000010
00010000
00001000
00000000
,
00011000
00000000
00001000
00010000
01000000
10000000
00010000
00000000
,
00010000
01000000
00100000
00000000
01000000
00001000
00020000
00000000
,
00031000
00000000
00010000
00001000
00000100
00000001
00001000
00000000
,
00000001
00000000
00000010
00000000
00000100
00000000
00000000
00010000
00000000
00001000
00010000
00000000
00002000
00000000
00000000
00000000
,
00013000
00000000
00000000
00000000
00000000
00001000
00010000
00000000
00000000
00000000
00000000
00000000
00001000
00000000
00000000
00000010
00000000
00000000
00000001
00000000
00000000
00000000
00000000
00000000
,
00001000
00000010
00000100
00000001
00001000
00000100
00020000
00000000
,
00031000
00000000
00000000
00000000
00000000
00010000
00001000
00000000
00000000
00000000
00000000
00000000
00010000
00000000
00000000
00100000
00000000
00000000
10000000
00000000
00000000
00000000
00000000
00000000
,
00010000
00100000
01000000
10000000
00010000
01000000
00001000
00000000
,
00010000
00000000
00000000
00000000
00000000
00001000
00010000
00000000
00000000
00000000
00000000
00000000
00001000
00000000
00000000
00000100
00000000
00000000
00000001
00000000
00000000
00000000
00000000
00000000
,
00001000
00000100
00000010
00000001
00001000
00000010
00020000
00000000
,
00031000
00000000
00000000
00000000
00000000
00010000
00001000
00000000
00000000
00000000
00000000
00000000
00010000
00000000
00000000
01000000
00000000
00000000
10000000
00000000
00000000
00000000
00000000
00000000
,
00010000
00000000
00000000
01000000
00000000
00000000
00100000
00000000
00000000
00000000
00000000
00000000
01100000
00000000
00000000
00000000
00000000
10000000
00020000
00000000
00000000
00000000
00000000
00000000
,
10030000
10010000
00020000
01000000
,
10000000
00100000
00031000
00000100
,
00000010
00001001
00002000
00000100
,
00000001
00000000
00000010
00000000
00013000
01000000
01000000
00000000
,
00100000
10010000
00020000
01000000
,
10000000
00000000
00100000
00000000
00031000
00000000
00000100
00000020
,
00000000
00000000
00000031
00000200
00000000
00000000
00001300
00020000
,
00000000
00000000
01000000
00000000
00001000
00001000
00031000
00000000
,
01000000
10010000
00020000
01000000
,
10000000
00000000
00100000
00000000
00031000
00000100
00000100
00000000
,
00001001
00000000
00002000
00000000
00000010
00000000
00013000
02000000
,
00000000
10000000
00100000
03010000
,
10000000
00010000
20000000
00000000
32000000
00000000
03200000
00000000
,
00320000
00000000
00032000
00000000
00003200
00000000
00001300
00000002
,
00000000
00000000
00000103
00000020
00000000
00000000
00010030
00002000
,
00000000
00000000
00000100
00000000
00010000
00010000
00013000
00000000
,
00001000
00000000
00000000
00001000
00010000
00000000
00000000
00010000
00100000
00000000
00000000
00100000
10000000
00000000
00000000
00000000
,
01000000
00010000
00001000
00011000
,
00010000
00000000
00000000
00010000
00001000
00000000
00000000
00001000
00000010
00000000
00000000
00000010
00000001
00000000
00000000
00000000
,
00000100
00000000
00000000
00001000
00000000
00000000
00010000
00000000
00001000
00000000
00001000
00000000
00010000
00000000
00000000
00000000
,
00001000
00000000
00000000
00001000
00010000
00000000
00000000
00010000
01000000
00000000
01000000
00000000
10000000
00000000
00000000
00000000
,
00100000
00010000
00001000
00011000
,
00010000
00000000
00000000
00010000
00001000
00000000
00000000
00001000
00000100
00000000
00000100
00000000
00000001
00000000
00000000
00000000
,
00000010
00000000
00001000
00001000
00010000
00010000
00002000
00000000
,
00013000
00000000
00000000
00000000
00000000
00001000
00010000
00000000
00000000
00001000
00000000
00000000
00000010
00000000
00000000
00000001
00000000
00000000
00001000
00000000
00000000
00000000
00000000
00000000
,
00000001
00000100
00000010
00001000
00000100
00000100
00020000
00000000
,
00031000
00000000
00000000
00000000
00000000
00010000
00001000
00000000
00000000
00010000
00000000
00000000
00100000
00000000
00000000
10000000
00000000
00000000
00010000
00000000
00000000
00000000
00000000
00000000
,
10000000
01000000
00100000
01000000
00010000
00001000
00010000
00000000
,
00011000
00000000
00000000
00000000
00000000
00001000
00010000
00000000
00000000
00001000
00000000
00000000
00000100
00000000
00000000
00000001
00000000
00000000
00001000
00000000
00000000
00000000
00000000
00000000
,
00000001
00000010
00000100
00001000
00000010
00000010
00020000
00000000
,
00031000
00000000
00000000
00000000
00000000
00010000
00001000
00000000
00000000
00010000
00000000
00000000
01000000
00000000
00000000
10000000
00000000
00000000
00100000
00000000
00000000
00000000
00000000
00000000
,
10000000
01000000
00100000
00010000
00001000
00000100
00000010
00000001
;

//--------------- dance-double - extraordiberry ----------------
#NOTEDATA:;
#STEPSTYPE:dance-double;
#DESCRIPTION:extraordiberry;
#CREDIT:extraordiberry;
#DIFFICULTY:Challenge;
#METER:15;
#RADARVALUES:0,0,0,0,0;
#NOTES:
00000000
00000000
00000000
00000000
,
00000000
00000000
00000000
00000000
,
00000000
00000000
00000000
00000000
,
00000000
00000000
00000000
00000000
,
00000000
00000000
00000000
00000000
,
00010000
00000000
00000000
00000000
00000000
00001000
00010000
00000000
00000000
00001000
00000000
00000000
01000000
00000000
00010000
00000000
00000000
00000000
01010000
00000000
00000000
00000000
00000000
00000000
,
00001000
00000000
00000000
00000000
00000000
00010000
00001000
00000000
00000000
00010000
00000000
00000000
00000100
00000000
00001000
00000000
00000000
00000000
00001100
00000000
00000000
00000000
00000000
00000000
,
00010000
00000000
00000000
00000000
00000000
00001000
00010000
00000000
00000000
00001000
00000000
00000000
01000000
00000000
00100000
00000000
00000000
00000000
10100000
00000000
00000000
00000000
00000000
00000000
,
10000000
01000000
00010000
00001000
00000010
00000001
00001000
00000000
,
00002001
00000000
00000000
00000000
00000000
00000000
00003001
00000000
00000000
00000100
00000000
00000010
00001000
00000000
00000000
00000010
00000000
00010000
00000000
00000000
00000000
00002000
00000000
00000000
,
00103000
00000000
00000000
01000000
00000000
00000000
00100000
00000000
00001000
00010000
00000000
00000000
00001000
00000000
01000000
00010000
00000000
00000000
20000000
00000000
00000000
00000000
00000000
00000000
,
30010000
00000000
00000000
10000000
00000000
00000000
10020000
00000000
00000000
00000000
00000000
00000000
10030000
00000000
00000000
01000000
00000000
00100000
00000000
00000000
00001000
00010000
00000000
00000000
,
00000010
00000000
00001000
00000010
00000000
00000000
00000100
00000000
00000001
00000100
00000000
00000000
00000010
00000000
00010000
00001000
00000000
00000000
00010000
00000000
00000100
00001000
00000000
00000000
,
00000001
00000000
00000000
00001000
00000000
00000000
00001001
00000000
00000000
00000001
00000000
00000100
00000010
00000000
00000000
00010000
00000000
00001000
00000000
00000000
00100000
00010000
00000000
00000000
,
10000000
00000000
00100000
01000000
00000000
00000000
00010000
00000000
10000000
01000000
00000000
00000000
00100000
00000000
00001000
00010000
00000000
00000000
00002000
00000000
00000000
00000000
00000000
00000000
,
00013000
00000000
00000000
00001000
00000000
00000000
00011000
00000000
00000000
00010000
00000000
00000010
00001000
00000000
00000000
00000001
00000000
00000100
00000000
00000000
00000010
00001000
00000000
00000000
,
00010000
00000000
00000000
01000000
00000000
00000000
00010000
10000000
00010000
10000000
00000000
00000000
01000000
00000000
00010000
00000000
00001000
00000000
00000020
00000000
00000000
00000000
00000000
00000000
,
00000031
00000000
00000000
00000010
00000000
00000000
00000011
00000000
00000000
00000001
00000000
00000100
00000000
00000000
00001000
00000100
00000000
00000000
00001000
00000000
00010000
00001000
00000000
00000000
,
00010000
00000000
00000000
00000100
00000000
00000000
00001000
00000000
00000100
00000010
00000000
00000000
00000001
00000000
00000100
00000010
00000000
00010000
00002000
00000000
00000000
00000000
00000000
00000000
,
00013000
00000000
00000000
00100000
00000000
00000000
10100000
00000000
00000000
10000000
00000000
01000000
00000000
00000000
00010000
01000000
00000000
00000000
00010000
00000000
00001000
00010000
00000000
00000000
,
00001000
00000000
00000000
01000000
00000000
00000000
00010000
00000000
01000000
00100000
00000000
00000000
10000000
00000000
00000000
01000000
00000000
00000000
00020000
00000000
00000000
00000000
00000000
00000000
,
00031000
00000000
00000000
00000010
00000000
00000000
00000011
00000000
00000000
00000001
00000000
00000100
00000000
00000000
00001000
00000100
00000000
00000000
00001000
00000000
00010000
00001000
00000000
00000000
,
01000000
00000000
00100000
10000000
00000000
00000000
01000000
00000000
00100000
00010000
00000000
00000000
10000000
00000000
01000000
00010000
00000000
00001000
00020000
00000000
00000000
00000000
00000000
00000000
,
00031000
00000000
00000000
00000010
00000000
00000000
00000011
00000000
00000000
00000001
00000000
00000100
00000010
00000000
00001000
00000010
00000000
00010000
00001000
00000000
01000000
00010000
00000000
00000000
,
20000000
00000000
00000000
00000000
30010000
00000000
10000000
01000000
00000000
10000000
01000000
00010000
00001000
00010000
00001000
00000000
,
00011000
00000000
00000000
00010000
00000000
00000010
00001000
00000000
00000000
00000001
00000000
00000010
00000100
00000000
00001000
00000001
00000000
00000100
00000010
00000000
00000000
00001000
00000000
00000000
,
00010000
00000000
00000000
01000000
00000000
00100000
10000000
00000000
00000000
00010000
00000000
00000000
00100000
00000000
00001000
00010000
00000000
00000000
00200000
00000000
00000000
00000000
00000000
00000000
,
10300000
00000000
00000000
00100000
00000000
10000000
00010000
00000000
00000000
00100000
00000000
00001000
00010000
00000000
00000100
00001000
00000000
00000100
00000010
00000000
00000000
00000001
00000000
00000000
,
00000100
00000000
00000000
00001000
00000000
00010000
00001000
00000000
00000000
00010000
00000000
00000000
00000100
00000000
00000010
00000001
00000000
00000000
00001000
00000000
00000000
00000010
00000000
00000000
,
00010000
00000000
00000000
00001000
00000000
00100000
00010000
00000000
00000000
10000000
00000000
00100000
01000000
00000000
00010000
10000000
00000000
01000000
00100000
00000000
00000000
00010000
00000000
00000000
,
00001000
00000000
00000000
00000100
00000000
00000010
00000001
00000000
00000000
00001000
00000000
00000000
00000010
00000000
00010000
00001000
00000000
00000000
00000020
00000000
00000000
00000000
00000000
00000000
,
00000031
00000000
00000000
00000010
00000000
00000001
00001000
00000000
00000000
00000010
00000000
00010000
00001000
00000000
01000000
00010000
00000000
10000000
01000000
00000000
00100000
01000000
00000000
00000000
,
00010000
00000000
00000000
00001000
00000000
00000000
00000010
00000000
00000000
00000001
00000000
00000000
00000100
00000000
00000000
00001000
00000000
00000000
00010000
00000000
00001000
00010000
00000000
00000000
,
00002000
00023000
00032000
00203000
00320000
20030000
30200000
02300000
,
00000000
00000000
03002000
00003200
00000000
00000310
00000010
00000000
,
00020000
00032000
00023000
00030200
00002300
00003002
00000203
00000320
,
00000000
00000000
00020030
00230000
00000000
01300000
01000000
00000000
,
00002000
00023000
00230000
20300000
30020000
00230000
02300000
23000000
,
00000000
00000000
30020000
00032000
00000000
00003200
00000320
00000032
,
00000000
00000000
00000203
00000320
00000000
00000000
00020030
00032000
,
00000000
00000000
00100000
00000000
00010000
00010000
00013000
00000000
,
00002000
02003000
03020000
20030000
32000000
03020000
00032000
00003020
,
00000000
00000000
00002030
02003000
00000000
03100000
00100000
00000000
,
00020000
00030200
00002300
00003002
00000203
00000320
00002030
00023000
,
00000000
01030000
00010000
10000000
01000000
00010000
00001000
00000010
,
00000002
00000203
00002300
00023000
00030200
00000320
00000032
00000203
,
00000000
00000320
00002030
00203000
00000000
20300000
30020000
00230000
,
00000000
00000000
00302000
00003020
00000000
00000000
00002030
00020000
,
00000000
00000000
00033000
00000000
,
00010000
00000000
00000000
00001000
00000000
00000010
00000001
00000000
00000000
00000100
00000000
00001000
00010000
00000000
00000000
00001000
00000000
00000010
00000001
00000000
00000000
00001000
00000000
00000000
,
00000001
00000000
00001000
00000010
00001000
00000000
00000001
00000010
00000001
00000000
00001000
00000010
00020000
00000000
00000000
00000000
,
00031000
00000000
00000000
00010000
00000000
00100000
10000000
00000000
00000000
01000000
00000000
00010000
00001000
00000000
00000000
00010000
00000000
00100000
10000000
00000000
00000000
00010000
00000000
00000000
,
10000000
00000000
00000000
00000000
00000000
00000000
00010000
00000000
00000000
00100000
00000000
00000000
00000000
00000000
00000000
00010000
00000000
00000000
10000000
00000000
00000000
00100000
00000000
00000000
10000000
00000000
00000000
00000000
00000000
00000000
10000000
00000000
00000000
00000000
00000000
00000000
00010000
00000000
00000000
00000000
00100000
00000000
00001000
00000000
00000000
00000000
00000000
00000000
,
00010000
00000000
00001000
00000100
00000000
00000000
00000010
00000000
00010000
00001000
00000000
00000000
00000010
00000000
00000000
00000010
00000000
00000000
00000001
00000000
00001000
00000010
00000000
00000000
,
00010000
00001000
00000100
00001000
00010000
00000100
00020000
00000000
,
00031000
00000000
00010000
01000000
00000000
00000000
00100000
00000000
00001000
00010000
00000000
00000000
00100000
00000000
00000000
00100000
00000000
00000000
10000000
00000000
00010000
00100000
00000000
00000000
,
00001000
00000000
00000000
00010000
00000000
01000000
00100000
00000000
00000000
00100000
00000000
00000000
00001000
00000000
00010000
00001000
00000000
00000000
00012000
00000000
00000000
00000000
00000000
00000000
,
00013000
00000000
00000000
00000100
00000000
00001000
00000100
00000000
00000000
00000010
00000000
00000001
00000000
00000000
00001000
00000010
00000000
00000100
00000001
00000000
00000000
00001000
00000000
00000000
,
00000010
00000000
00010000
00001000
00000000
00000000
01000000
00000000
00100000
10000000
00000000
00000000
00010000
00000000
10000000
01000000
00000000
00000000
00020000
00000000
00000000
00000000
00000000
00000000
,
00031000
00000000
00000000
01000000
00000000
00010000
01000000
00000000
00000000
00100000
00000000
10000000
00000000
00000000
00010000
00100000
00000000
01000000
10000000
00000000
00000000
00010000
00000000
00000000
,
00100000
00000000
00001000
00010000
00000000
00000000
00000100
00000000
00000010
00000001
00000000
00000000
00001000
00000000
00000001
00000100
00000000
00000010
00001000
00000000
00000000
00010000
00000000
00000000
,
01000000
00000000
00000000
00001000
00000000
00010000
00001000
00000000
00000000
00100000
00000000
01000000
00000000
00000000
10000000
00010000
00000000
01000000
00100000
00000000
00010000
00001000
00000000
00000000
,
00010000
00000000
00000000
00000100
00000000
00001000
00000001
00000000
00000000
00000100
00000000
00000000
00000010
00000000
00010000
00001000
00000000
00000000
00000200
00000000
00000000
00000000
00000000
00000000
,
00001300
00000000
00000000
00010000
00000000
00001000
00100000
00000000
00000000
00010000
00000000
10000000
01000000
00000000
00100000
00010000
00000000
00001000
00000100
00000000
00000010
00000001
00000000
00000000
,
00000100
00000000
00000000
00010000
00000000
00000000
01000000
00000000
00000000
00100000
00000000
00000000
10000000
00000000
01000000
00010000
00000000
00001000
00020000
00000000
00000000
00000000
00000000
00000000
,
00030000
00000000
00000000
00000000
;
