#VERSION:0.83;
#TITLE:Go Faraway;
#SUBTITLE:;
#ARTIST:DJ Noriken feat. Yukacco;
#TITLETRANSLIT:;
#SUBTITLETRANSLIT:;
#ARTISTTRANSLIT:;
#GENRE:TRAPSTYLE;
#CREDIT:;
#MUSIC:Go Faraway.ogg;
#BANNER:Go Faraway.png;
#BACKGROUND:Go Faraway-bg.png;
#CDTITLE:./CDTitles/bm IIDX 23 copula.png;
#SAMPLESTART:95.621;
#SAMPLELENGTH:15.000;
#SELECTABLE:YES;
#OFFSET:-0.851;
#BPMS:0.000=150.000
,60.000=75.000
,63.500=150.000
,220.000=37.500
,221.000=75.000
,224.500=150.000
;
#STOPS:63.500=0.200
,224.500=0.200
;
#TIMESIGNATURES:0.000=4=4,
60.000=2=4,
64.000=4=4,
220.000=1=4,
221.000=2=4,
225.000=4=4
;
#DISPLAYBPM:75.000:150.000;
#BGCHANGES:0.000=../BGAs/22wh.mp4=1.000=0=0=0=StretchNoLoop====,
99999.000=-nosongbg-=1.000=0=0=0=StretchNoLoop====
;
#FGCHANGES:;

//--------------- dance-single - forcednature ----------------
#NOTEDATA:;
#STEPSTYPE:dance-single;
#DESCRIPTION:forcednature;
#DIFFICULTY:Beginner;
#METER:3;
#RADARVALUES:0,0,0,0,0;
#CREDIT:forcednature;
#NOTES:
0000
0000
0000
0000
,
0000
0000
0000
0000
,
0000
0000
0000
0000
,
0000
0000
0000
0000
,
0000
0000
0000
0000
,
0001
0000
0000
0000
,
0001
0000
0001
0000
,
1000
0000
0000
0000
,
0010
0000
0000
0000
,
1001
0000
0000
0000
,
1000
0000
0000
0000
,
1001
0000
0000
0000
,
0001
0000
0000
0000
,
0010
0000
0010
0000
,
0001
0000
0001
0000
,
0200
0000
0000
0000
0000
0000
0000
0300
,
0000
0000
0010
0000
,
0000
0000
0010
0000
,
0000
0000
1000
0000
,
0000
0000
0001
0000
,
0000
0000
1000
0000
,
0000
0000
0100
0000
,
1000
0000
1000
0000
,
0001
0000
0000
0000
,
0000
0000
1001
0000
,
0000
0000
0001
0000
,
0000
0000
0100
0000
,
0000
0000
0001
0000
,
0010
0000
0000
0000
,
0010
0000
0010
0000
,
0100
0000
0010
0000
,
0100
0000
0000
0000
,
1001
0000
0000
0000
,
0000
0000
0000
0000
,
1000
0000
0000
0000
,
0010
0000
0000
0000
,
0100
0000
0000
0000
,
0000
0000
0000
0000
,
0001
0000
0000
0000
,
1000
0000
1000
0000
,
0100
0000
0000
0000
,
0100
0000
0000
0000
,
1000
0000
0000
0000
,
0010
0000
0000
0000
,
0100
0000
0000
0000
,
0100
0000
0000
0000
,
0001
0000
0000
0000
,
0010
0000
0000
0000
,
2002
0000
0000
0000
,
0000
0000
0000
0000
,
0000
0000
0000
0000
,
0000
0000
3003
0000
,
0001
0000
0000
0000
,
1000
0000
0000
0000
,
0010
0000
0010
0000
,
0100
0220
0000
0000
,
0000
0330
0000
0000
0000
0000
1000
0000
,
0000
1000
0000
1000
,
0000
0000
0000
0100
,
0000
1000
0000
0001
,
0000
0000
0000
0010
,
0000
0010
0000
0010
,
0000
0000
0000
0001
,
0000
1000
0000
0010
,
0000
0000
0000
0100
,
0000
0001
0000
0100
,
0000
0000
0000
0001
,
0000
1000
0000
0100
,
0000
0010
0000
0100
,
0000
1000
0000
0100
,
0000
0010
0000
0010
,
0000
0000
0000
0001
,
0000
1001
0000
0000
;

//--------------- dance-single - forcednature ----------------
#NOTEDATA:;
#STEPSTYPE:dance-single;
#DESCRIPTION:forcednature;
#DIFFICULTY:Easy;
#METER:6;
#RADARVALUES:0,0,0,0,0;
#CREDIT:forcednature;
#NOTES:
0000
0000
0000
0000
,
0000
0000
0000
0000
,
0000
0000
0000
0000
,
0000
0000
0000
0000
,
0000
0000
0000
0000
,
1000
0000
1001
0000
,
0001
0010
0100
0000
,
0010
0000
1001
0000
,
0220
0000
0330
0000
,
0001
0000
0001
0001
,
0100
0000
0100
0100
,
0010
0000
0010
0010
,
1000
0000
1000
1000
,
0001
0000
0010
0001
,
0100
0000
0010
1000
,
0200
0000
0000
0000
0020
0000
0000
0330
,
0000
0001
1000
0001
,
0000
0100
0000
0110
,
0000
1000
0001
1000
,
0000
0100
0000
0110
,
0000
0001
0010
0100
,
0000
0010
0000
1001
,
0000
1000
0000
1000
,
0010
0100
0100
0010
,
0000
1001
0000
0001
,
0010
0100
0010
0001
,
0000
0110
0000
1000
,
0010
0100
0010
1000
,
0000
0001
0001
0100
,
0000
0001
0010
0100
,
0000
1000
1000
0100
,
0020
0000
0000
0030
,
1001
0000
0000
0000
,
1000
0000
0010
0000
,
0100
0000
0000
0000
,
0001
0000
1000
0000
,
0100
0000
0000
0000
,
0010
0000
0001
0000
,
1000
0000
0000
0000
,
0010
0010
0100
0000
,
0110
0000
0001
0000
,
0001
0000
0010
0000
,
0001
0000
1000
0000
,
0100
0100
1000
0000
,
0010
0000
1000
0000
,
0001
0000
0100
0000
,
0001
0000
0010
0000
,
0220
0000
0330
0000
,
2002
0000
0000
0000
,
0000
0000
0000
0000
,
0000
0000
0000
0000
,
0000
0000
3003
0000
,
1000
0100
1000
0100
,
0010
0001
0010
0001
,
1000
1000
0001
0001
,
0100
0220
0000
0000
,
0000
0330
0000
0000
0001
0000
1000
0000
,
0001
0100
0010
1000
,
0001
0010
0001
0010
,
0001
0100
0010
1000
,
1001
0000
1000
0100
,
1000
0001
0100
0001
,
0100
0010
1000
0001
,
0010
0001
0001
0100
,
0110
0000
1000
0001
,
1000
0010
0100
0001
,
0100
0010
1000
0001
,
1000
0010
0100
0001
,
1001
0000
1000
1000
,
0100
0100
1000
0010
,
1000
0001
0010
0100
,
0100
0000
0010
0001
,
0100
2002
0000
0000
,
0000
3003
0000
0000
;

//--------------- dance-single - forcednature ----------------
#NOTEDATA:;
#STEPSTYPE:dance-single;
#DESCRIPTION:forcednature;
#DIFFICULTY:Medium;
#METER:9;
#RADARVALUES:0,0,0,0,0;
#CREDIT:forcednature;
#NOTES:
0000
0000
0000
0000
,
0000
0000
0000
0000
,
0000
0000
0000
0000
,
0000
0000
0000
0000
,
0000
0000
0000
0000
,
0001
0000
1001
0000
,
1000
0100
0010
0000
,
0100
0000
1001
0000
,
0220
0000
0000
0330
,
1001
0000
1000
0100
,
1000
0010
0100
0000
,
1001
0000
0001
0100
,
0001
0010
0100
0000
,
0010
0000
0000
0010
0000
0000
0001
0000
0000
0001
0000
0000
0100
0000
0000
0100
,
0000
0000
0010
0000
0000
0010
0000
0000
1000
0000
0000
0100
0000
0000
0010
0000
,
0002
0000
0000
0000
2000
0000
0000
3003
,
0101
1000
1010
0001
,
1000
0100
0010
0000
0110
0000
0001
0000
,
0101
1000
1010
0001
,
1000
0010
0100
0000
0110
0000
0001
0000
,
1100
0001
0011
1000
,
0001
0100
0010
0000
0110
0000
1000
0000
,
2100
0001
0010
3001
,
0100
0000
0010
0100
0010
0000
0110
0000
,
0000
0001
1000
0000
1000
0000
0001
0010
,
0000
0001
0100
0000
0010
0100
0020
0000
,
0030
1000
0001
0000
0001
0000
0010
0001
,
0000
0100
0010
0000
1000
0000
1001
0000
,
0001
0000
0000
0001
0000
0000
0010
0000
0000
0010
0000
0000
0001
0000
0000
0001
,
0000
0000
0100
0000
0000
0100
0000
0000
0010
0000
0000
0000
1001
0000
0000
0000
,
2100
0001
0010
3001
,
0220
0000
0000
0330
,
1001
1000
0100
0000
,
1000
0010
0200
0302
,
0003
0010
0001
0000
,
0100
0010
2000
3002
,
0003
0010
0100
0000
,
1000
0100
2000
3002
,
0003
0010
0001
1000
,
0000
0020
0230
0302
,
0003
1000
1001
0000
,
0001
0010
0200
0320
,
0030
0001
1001
0000
,
1000
0010
0200
0320
,
0030
1000
1100
0000
,
0001
0100
0020
2030
,
3000
0001
0011
0100
,
2002
0000
0000
3003
,
0110
0001
0010
0200
,
0300
0010
0001
1000
,
0010
0100
0001
0200
,
0300
0010
1000
0001
,
1001
0000
1000
0100
0000
1000
0001
0000
,
1000
0010
0000
1000
0001
0000
0010
0000
,
0110
0000
1100
0000
0001
0010
0100
0000
,
1001
2000
0000
0002
,
0000
3003
1100
0000
0001
0010
0100
0000
,
0010
0000
0001
0100
0001
0000
1000
0100
,
1000
0000
0011
0000
0001
0100
0010
0000
,
1000
0000
0100
0010
0001
0000
0100
0010
,
1000
0000
1001
0000
0001
0010
0100
0000
,
0010
0000
0001
1000
0010
0000
1000
0001
,
0010
0000
0110
0000
1000
0001
0100
0000
,
0010
0000
0000
0000
1000
0000
0000
1000
0000
0000
0001
0000
0010
0000
0000
0000
,
0220
0000
0330
1000
0001
0000
1000
0010
,
1000
0000
0110
0000
1100
0000
0001
0010
,
0100
0000
0110
0000
0001
1000
0100
0000
,
0010
0000
0110
0000
1100
0000
0001
1000
,
0010
0000
0000
0000
0100
0000
0000
0100
0000
0000
0001
0000
0000
0001
0000
0000
,
1000
0000
0000
1000
0000
0000
0001
0000
0000
0001
0000
0000
0010
0000
0000
0000
,
0110
0000
1100
0000
1100
0000
0001
0010
,
0001
0000
0010
0000
0000
0000
0001
0000
0000
1000
0000
0000
1001
0000
0000
0000
,
0110
2002
0000
0000
,
0000
3003
0000
0000
;

//--------------- dance-single - forcednature ----------------
#NOTEDATA:;
#STEPSTYPE:dance-single;
#DESCRIPTION:forcednature;
#DIFFICULTY:Hard;
#METER:14;
#RADARVALUES:0,0,0,0,0;
#CREDIT:forcednature;
#NOTES:
0000
0000
0000
0000
,
0000
0000
0000
0000
,
0000
0000
0000
0000
,
0000
0000
0000
0000
,
0000
0000
0000
0000
,
1001
0000
1000
0000
0100
0000
1000
0010
,
0100
0000
0000
0100
0000
0000
0001
0000
0011
0000
0000
0000
1000
0000
0000
0000
,
0001
0000
0001
0000
0100
0000
0001
0010
,
0220
0000
0000
0330
,
1001
0000
0000
1000
0100
0000
1000
0000
0001
0000
0010
0000
0100
0000
0010
0000
,
0001
0000
0000
0001
0100
0000
0001
0000
1000
0000
0010
0000
0100
0000
0000
0000
,
1001
0000
0000
0001
0010
0000
0100
0000
0010
0000
0001
0000
1000
0000
0100
0000
,
1000
0000
0000
1000
0010
0000
0100
0000
0001
0000
0010
0000
0100
0000
0000
0000
,
1001
0000
0000
1000
0100
0000
1000
0000
0010
0100
0000
0100
0001
0000
0010
0100
,
0000
0100
1000
0000
0001
0100
0000
0010
1000
0000
0100
0010
0000
0001
1000
0000
,
0020
0100
0100
0100
2000
0000
0000
3030
,
0001
0000
0000
0100
0001
0100
0001
0000
1000
0000
0010
0000
0100
0000
0001
0000
,
0010
0000
0000
0100
0010
0100
0010
0000
0100
0000
1000
0000
0002
0000
0000
0000
,
0103
0000
0000
0010
1000
0010
1000
0000
0001
0000
0010
0000
0100
0000
0010
0000
,
0001
0000
0000
1000
0100
1000
0100
0000
1000
0000
0001
0000
0010
0000
0000
0000
,
1001
0000
0000
1000
0010
1000
0010
0000
0100
0000
0001
0000
0010
0000
0100
0000
,
1000
0000
0000
0001
0100
0001
0100
0000
0010
0000
1000
0000
0002
0000
0000
0000
,
0013
0000
0000
0100
0010
0100
0010
0000
0100
0000
0000
1000
0010
0000
0100
0000
,
0001
0000
0000
0010
0001
0000
0100
0000
0010
0000
0000
0000
2002
0000
0000
0000
,
3003
0000
1000
0000
0100
0000
0001
0000
0100
0000
1000
0100
1000
0000
0001
0000
,
0000
0000
0010
0000
0001
0010
0001
0000
0100
0000
0010
0000
2000
0000
0000
0000
,
3000
0000
0001
0000
0100
0000
1000
0000
0100
0000
0001
0100
0001
0000
1000
0000
,
0000
0000
0010
0000
0100
0010
0100
0000
0001
0000
0010
0000
1001
0000
0000
0000
,
1100
0000
0000
0001
0010
0000
0100
0010
0100
0000
0000
1000
0010
0000
0100
0010
,
0100
0000
0000
0001
0010
0000
0100
0010
0100
0000
0000
1000
0010
0000
0100
0010
,
0100
0000
0001
0000
0010
0001
0010
0000
0001
0000
1000
0001
1000
0000
0100
0000
,
0010
0001
0010
0001
0100
0010
1000
0100
0010
0002
0000
0000
,
0003
0000
0100
0010
2000
0000
3000
0001
,
0100
2000
0000
3100
0002
0000
2003
0000
,
3000
0000
0010
0100
0002
0000
0003
0010
,
0100
2000
0000
3100
0001
0100
2000
0000
,
3000
0000
0001
0010
0200
0000
0300
0010
,
0001
2000
0000
3010
0200
0000
0302
0000
,
0003
0000
1000
0010
0002
0000
0013
2000
,
0000
3001
0010
0100
1000
0010
0100
0000
,
1001
0000
1000
0100
0010
0000
0010
0001
,
0100
0000
0100
0010
1000
0000
0110
0000
,
1001
0000
0001
0100
0010
0000
0010
1000
,
0001
0000
0000
0001
0000
0000
0010
0000
0100
0000
0000
0000
0110
0000
0000
0000
,
1001
0000
1000
0100
0010
0000
0010
0001
,
0100
0000
0000
0100
0000
0000
0010
0000
1000
0000
0000
0000
1001
0000
0000
0000
,
0001
0000
0001
0100
1000
0000
0100
0000
,
2002
0000
0000
3003
,
1100
0000
0001
0010
0100
0010
0100
1000
,
0001
0200
0000
0320
0000
1030
0001
0010
,
0100
1000
0001
0200
0000
0310
1000
0001
,
0010
0002
0000
0103
0010
1000
0100
0000
,
1001
0000
0000
1000
0100
0000
1000
0000
0010
0000
0000
0100
0001
0000
0010
0000
,
0001
0000
0100
0000
0010
0100
0000
0010
1000
0000
0100
1000
0000
0001
0010
0000
,
0100
0010
0100
0000
1000
0100
1000
0000
0001
0010
0001
0000
0100
0000
0000
0000
,
1001
0000
2010
0010
0010
0010
0002
0000
,
0000
0000
3003
0000
1000
0000
0100
0000
0010
0000
0100
0000
1000
0001
0000
0010
,
0001
0010
0001
0000
0100
0000
0010
0000
1000
0000
0001
0000
0010
0100
0000
1000
,
0100
1000
0100
0000
0010
0000
0001
0000
1000
0000
0010
0000
0100
0001
0000
0100
,
0010
0100
0010
0000
1000
0000
0001
0010
0100
0000
1000
0010
0100
0000
0001
0000
,
0010
0000
0000
0000
1001
0000
1000
0000
0100
0000
0010
0000
0100
1000
0000
0001
,
0010
0001
0010
0000
0100
0000
0010
0000
0001
0000
1000
0000
0010
0100
0000
0001
,
0100
0001
0100
0000
0010
0000
1000
0000
0001
0000
0010
0000
0100
1000
0000
0010
,
0100
0010
0100
0000
0001
0000
0010
0001
0100
0000
0010
1000
0100
0000
0000
0000
,
1001
0000
0000
0000
0000
0000
0001
0010
0100
0000
0010
0000
0001
1000
0000
0010
,
0100
0010
1000
0000
0001
0000
0010
0001
1000
0000
0100
0000
0010
0100
0000
0010
,
0001
0010
0001
0000
1000
0000
0010
0100
0001
0000
0010
0000
0100
1000
0000
0001
,
0100
0001
0100
0000
0010
0000
1000
0100
0000
1000
0001
0000
0010
0001
0100
0000
,
0010
0000
0000
0000
0100
0010
0000
1000
0010
0000
0100
0001
0000
0010
0001
0000
,
0100
0010
0000
1000
0100
0000
0010
0001
0000
1000
0010
0000
0100
0001
0000
0010
,
0100
0000
1000
0001
1000
0000
0010
0000
0100
0000
0001
0000
0010
0100
0010
0100
,
0010
0100
0010
0100
0000
0000
1100
0000
0000
1001
0000
0000
0021
0000
0000
0000
,
0130
2002
0000
0000
,
0000
3003
0000
0000
;

//--------------- dance-double - forcednature ----------------
#NOTEDATA:;
#STEPSTYPE:dance-double;
#DESCRIPTION:forcednature;
#DIFFICULTY:Easy;
#METER:6;
#RADARVALUES:0,0,0,0,0;
#CREDIT:forcednature;
#NOTES:
00000000
00000000
00000000
00000000
,
00000000
00000000
00000000
00000000
,
00000000
00000000
00000000
00000000
,
00000000
00000000
00000000
00000000
,
00000000
00000000
00000000
00000000
,
00001000
00000000
00011000
00000000
,
00100000
00010000
00100000
00000000
,
01000000
00000000
10010000
00000000
,
02200000
00000000
03300000
00000000
,
00010000
00000000
00010000
00010000
,
00100000
00000000
00100000
00100000
,
00001000
00000000
00001000
00001000
,
00010000
00000000
00010000
00010000
,
00000010
00000000
00001000
00000100
,
00000010
00000000
00000001
00000100
,
00000020
00000000
00000000
00000000
00000200
00000000
00000000
00000330
,
00000000
00001000
00000100
00001000
,
00000000
00000100
00000000
00011000
,
00000000
00100000
00010000
00100000
,
00000000
01000000
00000000
10010000
,
00000000
00010000
01000000
00010000
,
00000000
00100000
00000000
00011000
,
00000000
00000010
00000000
00000010
,
00001000
00000100
00000100
00001000
,
00000000
00001001
00000000
00000001
,
00000010
00000100
00000010
00000001
,
00000000
00000110
00000000
00001000
,
00000010
00010000
00001000
00010000
,
00000000
00001000
00001000
00100000
,
00000000
00010000
01000000
00100000
,
00000000
10000000
10000000
01000000
,
00200000
00000000
00000000
00300000
,
10010000
00000000
00000000
00000000
,
00010000
00000000
00100000
00000000
,
00001000
00000000
00000000
00000000
,
00010000
00000000
00000010
00000000
,
00001000
00000000
00000000
00000000
,
00000001
00000000
00000010
00000000
,
00000100
00000000
00000000
00000000
,
00001000
00001000
00000100
00000000
,
00011000
00000000
00100000
00000000
,
00100000
00000000
00010000
00000000
,
01000000
00000000
00100000
00000000
,
10000000
10000000
01000000
00000000
,
10000000
00000000
00010000
00000000
,
00100000
00000000
00001000
00000000
,
00010000
00000000
00000010
00000000
,
00000220
00000000
00000330
00000000
,
00002002
00000000
00000000
00000000
,
00000000
00000000
00000000
00000000
,
00000000
00000000
00000000
00000000
,
00000000
00000000
00003003
00000000
,
00000001
00000100
00000001
00000100
,
00000010
00001000
00000010
00001000
,
00000100
00000100
00010000
00010000
,
00001000
00022000
00000000
00000000
,
00000000
00033000
00000000
00000000
00100000
00000000
00010000
00000000
,
00100000
01000000
10000000
01000000
,
00100000
00001000
00010000
00001000
,
00010000
00000100
00001000
00000010
,
00000110
00000000
00000001
00000100
,
00000001
00000010
00000100
00000010
,
00000100
00001000
00000100
00010000
,
00001000
00010000
00010000
00001000
,
00011000
00000000
00100000
00010000
,
00100000
01000000
10000000
01000000
,
00100000
00010000
00100000
00001000
,
00010000
00000010
00001000
00000010
,
00000110
00000000
00000100
00000100
,
00000001
00000001
00001000
00000010
,
00010000
00001000
00100000
00010000
,
00010000
00000000
01000000
00100000
,
10000000
20020000
00000000
00000000
,
00000000
30030000
00000000
00000000
;

//--------------- dance-double - forcednature ----------------
#NOTEDATA:;
#STEPSTYPE:dance-double;
#DESCRIPTION:forcednature;
#DIFFICULTY:Medium;
#METER:9;
#RADARVALUES:0,0,0,0,0;
#CREDIT:forcednature;
#NOTES:
00000000
00000000
00000000
00000000
,
00000000
00000000
00000000
00000000
,
00000000
00000000
00000000
00000000
,
00000000
00000000
00000000
00000000
,
00000000
00000000
00000000
00000000
,
00010000
00000000
00011000
00000000
,
00100000
00010000
01000000
00000000
,
00100000
00000000
10010000
00000000
,
02200000
00000000
00000000
03300000
,
10010000
00000000
10000000
01000000
,
10000000
00010000
00100000
00000000
,
00011000
00000000
00000100
00001000
,
00000010
00000100
00000001
00000000
,
00000010
00000000
00000000
00000010
00000000
00000000
00000100
00000000
00000000
00000100
00000000
00000000
00001000
00000000
00000000
00001000
,
00000000
00000000
00000100
00000000
00000000
00000100
00000000
00000000
00010000
00000000
00000000
00000000
00001000
00000000
00100000
00000000
,
00020000
00000000
00000000
00000000
20000000
00000000
00000000
30030000
,
01010000
10000000
10100000
00010000
,
10000000
01000000
00100000
00000000
00110000
00000000
00001000
00000000
,
00011000
00000100
00001100
00000010
,
00001000
00000001
00000100
00000000
00000110
00000000
00001000
00000000
,
00001100
00010000
00011000
00100000
,
00010000
01000000
00100000
00000000
01100000
00000000
10000000
00000000
,
21000000
00010000
00100000
30010000
,
10000000
00000000
01000000
10000000
00010000
00000000
00110000
00000000
,
00000000
00001000
00010000
00000000
00010000
00000000
00000100
00001000
,
00000000
00000010
00000100
00000000
00000001
00000100
00000002
00000000
,
00000003
00000010
00000100
00000000
00000100
00000000
00001000
00000100
,
00000000
00010000
00001000
00000000
00100000
00000000
10010000
00000000
,
00010000
00000000
00010000
01000000
00100000
00000000
10000000
01000000
,
00100000
00000000
00010000
01000000
00001000
00000000
00011000
00000000
,
00000200
00001000
00000010
00001300
,
00000022
00000000
00000000
00000033
,
00001001
00001000
00000100
00000000
,
00010000
00001000
02000000
03020000
,
00030000
10000000
00100000
00000000
,
10000000
00010000
00200000
00302000
,
00003000
00010000
00000100
00000000
,
00010000
00001000
00020000
00030020
,
00000030
00001000
00000001
00000010
,
00000000
00000200
00002300
00003002
,
00000003
00000100
00000110
00000000
,
00001000
00000100
00020000
00032000
,
00003000
00100000
00110000
00000000
,
00010000
01000000
00200000
20300000
,
30000000
00010000
00110000
00000000
,
00001000
00010000
00000200
00002300
,
00003000
00000010
00000110
00000001
,
00002002
00000000
00000000
00003003
,
00010000
00001000
00100000
00020000
,
00030000
01000000
00100000
10000000
,
01000000
00100000
00001000
00020000
,
00030000
00000100
00001000
00000010
,
00000110
00000000
00000001
00001000
00000000
00000100
00001000
00000000
,
00000100
00010000
00000000
00001000
00010000
00000000
00001000
00000000
,
00011000
00000000
00100000
00000000
00010000
01000000
00100000
00000000
,
10010000
20000000
00000000
00020000
,
00000000
30030000
11000000
00000000
00010000
00100000
00001000
00000000
,
00010000
00000000
00000010
00001000
00000010
00000000
00000100
00000001
,
00000100
00000000
00000011
00000000
00001000
00000100
00010000
00000000
,
00001000
00000000
00100000
00010000
01000000
00000000
00100000
10000000
,
01000000
00000000
10010000
00000000
00010000
00100000
00001000
00000000
,
00010000
00000000
00000010
00001000
00000001
00000000
00000010
00000001
,
00001000
00000000
00001100
00000000
00010000
00001000
00100000
00000000
,
00010000
00000000
00000000
00000000
01000000
00000000
00000000
01000000
00000000
00000000
00100000
00000000
10000000
00000000
00000000
00000000
,
20020000
00000000
30030000
00000000
00110000
00000000
00001000
00010000
,
00001000
00000000
00011000
00000000
00010100
00000000
00000100
00001000
,
00000001
00000000
00000011
00000000
00001000
00000010
00010000
00000000
,
00001000
00000000
00011000
00000000
00100000
00000000
00010000
10000000
,
00100000
00000000
00000000
00000000
01000000
00000000
00000000
01000000
00000000
00000000
00010000
00000000
00000000
00010000
00000000
00000000
,
00100000
00000000
00000000
00100000
00000000
00000000
00001000
00000000
00000000
00001000
00000000
00010000
00000000
00000000
00000000
00000000
,
00011000
00000000
00001100
00000000
00001100
00000000
00000001
00000010
,
00000001
00000000
00000010
00000000
00000000
00000000
00000001
00000000
00000000
00001000
00000000
00000000
00001001
00000000
00000000
00000000
,
00000110
00002002
00000000
00000000
,
00000000
00003003
00000000
00000000
;

//--------------- dance-double - forcednature ----------------
#NOTEDATA:;
#STEPSTYPE:dance-double;
#DESCRIPTION:forcednature;
#DIFFICULTY:Hard;
#METER:15;
#RADARVALUES:0,0,0,0,0;
#CREDIT:forcednature;
#NOTES:
00000000
00000000
00000000
00000000
,
00000000
00000000
00000000
00000000
,
00000000
00000000
00000000
00000000
,
00000000
00000000
00000000
00000000
,
00000000
00000000
00000000
00000000
,
00011000
00000000
00001000
00000000
00000010
00000000
00000001
00001000
,
00000100
00000000
00000000
00000100
00000000
00000000
00010000
00000000
00011000
00000000
00000000
00000000
00100000
00000000
00000000
00000000
,
00010000
00000000
00010000
00000000
01000000
00000000
00010000
10000000
,
00200000
00000000
00000000
01300000
,
10010000
00000000
00000000
10000000
01000000
00000000
10000000
00000000
00010000
00000000
00100000
00000000
01000000
00000000
00100000
00000000
,
00001000
00000000
00000000
00001000
00010000
00000000
00000100
00000000
00001000
00000000
00000010
00000000
00000100
00000000
00000000
00000000
,
00001001
00000000
00000000
00000001
00000100
00000000
00000010
00000000
00000100
00000000
00000001
00000000
00001000
00000000
00000010
00000000
,
00000100
00000000
00000000
00000100
00001000
00000000
00010000
00000000
00100000
00000000
01000000
00000000
00010000
00000000
00000000
00000000
,
10010000
00000000
00000000
10000000
01000000
00000000
10000000
00000000
00010000
00100000
00000000
00100000
00001000
00000000
00010000
00000100
,
00000000
00000100
00001000
00000000
00000001
00000100
00000000
00000010
00001000
00000000
00000100
00000010
00000000
00000001
00001000
00000000
,
00000020
00000100
00001000
00000100
00002000
00000000
00000000
00003030
,
00000001
00000000
00000000
00000100
00000001
00000100
00000001
00000000
00001000
00000000
00000100
00000000
00000001
00000000
00000100
00000000
,
00001000
00000000
00000000
00000010
00010000
00000010
00010000
00000000
00001000
00000000
01000000
00000000
00020000
00000000
00000000
00000000
,
00130000
00000000
00000000
01000000
10000000
01000000
10000000
00000000
00010000
00000000
00100000
00000000
10000000
00000000
00100000
00000000
,
00010000
00000000
00000000
01000000
00001000
01000000
00001000
00000000
00010000
00000000
00000010
00000000
00000100
00000000
00000000
00000000
,
00001001
00000000
00000000
00000001
00000010
00000001
00000010
00000000
00000100
00000000
00000001
00000000
00000100
00000000
00001000
00000000
,
00000010
00000000
00000000
00010000
00001000
00010000
00001000
00000000
00100000
00000000
00010000
00000000
02000000
00000000
00000000
00000000
,
03100000
00000000
00000000
10000000
01000000
10000000
01000000
00000000
00010000
00000000
00000000
00010000
00001000
00000000
00000010
00000000
,
00000100
00000000
00000000
00000100
00001000
00000000
00000001
00000000
00000010
00000000
00000000
00000000
00002002
00000000
00000000
00000000
,
00003003
00000000
00000001
00000000
00000010
00000000
00001000
00000000
00010000
00000000
00000010
00001000
00000100
00000000
00010000
00000000
,
00000000
00000000
00001000
00000000
00100000
00010000
00100000
00000000
01000000
00000000
10000000
00000000
00200000
00000000
00000000
00000000
,
00300000
00000000
10000000
00000000
01000000
00000000
00010000
00000000
00001000
00000000
00100000
00010000
01000000
00000000
00100000
00000000
,
00000000
10000000
01000000
00010000
00001000
00000100
00001001
00000000
,
00000110
00000000
00000000
00000001
00000010
00000000
00000100
00000010
00000100
00000000
00000000
00001000
00000010
00000000
00010000
00001000
,
00010000
00000000
00000000
00001000
00100000
00000000
00010000
01000000
00010000
00000000
00000000
10000000
00100000
00000000
01000000
00100000
,
01000000
00000000
00010000
00000000
00100000
00010000
00100000
00000000
00001000
00000000
00010000
00001000
00010000
00000000
00000100
00000000
,
00001000
00000010
00001000
00000010
00000100
00000001
00000010
00000100
00010000
00002000
00000000
00000000
,
00003000
00000000
00100000
00010000
20000000
00000000
30000000
01000000
,
00010000
00002000
00000000
00003010
00000200
00000000
00002300
00000000
,
00003000
00000000
00000001
00000100
00002000
00000000
00003000
00010000
,
00100000
20000000
00000000
30100000
00010000
00001000
00020000
00000000
,
00030000
00000000
00001000
00000010
00000002
00000000
00000003
00001000
,
00000100
00020000
00000000
00031000
00000020
00000000
00000230
00000000
,
00000300
00000000
00001000
00000001
00000200
00000000
00001300
00020000
,
00000000
00130000
01000000
00010000
00100000
01000000
10000000
00000000
,
10010000
00000000
00010000
00100000
01000000
00000000
01000000
00010000
,
00001000
00000000
00001000
00000010
00000100
00000000
00000110
00000000
,
00001001
00000000
00001000
00000010
00000100
00000000
00000100
00001000
,
00010000
00000000
00000000
00010000
00000000
00000000
00100000
00000000
01000000
00000000
00000000
00000000
01100000
00000000
00000000
00000000
,
10010000
00000000
10000000
01000000
00010000
00000000
00010000
00001000
,
00000010
00000000
00000000
00000010
00000000
00000000
00000100
00000000
00001000
00000000
00000000
00000000
00000110
00000000
00000000
00000000
,
00001001
00000000
00000001
00000100
00001000
00000000
00010000
00000000
,
00022000
00000000
00000000
00033000
,
00101000
00000000
00100000
00010000
01000000
00100000
01000000
00100000
,
10000000
02000000
00000000
03020000
00000000
00031000
00000010
00001000
,
00000010
00000001
00001000
00000200
00000000
00010300
00001000
00100000
,
00010000
02000000
00000000
03100000
10000000
01000000
00010000
00000000
,
00011000
00000000
00000000
00000010
00001000
00000000
00000001
00000000
00000010
00000000
00000000
00000100
00000010
00000000
00000100
00000000
,
00010000
00000000
00001000
00000000
00100000
00010000
00000000
01000000
00100000
00000000
10000000
01000000
00000000
00100000
00010000
00000000
,
01000000
00010000
01000000
00000000
00001000
00010000
00001000
00000000
00010000
00000100
00001000
00000000
00000010
00000000
00000000
00000000
,
00001001
00000000
00020100
00001000
00000100
00001000
00000020
00000000
,
00000000
00000000
00030030
00000000
00010000
00000000
00001000
00000000
01000000
00000000
00001000
00000000
00010000
00100000
00000000
10000000
,
00100000
10000000
00100000
00000000
10000000
00000000
01000000
00000000
00010000
00000000
01000000
00000000
00100000
00010000
00000000
00100000
,
00001000
00100000
00001000
00000000
00010000
00000000
00000010
00000000
00001000
00000000
00000010
00000000
00000100
00001000
00000000
00000100
,
00000001
00000100
00000001
00000000
00000010
00000000
00000100
00001000
00000010
00000000
00000100
00000001
00000010
00000000
00001000
00000000
,
00020000
00000000
00000000
00000000
01030000
00000000
10000000
00000000
00100000
00000000
10000000
00000000
01000000
00010000
00000000
00001000
,
00010000
00001000
00010000
00000000
00001000
00000000
00000010
00000000
00000001
00000000
00000010
00000000
00000100
00001000
00000000
00000010
,
00000100
00000010
00000100
00000000
00000001
00000000
00000010
00000000
00001000
00000000
00010000
00000000
00100000
01000000
00000000
00010000
,
01000000
00010000
01000000
00000000
00100000
00000000
10000000
01000000
00100000
00000000
00010000
01000000
00100000
00000000
00000000
00000000
,
10020000
00000000
00000000
00000000
00030000
00000000
00100000
01000000
00010000
00000000
00000000
00000000
00001000
00000010
00000000
00000001
,
00000010
00000001
00001000
00000000
00000100
00000000
00010000
00001000
00100000
00000000
00010000
00000000
01000000
00100000
00000000
10000000
,
01000000
10000000
00010000
00000000
00100000
00000000
00001000
00010000
00000010
00000000
00001000
00000000
00000100
00000010
00000000
00000001
,
00000100
00000001
00001000
00000000
00000100
00000000
00010000
00001000
00000000
00100000
00010000
00000000
01000000
00100000
10000000
00000000
,
01000000
00000000
00000000
00000000
00100000
00001000
00000000
00010000
00000100
00000000
00001000
00000010
00000000
00010000
00001000
00000000
,
01000000
00100000
00000000
10000000
01000000
00000000
00100000
00010000
00000000
00001000
00000100
00000000
00000010
00000001
00000000
00000100
,
00001000
00000000
00010000
00001000
00010000
00000000
00100000
00000000
10000000
00000000
00010000
00000000
01000000
00100000
01000000
00100000
,
01000000
00100000
01000000
00100000
00000000
00000000
10000000
00000000
00000000
01000000
00000000
00000000
00010000
00000000
00000000
00010000
,
00001000
00022000
00000000
00000000
,
00000000
00033000
00000000
00000000
;
