#VERSION:0.83;
#TITLE:Ghost Clock;
#SUBTITLE:;
#ARTIST:BEMANI Sound Team "Yvya";
#TITLETRANSLIT:;
#SUBTITLETRANSLIT:;
#ARTISTTRANSLIT:Yvya;
#GENRE:;
#CREDIT:;
#MUSIC:Ghost Clock.ogg;
#BANNER:Ghost Clock.png;
#BACKGROUND:Ghost Clock-bg.png;
#CDTITLE:./CDTitles/jb festo.png;
#SAMPLESTART:77.842;
#SAMPLELENGTH:15.000;
#SELECTABLE:YES;
#OFFSET:-0.001;
#BPMS:0.000=190.000
,36.000=95.000
,38.000=190.000
,182.000=95.000
,196.000=190.000
;
#STOPS:;
#TIMESIGNATURES:0.000=4=4,
36.000=2=4,
38.000=4=4,
194.000=6=4,
200.000=4=4
;
#BGCHANGES:0.000=../BGAs/17te.mp4=1.000=0=0=0=StretchNoLoop====,
99999.000=-nosongbg-=1.000=0=0=0=StretchNoLoop====
;
#FGCHANGES:;

//--------------- dance-single - forcednature ----------------
#NOTEDATA:;
#STEPSTYPE:dance-single;
#DESCRIPTION:forcednature;
#CREDIT:forcednature;
#DIFFICULTY:Beginner;
#METER:4;
#RADARVALUES:0,0,0,0,0;
#NOTES:
0000
0000
0000
0000
,
0000
0000
0000
0000
,
0000
0000
0000
0000
,
0000
0000
0000
0000
,
0000
0000
0000
0000
,
0000
0000
0000
0000
,
0001
0000
0000
0000
,
0001
0000
0100
0000
,
0010
0000
0010
0000
,
2000
0000
3001
0000
,
0000
0000
0010
0000
,
0001
0000
0100
0000
,
0000
0000
0010
0000
,
1000
0000
1001
0000
,
0000
0000
0001
0000
,
0000
0000
0010
0000
,
0001
0000
0100
0000
,
0000
0000
1001
0000
,
0000
0000
1000
0000
,
0010
0000
1000
0000
,
0100
0000
1000
0000
,
0000
0000
1001
0000
,
0000
0000
0001
0000
,
0010
0000
0100
0000
,
0100
0000
0010
0000
,
0001
0000
2002
0000
,
0000
0000
0000
0000
,
0000
0000
0000
0000
,
0000
0000
0000
0000
,
3003
0000
0110
0000
,
0001
0000
0000
0000
,
1000
0000
0100
0000
,
1000
0000
0000
0000
,
0010
0000
0100
0000
,
0001
0000
0000
0000
,
0010
0000
0001
0000
,
0000
0000
1000
0000
,
0100
0000
1001
0000
,
0000
0000
1000
0000
,
0010
0000
0100
0000
,
0100
0000
0001
0000
,
0000
0000
1001
0000
,
0000
0000
0001
0000
,
0010
0000
0100
0000
,
0000
0000
1000
0000
,
0001
0000
1001
0000
,
0000
0000
1000
0000
,
0000
0000
0010
0000
,
0000
0000
0100
0000
,
0001
0000
0000
0000
,
1001
0000
0000
0000
,
1000
0000
1000
0000
,
0100
0000
1000
0000
,
0010
0000
0000
0000
,
1001
0000
0000
0000
,
0001
0000
0001
0000
,
0100
0000
0001
0000
,
0020
0000
0000
0000
0000
0000
0000
0000
0000
0030
0000
0000
0000
0000
0000
0000
,
1001
0000
0000
0000
,
0001
0000
0010
0000
,
0100
0000
0000
0000
,
0010
0000
0001
0000
,
1001
0000
0000
0000
,
1000
0000
0010
0000
,
0100
0000
0000
0000
,
0001
0001
0001
0000
,
1001
0000
0000
0000
,
1000
0000
0100
0000
,
1000
0000
0010
0000
,
0100
0000
0000
0000
,
0110
0000
0000
0000
,
0001
0000
1000
0000
,
0100
0000
1000
0000
,
0001
0001
1000
0000
,
2002
0000
0000
0000
,
0000
0000
0000
0000
,
0000
0000
0000
0000
,
0000
0000
0000
3003
,
0001
0000
0001
0000
,
0010
0000
0001
0000
,
1000
0000
1000
0000
,
0010
0000
1000
0000
,
0100
0000
0010
0000
,
0001
0000
0010
0000
,
0100
0000
1000
0000
,
0020
0000
0000
0030
;

//--------------- dance-single - forcednature ----------------
#NOTEDATA:;
#STEPSTYPE:dance-single;
#DESCRIPTION:forcednature;
#CREDIT:forcednature;
#DIFFICULTY:Easy;
#METER:9;
#RADARVALUES:0,0,0,0,0;
#NOTES:
0000
0000
0000
0000
,
0000
0000
0000
0000
,
0000
0000
0000
0000
,
0000
0000
0000
0000
,
0000
0000
0000
0000
,
0000
0000
0000
0000
0000
0000
0000
0000
1000
0000
0000
1000
0000
0000
0001
0000
,
1000
0010
0100
0010
,
1000
0001
0100
0001
,
0010
0000
0100
0010
0100
0000
1000
0000
,
0002
0003
1001
0000
,
1000
0010
1000
0001
,
0100
0000
0010
0000
1000
0000
0000
0100
,
0000
0000
0010
0000
0000
0001
0000
0000
,
1000
0010
0210
0000
,
0302
0000
0023
0000
,
0230
0000
1300
0001
,
0100
0000
0001
0000
0010
0000
0010
0100
,
0000
1000
0100
0000
1001
0000
0000
0000
,
0001
0010
0001
1000
,
0010
0000
0100
0000
0001
0000
0000
0010
,
0000
0000
0100
0000
0000
1000
0000
0000
,
0010
0100
0210
0000
,
0302
0000
2003
3020
,
0230
0301
1001
0000
,
1000
0000
0000
0100
0000
0000
1000
0000
0001
0000
1000
0000
,
0001
0010
2002
0000
,
0000
0000
0000
0000
,
0000
3003
0001
0010
,
0100
1000
0010
0100
,
0110
0000
1001
0000
,
1000
0100
1000
0001
,
0010
0001
0010
0000
0100
0000
0000
0000
,
1000
0000
0001
0000
0100
0001
0100
0000
,
0010
1000
1001
0000
,
0001
0000
0010
0000
0001
1000
0001
0000
,
1000
0000
0100
0000
0020
0000
0000
0030
,
0100
1000
0002
0100
,
0003
0010
2002
0000
,
3003
1000
0100
1000
,
0001
0000
0001
0020
0000
0030
0000
0220
,
0000
0330
0000
2002
0000
3003
0000
0000
,
1000
0010
1000
0000
0200
0000
0000
0000
,
0300
1000
0001
0000
0001
0000
0100
0000
,
0001
0000
1000
0001
2000
0000
0000
3000
,
0010
0000
0100
0000
0001
0100
0001
0000
,
0010
0100
1001
0002
,
0023
0030
0200
2300
,
3020
0230
0302
0003
,
2000
3200
0320
0030
,
0002
0000
0000
0003
,
1001
0000
1000
0100
,
1000
0001
1000
0000
0001
0000
0010
0000
,
0100
0100
0010
0001
,
1000
0001
1000
0000
0010
0000
0100
0000
,
0110
0000
0001
0100
,
0010
0100
0010
0000
1000
0000
0100
0000
,
0020
0001
0001
0130
,
2000
0000
0000
0000
0000
0000
0000
0000
0000
3000
0000
0000
0000
0000
0000
0000
,
1001
0000
0001
0100
0000
0100
0010
0000
,
1000
0010
1000
0000
0001
0000
0010
0000
,
0100
0000
1000
0100
0000
0100
1000
0000
,
0010
1000
0010
0000
0100
0000
0001
0000
,
2002
3003
1000
0100
,
1000
0001
1000
0000
0001
0010
0001
0000
,
0020
0000
0130
1000
,
0010
0010
0110
0001
,
2002
0000
3003
1000
,
0100
1000
0001
0000
0010
0000
0001
0000
,
0200
0000
0310
1000
,
1001
0000
0000
0110
0000
0110
0000
0001
,
2000
0000
0000
3000
0010
1000
0010
0000
,
0100
0010
0100
0000
0001
0100
0001
0000
,
0020
0000
0031
1000
,
0100
0100
0110
1000
,
2002
0000
0000
0000
,
0000
0000
0000
0000
,
0000
0000
0000
0000
,
0000
0000
0000
3003
,
1000
0010
1000
0000
0010
0100
0000
0010
,
0100
0000
0001
0100
0000
0001
0100
0000
,
0001
0010
0001
0000
0010
0100
0000
0010
,
0100
0000
1000
0100
0000
1000
0100
0000
,
0010
0001
0000
0010
0001
0000
0100
0010
,
0000
0100
0010
0000
1000
0100
0000
1000
,
0100
0000
0100
0000
1000
0001
1000
0000
,
0020
0000
0000
0130
;

//--------------- dance-single - forcednature ----------------
#NOTEDATA:;
#STEPSTYPE:dance-single;
#DESCRIPTION:forcednature;
#CREDIT:forcednature;
#DIFFICULTY:Medium;
#METER:12;
#RADARVALUES:0,0,0,0,0;
#NOTES:
0000
0000
0000
0000
,
0000
0000
0000
0000
,
0000
0000
0000
0000
,
0000
0000
0000
0000
,
0000
0000
0000
0000
,
0000
0000
0000
0000
0000
0000
0000
0000
0001
0000
0000
0001
0000
0000
1000
0000
,
0100
0000
0010
0100
0010
0001
0010
0000
,
0001
0000
1000
0010
0100
0010
0100
0000
,
0001
1000
0001
1000
0100
1000
0001
0010
,
0200
0000
0000
0000
0310
0001
0010
0100
,
0000
0010
0001
1000
0000
0010
1000
0001
,
0100
0010
0100
0010
2000
0000
0000
3200
,
0000
0000
0320
0000
0000
0031
1000
0010
,
1000
0001
0010
0000
0210
0000
0000
1300
,
0002
0000
0000
0103
0020
0000
0000
1030
,
0200
0000
0000
0310
0001
0100
0001
1000
,
0000
0010
1000
0000
0001
0010
0100
1000
,
0100
0010
0002
0000
0103
0010
1000
0010
,
0000
0100
0000
0001
0000
0010
0001
1000
,
0100
1000
0001
0010
0200
0000
0000
2300
,
0000
0000
3020
0000
0000
0130
0001
1000
,
0000
0100
0010
0000
0210
0000
0000
1300
,
0020
0000
0000
0130
2000
0000
3200
0000
,
0301
1000
0010
0100
0001
0000
0010
0100
,
0010
0000
0000
0110
0000
0000
1000
0000
1000
0000
0001
0000
,
0100
0010
0100
0010
0100
0010
2000
0000
0000
0000
0000
0000
,
0001
0000
0000
0000
,
0001
0000
3200
0000
,
0010
0000
0000
0000
1300
0001
0100
0001
,
0010
0100
0000
0000
1001
0000
1000
0010
,
0100
0010
1000
0000
0001
0010
0100
0000
,
0001
0100
1000
0000
0010
0100
0001
0100
,
0010
1000
0001
0000
1000
0100
0010
0000
,
1000
0010
0001
0000
1001
0000
1000
0010
,
0100
1000
0100
0000
0001
1000
0010
0000
,
1000
0001
0010
0100
0020
0000
0030
0001
,
1000
0010
0100
0001
2000
0000
0100
0000
,
3010
1000
0001
0000
2002
0000
3003
0000
,
1000
0100
0010
0001
1000
0000
0010
1000
,
0000
0001
0010
0200
0000
0310
0001
0200
,
0000
0310
1000
0200
0000
1300
1000
0010
,
0100
0001
2002
0000
,
3003
0001
0010
0001
0010
0100
1000
0000
,
0010
0100
0001
0000
2000
0000
0100
0000
,
0010
0000
3002
0000
1003
0010
1000
0010
,
0100
0001
0010
0100
1000
0000
0002
0000
,
0203
0000
0000
0000
0300
0000
0010
1000
0020
0000
0000
0000
1030
0000
0001
1000
,
0002
0000
0000
0000
0000
0000
0000
0000
0000
0000
0000
0000
0013
0000
0000
0000
0001
0000
0000
0000
0010
0000
0000
0000
0002
0000
0000
0000
0000
0000
0000
0000
0000
0000
0000
0000
0103
0000
0000
0010
0000
0000
0100
0000
0000
0010
0000
0000
,
2000
0000
0000
3200
0000
0000
0320
0000
0032
0000
0000
0203
0000
0000
0320
0000
,
2030
0000
0000
3001
,
1001
0000
1000
0100
0010
0100
1000
0010
,
0100
0010
1000
0001
0100
0001
1000
0010
,
0100
0000
0001
0010
0100
0010
0001
0100
,
0010
0000
0000
0100
0000
0000
0001
0000
0000
1000
0000
0000
0010
0000
0000
0000
0100
0000
0000
0000
0010
0000
0000
0000
,
1001
0000
1000
0001
0100
0001
0010
0000
,
0100
1000
0010
1000
0100
0100
1000
0000
,
0010
0100
0100
0001
0100
0010
1000
0001
,
0200
0000
0000
0000
0000
0000
0000
0000
0000
0300
0000
0000
0000
0000
0000
0000
,
2002
0000
3003
2200
0000
3300
0001
0020
,
0000
0031
0100
1000
0100
0001
0100
0010
,
2000
0000
3100
0020
0000
0032
0000
0203
,
0000
0310
1000
0100
1000
0001
0010
0100
,
2000
0000
3000
0010
0100
0001
0100
1000
,
0100
0001
1000
0010
1000
0100
0010
0001
,
0200
0000
0300
0001
0010
0001
1000
0010
,
0100
0000
0100
0000
0001
0000
0010
0000
0000
0110
0000
0000
,
1001
0000
1000
0010
0100
0010
1000
0001
,
0010
0100
1000
0100
0010
0001
1000
0001
,
0000
0100
0010
1000
0100
1000
0001
0000
,
0022
0000
0033
1100
0000
1100
0000
1000
,
0002
0000
0000
0000
0003
0000
0100
0010
,
1000
0010
0100
0001
1000
0100
0010
0001
,
2000
0000
3000
0010
0100
0001
0100
0010
,
1000
0000
0001
1000
0001
0000
0010
0000
0100
0000
0010
0000
,
2002
0000
0000
0000
,
0000
0000
0000
0000
,
0000
0000
0000
0000
,
0000
0000
0000
3003
,
0001
0010
0001
1000
0010
0100
0001
0010
,
0100
1000
0010
0100
0001
0010
0100
0000
,
1000
0010
1000
0001
0010
0100
1000
0010
,
0100
0001
0010
0100
1000
0010
0100
0000
,
0001
0010
0001
1000
0001
0100
0001
1000
,
0010
0100
0001
0100
0010
1000
0001
0010
,
0100
1000
0100
0010
0001
1000
0001
0100
,
0020
0000
0000
1030
;

//--------------- dance-single - forcednature ----------------
#NOTEDATA:;
#STEPSTYPE:dance-single;
#DESCRIPTION:forcednature;
#CREDIT:forcednature;
#DIFFICULTY:Hard;
#METER:15;
#RADARVALUES:0,0,0,0,0;
#NOTES:
0000
0000
0000
0000
,
0000
0000
0000
0000
,
0000
0000
0000
0000
,
0000
0000
0000
0000
,
0000
0000
0000
0000
,
0000
0000
0000
0000
0000
0000
0001
1000
0001
0000
0000
0011
0000
0000
1000
0001
,
1000
0000
0100
1000
0100
0010
0000
0100
,
1000
0001
0010
0001
0000
0100
0000
0100
,
0001
1000
0010
1000
0100
1000
0001
0010
,
0200
0000
0000
0000
1300
1000
0010
1000
,
0001
0000
0100
0000
0010
0000
0100
0010
1000
0000
0001
0000
0010
0000
0001
0000
,
1000
0100
0001
0000
0100
1000
1000
0001
,
0010
0000
0010
0000
0001
0000
0100
0010
1000
0000
0001
0000
0100
0000
0001
0000
,
1000
0010
1000
0000
0010
0000
0100
0000
0002
0000
0000
0000
0013
0000
0100
1000
,
0200
0000
0000
0000
1300
0000
0010
0100
0002
0000
0000
0000
0013
0000
0001
0010
,
0002
0000
0000
0000
1003
0000
0100
1000
0001
0000
0001
0000
0010
0000
0001
0000
,
0001
0000
0100
0000
0010
0000
0000
0000
1000
0001
1000
0000
0001
0000
0010
0000
,
0100
1000
0100
1000
0002
0000
0000
0000
0103
0000
0010
0000
1000
0000
0010
0000
,
0100
1000
0100
0001
1000
0010
0100
0001
,
0010
0100
1000
0001
0020
0000
0130
1000
,
1000
0000
0010
0000
0100
0000
0100
0000
0001
0000
0010
0001
1000
0000
0000
0000
,
0010
0000
0100
0000
0001
1000
0001
1000
0020
0000
0000
0000
0130
0000
0001
0100
,
0002
0000
0000
0000
0013
0000
0001
0010
0100
0000
1000
0000
0010
0000
0100
0000
,
0001
0010
0001
1000
1001
0000
1000
0100
,
1000
0000
0000
0001
0000
0000
0100
0000
0000
0001
0000
0000
0010
0000
0000
0000
0110
0000
0000
0000
1100
0000
0000
0000
,
0001
0010
0100
1000
0010
0100
0002
0000
0000
0000
0000
0000
,
0010
0000
1000
0000
,
0010
0000
2003
0000
,
0100
0000
0000
0000
3001
0100
0010
1000
,
0010
0100
0010
0100
0001
0000
0000
0000
0010
0000
0100
0000
1000
0000
0100
0000
,
0001
0100
1000
0001
0010
0001
1000
0010
,
1000
0001
0100
1000
0100
0001
1000
0010
,
1000
0001
0010
0100
0001
0100
1000
0001
,
0010
0000
0001
0000
1000
0010
0100
0001
1000
0000
0100
0000
1000
0000
0001
0000
,
0010
1000
0010
0001
1000
0010
0100
0001
,
0010
0100
0001
0100
2000
0000
3000
0010
,
0100
0001
0100
0001
0100
0000
0010
0000
2000
0000
0100
0000
3100
0000
0000
0000
,
0001
0000
0010
0000
0100
0010
0100
0010
0200
0000
0000
0000
0000
0000
0300
0000
,
1000
0001
0010
0001
0010
0000
0100
0000
1000
0000
0001
0000
0100
0000
0010
0000
,
1000
0001
0010
0210
0000
1300
0001
0201
,
0000
0000
0310
0000
1000
0000
1020
0000
0000
0000
0130
0000
0001
0000
0010
0001
,
0010
0100
1000
0001
0200
0000
0000
0000
,
0300
0000
0010
0000
1000
0000
0010
0000
0100
0001
0100
0001
0100
0000
0001
0000
,
0010
0001
0010
0001
0010
0000
0100
0000
2000
0000
0000
0000
0000
0000
3001
0000
,
0100
0000
1000
0000
0100
0000
0001
0000
0010
0001
0010
0001
0010
0000
0100
0000
,
1000
0001
1000
0001
0100
0000
0010
0000
1000
0000
0000
0000
0200
0000
0000
0000
,
0320
0000
0000
0000
0030
0000
0001
1000
0002
0000
0000
0000
0103
0010
1000
0001
,
0200
0000
0000
0000
0000
0000
0000
0000
0000
0000
0000
0000
0310
0000
0000
0000
1000
0000
0000
0000
0001
0000
0000
0000
0020
0000
0000
0000
0000
0000
0000
0000
0000
0000
0000
0000
0130
0000
0000
1000
0000
0000
0001
0000
0000
0010
0000
0000
,
0200
0000
0310
0002
0000
1003
0010
0100
0002
0000
0000
0023
0000
0000
0230
0000
,
2300
0000
0000
0000
0000
0000
0000
0000
0000
0000
3010
0100
0001
0000
0000
0000
,
0010
0001
0100
0010
1000
0100
1000
0001
,
0100
0000
0010
0000
0100
0000
0001
1000
0010
0000
0100
0000
0001
0000
0010
0000
,
0200
0000
0000
0000
1300
0000
0001
0100
0001
0000
1000
0000
0010
0000
0100
0000
,
0001
0000
0000
0010
0000
0000
0100
0000
0000
1000
0000
0000
0001
0000
0100
0000
0001
0000
0100
0000
0010
0000
1000
0000
,
0100
0000
0010
0100
0010
0000
0001
0000
1000
0000
0010
0000
0100
0000
0001
0000
,
0010
0000
0100
0010
0100
0000
1000
0000
0001
0000
0100
0000
0010
1000
0001
0100
,
0010
0000
1000
0000
0100
1000
0100
1000
0100
0000
0010
0000
0001
1000
0001
1000
,
0002
0000
0000
0000
0000
0000
0000
0000
0000
0003
0100
0000
0010
0000
1000
0000
,
1001
0000
0001
0011
0000
1000
0100
0001
,
0100
0000
1000
0000
0001
0010
0100
0000
1000
0000
0001
0000
0100
0000
0010
0000
,
2000
0000
0000
0000
3001
0000
0100
0000
1000
0000
0200
0000
0000
0000
0301
1000
,
0010
0100
0001
0010
0001
1000
0100
0010
,
0012
0000
0000
0103
0010
1000
0010
0100
,
1000
0000
0100
0000
0001
0000
1000
0000
0010
0100
0010
0100
0001
0100
0001
1000
,
0020
0000
0030
0100
0001
1000
0100
0010
,
0001
0000
0000
0000
0100
0000
0000
0000
0001
0000
0000
0000
0100
0000
0000
0000
0010
0000
0000
0000
0100
0000
0000
0000
0010
0000
0000
0000
0000
0000
1000
0000
0000
0001
0000
0000
0100
0000
0000
0000
0000
0000
0010
0000
0000
1000
0000
0000
,
0002
0000
0000
0013
0100
1000
0100
0001
,
0100
0000
1000
0000
0001
0000
0010
0000
0100
0010
0100
0000
1000
0000
0001
0100
,
0010
0000
1000
0000
0100
0000
1000
0000
0001
0010
0001
0000
0010
0000
0100
0000
,
0110
0000
1000
1010
0000
0110
0000
0101
,
0101
0000
0000
1000
0010
0000
0100
0000
0010
0000
1000
0001
0100
0000
0001
0000
,
0010
0100
0010
0100
0010
0000
0100
0000
1000
0001
1000
0001
0010
0000
0001
0000
,
2000
0000
3010
0100
0001
0010
0001
1000
,
0100
0010
0001
0100
0010
1000
0100
0000
0110
0000
0001
0000
,
2002
0000
0000
0000
,
0000
0000
0000
0000
,
0000
0000
0000
0000
,
0000
0000
0000
3003
,
1000
0100
1000
0100
1000
0000
0001
0000
0010
0001
0010
0001
0010
0000
0100
0000
,
1000
0001
1000
0000
0010
0000
1000
0001
1000
0000
0010
0000
0100
0000
0000
0000
,
0001
0100
0001
0100
0001
0000
1000
0000
0010
0100
0010
0100
0010
0000
1000
0000
,
0001
0010
0001
0000
1000
0000
0001
0010
0001
0000
1000
0000
0100
0000
0010
0100
,
0010
0000
0001
0000
1000
0000
0010
0100
0001
0000
0010
0000
0100
0000
1000
0100
,
1000
0000
0001
0000
0010
0000
0100
0010
0001
0000
1000
0000
0010
0000
0100
0001
,
0100
0000
0010
0000
1000
0000
0001
0000
0010
0100
0010
0100
1000
0100
1000
0100
,
0020
0000
0000
0000
0032
0000
0000
0000
1003
0000
0010
0100
0001
0000
0000
0000
;

//--------------- dance-double - forcednature ----------------
#NOTEDATA:;
#STEPSTYPE:dance-double;
#DESCRIPTION:forcednature;
#CREDIT:forcednature;
#DIFFICULTY:Easy;
#METER:9;
#RADARVALUES:0,0,0,0,0;
#NOTES:
00000000
00000000
00000000
00000000
,
00000000
00000000
00000000
00000000
,
00000000
00000000
00000000
00000000
,
00000000
00000000
00000000
00000000
,
00000000
00000000
00000000
00000000
,
00000000
00000000
00000000
00000000
00000000
00000000
00000000
00000000
00001000
00000000
00000000
00001000
00000000
00000000
00010000
00000000
,
00001000
00100000
00010000
00100000
,
00001000
00010000
00000010
00001000
,
00000010
00000000
00000100
00000010
00000100
00000000
00000001
00000000
,
00002000
00003000
00001001
00000000
,
00000001
00000010
00000100
00000010
,
00000100
00000000
00010000
00000000
00001000
00000000
00000000
00100000
,
00000000
00000000
00010000
00000000
00000000
00100000
00000000
00000000
,
01000000
10000000
00200000
00000000
,
02300000
00000000
03020000
00000000
,
00230000
00000000
00301000
00010000
,
00000100
00000000
00010000
00000000
00000010
00000000
00000010
00001000
,
00000000
00000100
00001000
00000000
00001001
00000000
00000000
00000000
,
00000001
00000010
00000001
00001000
,
00000010
00000000
00001000
00000000
00000100
00000000
00000000
00010000
,
00000000
00000000
00001000
00000000
00000000
00100000
00000000
00000000
,
00010000
01000000
00200000
00000000
,
20300000
00000000
30020000
00230000
,
00302000
00013000
00011000
00000000
,
00000100
00000000
00000000
00001000
00000000
00000000
00000001
00000000
00001000
00000000
00000001
00000000
,
00001000
00000010
00000220
00000000
,
00000000
00000000
00000000
00000000
,
00000000
00000330
00000001
00000100
,
00000001
00001000
00000100
00010000
,
00011000
00000000
00011000
00000000
,
00100000
00010000
01000000
00010000
,
10000000
00010000
10000000
00000000
00100000
00000000
00000000
00000000
,
01000000
00000000
00010000
00000000
00100000
00010000
00100000
00000000
,
00001000
00010000
00011000
00000000
,
00000100
00000000
00001000
00000000
00000010
00001000
00000010
00000000
,
00000100
00000000
00000001
00000000
00000020
00000000
00000000
00000030
,
00000100
00010000
00002000
00010000
,
00003000
00010000
00022000
00000000
,
00033000
01000000
00010000
01000000
,
00100000
00000000
00100000
20000000
00000000
30000000
00000000
02200000
,
00000000
03300000
00000000
20020000
00000000
30030000
00000000
00000000
,
00010000
10000000
00010000
00000000
00200000
00000000
00000000
00000000
,
00300000
00001000
00010000
00000000
00010000
00000000
00000100
00000000
,
00001000
00000000
00000001
00001000
00000002
00000000
00000000
00000003
,
00000100
00000000
00000010
00000000
00001000
00000001
00001000
00000000
,
00000100
00010000
00011000
00020000
,
00032000
00003000
02000000
03020000
,
20030000
30200000
02300000
03000000
,
00020000
00230000
00302000
00003000
,
00020000
00000000
00000000
00030000
,
00011000
00000000
00000100
00001000
,
00000001
00001000
00000001
00000000
00000100
00000000
00000010
00000000
,
00001000
00001000
00000100
00010000
,
00001000
00010000
00001000
00000000
00100000
00000000
00001000
00000000
,
00011000
00000000
01000000
00010000
,
01000000
00100000
01000000
00000000
00100000
00000000
10000000
00000000
,
02000000
10000000
10000000
03100000
,
00020000
00000000
00000000
00000000
00000000
00000000
00000000
00000000
00000000
00030000
00000000
00000000
00000000
00000000
00000000
00000000
,
10010000
00000000
10000000
01000000
00000000
01000000
00100000
00000000
,
00010000
00100000
00010000
00000000
00100000
00000000
00001000
00000000
,
00010000
00000000
00000100
00001000
00000000
00001000
00000100
00000000
,
00001000
00000001
00001000
00000000
00000010
00000000
00000100
00000000
,
00002002
00003003
00000001
00000010
,
00000001
00001000
00000001
00000000
00001000
00000100
00001000
00000000
,
00000200
00000000
00010300
00001000
,
00100000
00100000
00010000
01000000
,
20020000
00000000
30030000
10000000
,
01000000
10000000
00010000
00000000
00100000
00000000
00010000
00000000
,
02000000
00000000
03001000
00010000
,
00011000
00000000
00000000
00000100
00000000
00000100
00000000
00001000
,
00000002
00000000
00000000
00000003
00000010
00000001
00000010
00000000
,
00000100
00000010
00000100
00000000
00001000
00000100
00001000
00000000
,
00000200
00000000
00010300
00001000
,
00010000
00010000
00011000
01000000
,
20020000
00000000
00000000
00000000
,
00000000
00000000
00000000
00000000
,
00000000
00000000
00000000
00000000
,
00000000
00000000
00000000
30030000
,
10000000
00100000
10000000
00000000
00100000
01000000
00000000
00100000
,
01000000
00000000
00010000
01000000
00000000
00010000
01000000
00000000
,
00010000
00100000
00010000
00000000
00100000
00001000
00000000
00100000
,
00001000
00000000
00010000
00001000
00000000
00010000
00001000
00000000
,
00010000
00000100
00000000
00010000
00000100
00000000
00001000
00000100
,
00000000
00001000
00000100
00000000
00000010
00000001
00000000
00000010
,
00000001
00000000
00000001
00000000
00001000
00000001
00001000
00000000
,
00000020
00000000
00000000
00000130
;

//--------------- dance-double - forcednature ----------------
#NOTEDATA:;
#STEPSTYPE:dance-double;
#DESCRIPTION:forcednature;
#CREDIT:forcednature;
#DIFFICULTY:Medium;
#METER:13;
#RADARVALUES:0,0,0,0,0;
#NOTES:
00000000
00000000
00000000
00000000
,
00000000
00000000
00000000
00000000
,
00000000
00000000
00000000
00000000
,
00000000
00000000
00000000
00000000
,
00000000
00000000
00000000
00000000
,
00000000
00000000
00000000
00000000
00000000
00000000
00000000
00000000
00010000
00000000
00000000
00010000
00000000
00000000
00001000
00000000
,
00010000
00000000
00000100
00001000
00000100
00000010
00000100
00000000
,
00001000
00000000
00000001
00000100
00000010
00000100
00000010
00000000
,
00001000
00000100
00001000
00000100
00010000
00001000
00010000
00001000
,
00200000
00000000
00000000
00000000
01300000
10000000
00100000
10000000
,
00000000
01000000
00000000
00010000
00001000
00100000
00001000
00010000
,
00000100
00001000
00000100
00000010
00000002
00000000
00000000
00000203
,
00000000
00000000
00002300
00000000
00000000
00013000
00001000
00100000
,
00010000
00100000
01000000
00000000
01200000
00000000
00000000
00310000
,
20000000
00000000
00000000
30100000
02000000
00000000
00000000
03010000
,
00200000
00000000
00000000
00301000
00010000
00001000
00010000
00000100
,
00000000
00001000
00000010
00000000
00000100
00001000
00000100
00000001
,
00000010
00000001
00000020
00000000
00000130
00010000
00001000
00010000
,
00000000
00001000
00000000
00100000
00010000
01000000
00010000
10000000
,
01000000
10000000
00100000
01000000
00020000
00000000
00000000
00230000
,
00000000
00000000
00302000
00000000
00000000
00013000
00000100
00000000
,
00001000
00000010
00000100
00000000
00000120
00000000
00000000
00001030
,
00000002
00000000
00000000
00000013
00000200
00000000
00020300
00000000
,
00031000
00100000
00010000
00100000
01000000
00000000
10000000
00010000
,
10000000
00000000
00000000
00100000
00000000
00000000
01000000
00000000
01000000
00000000
00001000
00000000
,
00010000
00001000
00010000
00001000
00010000
00001000
00020000
00000000
00000000
00000000
00000000
00000000
,
00000100
00000000
00000000
00000000
,
00000100
00000000
00032000
00000000
,
00100000
00000000
00000000
00000000
00013000
00001000
00010000
00000100
,
00001000
00000010
00000000
00000000
00001001
00000000
00000001
00000100
,
00000010
00000100
00000001
00000000
00001000
00000100
00010000
00000000
,
00000010
00000100
00001000
00000000
00010000
00001000
01000000
00010000
,
01000000
00100000
10000000
00000000
01000000
00100000
00010000
00000000
,
10000000
00100000
00010000
00000000
00011000
00000000
00001000
00000010
,
00000100
00000010
00000001
00000000
00001000
00000010
00000100
00000000
,
00001000
00000100
00000001
00000100
00000002
00000000
00000003
00000010
,
00000100
00010000
00001000
00100000
02000000
00000000
10000000
00000000
,
03100000
00001000
00010000
00000000
00022000
00000000
00033000
00000000
,
00000100
00001000
00000010
00000100
00000001
00000000
00000010
00001000
,
00000000
00010000
00001000
00200000
00000000
00301000
00010000
00200000
,
00000000
00310000
00001000
02000000
00000000
03100000
00100000
10000000
,
00010000
01000000
20020000
00000000
,
30030000
10000000
01000000
10000000
01000000
00100000
00001000
00000000
,
00010000
00000100
00000010
00000000
00000002
00000000
00000100
00000000
,
00000010
00000000
00002003
00000000
00003100
00010000
00000100
00010000
,
00001000
00100000
00010000
01000000
10000000
00000000
02000000
00000000
,
03020000
00000000
00000000
00000000
00030000
00000000
00100000
00010000
00200000
00000000
00000000
00000000
00301000
00000000
00010000
00001000
,
00020000
00000000
00000000
00000000
00000000
00000000
00000000
00000000
00000000
00000000
00000000
00000000
00030010
00000000
00000000
00000000
00001000
00000000
00000000
00000000
00000010
00000000
00000000
00000000
00002000
00000000
00000000
00000000
00000000
00000000
00000000
00000000
00000000
00000000
00000000
00000000
00003100
00000000
00000000
00000010
00000000
00000000
00000100
00000000
00000000
00000010
00000000
00000000
,
00000002
00000000
00000000
00002003
00000000
00000000
00003020
00000000
00020030
00000000
00000000
00032000
00000000
00000000
02003000
00000000
,
03020000
00000000
00000000
10030000
,
10010000
00000000
10000000
01000000
00100000
01000000
10000000
00100000
,
01000000
00010000
00100000
00001000
00010000
00000100
00010000
00001000
,
00000010
00000000
00000100
00010000
00001000
00010000
00000100
00001000
,
00000010
00000000
00000000
00000100
00000000
00000000
00000001
00000000
00000000
00000010
00000000
00000000
00000100
00000000
00000000
00000000
00000100
00000000
00000000
00000000
00000010
00000000
00000000
00000000
,
00001001
00000000
00001000
00000010
00000100
00000010
00000001
00000000
,
00000010
00001000
00000100
00010000
00001000
00001000
01000000
00000000
,
00010000
00100000
00100000
10000000
00100000
00010000
10000000
00010000
,
02000000
00000000
00000000
00000000
00000000
00000000
00000000
00000000
00000000
03000000
00000000
00000000
00000000
00000000
00000000
00000000
,
20020000
00000000
30030000
22000000
00000000
33000000
00010000
00200000
,
00000000
00301000
00010000
00000100
00010000
00001000
00000010
00000100
,
00000020
00000000
00000031
00000200
00000000
00002300
00000000
00023000
,
00000000
00130000
01000000
00100000
10000000
01000000
00100000
00010000
,
02000000
00000000
03000000
00001000
00010000
00100000
00010000
00001000
,
00010000
00000100
00001000
00000010
00010000
00001000
00000010
00000100
,
00000020
00000000
00000030
00000001
00001000
00000001
00000100
00000010
,
00001000
00000000
00001000
00000000
00000100
00000000
00010000
00000000
00000000
00011000
00000000
00000000
,
00101000
00000000
00100000
00010000
01000000
00010000
10000000
00100000
,
10000000
01000000
00010000
00001000
00100000
00001000
00010000
00000100
,
00000000
00001000
00000010
00001000
00000001
00000010
00001000
00000000
,
00022000
00000000
00033000
00100000
00000000
00100000
00000000
00010000
,
02000000
00000000
00000000
00000000
03000000
00000000
10000000
01000000
,
00010000
01000000
00010000
00100000
00001000
00010000
00000100
00001000
,
00000020
00000000
00000030
00000100
00001000
00000100
00000001
00000100
,
00000001
00000000
00001000
00000001
00001000
00000000
00000100
00000000
00000100
00000000
00010000
00000000
,
00022000
00000000
00000000
00000000
,
00000000
00000000
00000000
00000000
,
00000000
00000000
00000000
00000000
,
00000000
00000000
00000000
00033000
,
00100000
00010000
00100000
01000000
00010000
01000000
00100000
00010000
,
00100000
00001000
00010000
00000100
00001000
00000010
00010000
00000000
,
00000010
00001000
00000010
00000100
00001000
00000100
00000010
00001000
,
00000010
00010000
00001000
01000000
00010000
10000000
00100000
00000000
,
10000000
01000000
00100000
01000000
00010000
01000000
00100000
00001000
,
00010000
00000100
00010000
00001000
00000010
00000100
00000010
00000001
,
00001000
00000010
00000100
00000010
00000001
00000010
00001000
00000100
,
00020000
00000000
00000000
00031000
;

//--------------- dance-double - forcednature ----------------
#NOTEDATA:;
#STEPSTYPE:dance-double;
#DESCRIPTION:forcednature;
#CREDIT:forcednature;
#DIFFICULTY:Hard;
#METER:16;
#RADARVALUES:0,0,0,0,0;
#NOTES:
00000000
00000000
00000000
00000000
,
00000000
00000000
00000000
00000000
,
00000000
00000000
00000000
00000000
,
00000000
00000000
00000000
00000000
,
00000000
00000000
00000000
00000000
,
00000000
00000000
00000000
00000000
00000000
00000000
00001000
00010000
00001000
00000000
00000000
00011000
00000000
00000000
00010000
00001000
,
00010000
00000000
00000100
00001000
00000100
00000010
00000000
00000100
,
00001000
00000001
00000100
00000001
00000000
00001000
00000000
00001000
,
00000010
00010000
00001000
01000000
00010000
10000000
00010000
00100000
,
02000000
00000000
00000000
00000000
13000000
10000000
00100000
10000000
,
00010000
00000000
01000000
00000000
00100000
00000000
01000000
00100000
10000000
00000000
00010000
00000000
00100000
00000000
00010000
00000000
,
10000000
01000000
00010000
00000000
00001000
00000010
00000010
00000001
,
00000010
00000000
00000010
00000000
00000100
00000000
00001000
00000100
00000010
00000000
00000001
00000000
00000100
00000000
00000001
00000000
,
00001000
00000010
00001000
00000000
00000010
00000000
00000100
00000000
00000002
00000000
00000000
00000000
00000003
00000000
00000010
00000100
,
00002000
00000000
00000000
00000000
00003000
00000000
00000100
00010000
00002000
00000000
00000000
00000000
00003000
00000000
00100000
00010000
,
02000000
00000000
00000000
00000000
03000000
00000000
00100000
10000000
00010000
00000000
00010000
00000000
00100000
00000000
00010000
00000000
,
00010000
00000000
10000000
00000000
01000000
00000000
00000000
00000000
00010000
00001000
00010000
00000000
00001000
00000000
00010000
00000000
,
00000100
00001000
00000100
00000000
00000020
00000000
00000000
00000000
00000031
00000000
00000100
00000000
00000010
00000000
00000100
00000000
,
00000001
00001000
00000010
00000001
00000010
00001000
00010000
01000000
,
00010000
10000000
01000000
00100000
00002000
00000000
00013000
00000100
,
00000100
00000000
00000010
00000000
00000100
00000000
00000100
00000000
00001000
00000000
00000100
00010000
00001000
00000000
00000000
00000000
,
00100000
00000000
00010000
00000000
10000000
00010000
10000000
00010000
02000000
00000000
00000000
00000000
03000000
00000000
00100000
10000000
,
00020000
00000000
00000000
00000000
00030000
00000000
00100000
00001000
00010000
00000000
00000100
00000000
00001000
00000000
00000010
00000000
,
00000100
00000001
00000010
00000001
00001001
00000000
00001000
00000010
,
00000100
00000000
00000000
00001000
00000000
00000000
00010000
00000000
00000000
01000000
00000000
00000000
00100000
00000000
00000000
00000000
01100000
00000000
00000000
00000000
10010000
00000000
00000000
00000000
,
10000000
00100000
01000000
00010000
00100000
00001000
00020000
00000000
00000000
00000000
00000000
00000000
,
00000100
00000000
00001000
00000000
,
00000100
00000000
00032000
00000000
,
01000000
00000000
00000000
00000000
00013000
00100000
10000000
00100000
,
01000000
00100000
01000000
00100000
10000000
00000000
00000000
00000000
01000000
00000000
10000000
00000000
01000000
00000000
00010000
00000000
,
00001000
00100000
00001000
00010000
00000100
00010000
00001000
00000010
,
00000001
00000010
00001000
00010000
00000010
00001000
00000001
00000100
,
00001000
00010000
00000010
00001000
00000010
00010000
00001000
01000000
,
00010000
00000000
00100000
00000000
00010000
10000000
01000000
00100000
00010000
00000000
01000000
00000000
10000000
00000000
01000000
00000000
,
00010000
00100000
00001000
00010000
00000010
00000100
00001000
00010000
,
00000010
00001000
00000001
00000100
00000020
00000000
00000030
00001000
,
00000001
00001000
00000001
00001000
00000100
00000000
00010000
00000000
00002000
00000000
00100000
00000000
00103000
00000000
00000000
00000000
,
00001000
00000000
00010000
00000000
00001000
00010000
00001000
00010000
00002000
00000000
00000000
00000000
00000000
00000000
00003000
00000000
,
01000000
00010000
01000000
00010000
10000000
00000000
00100000
00000000
10000000
00000000
01000000
00000000
00010000
00000000
00001000
00000000
,
00100000
00010000
00100000
00002000
00000000
00013000
00000100
00000020
,
00000000
00000000
00000031
00000000
00000100
00000000
00002000
00000000
00000000
00000000
00003100
00000000
00000001
00000000
00000100
00000001
,
00000100
00000010
00010000
00001000
02000000
00000000
00000000
00000000
,
03000000
00000000
00100000
00000000
10000000
00000000
01000000
00000000
00100000
00010000
00100000
00010000
00100000
00000000
00001000
00000000
,
00010000
00001000
00010000
00001000
00010000
00000000
00000100
00000000
00002000
00000000
00000000
00000000
00003000
00000000
00000010
00000000
,
00000100
00000000
00001000
00000000
00000100
00000000
00000001
00000000
00000100
00000001
00000100
00000001
00000100
00000000
00000010
00000000
,
00001000
00000001
00001000
00000001
00001000
00000000
00000100
00000000
00010000
00000000
00000000
00000000
00002000
00000000
00000000
00000000
,
00203000
00000000
00000000
00000000
00300000
00000000
00010000
10000000
00020000
00000000
00000000
00000000
01030000
00100000
10000000
01000000
,
00200000
00000000
00000000
00000000
00000000
00000000
00000000
00000000
00000000
00000000
00000000
00000000
00301000
00000000
00000000
00000000
00010000
00000000
00000000
00000000
00010000
00000000
00000000
00000000
00000200
00000000
00000000
00000000
00000000
00000000
00000000
00000000
00000000
00000000
00000000
00000000
00001300
00000000
00000000
00000010
00000000
00000000
00000100
00000000
00000000
00000001
00000000
00000000
,
00002000
00000000
00003100
00000020
00000000
00000031
00001000
00000100
00020000
00000000
00000000
00032000
00000000
00000000
02003000
00000000
,
03020000
00000000
00000000
00000000
00000000
00000000
00000000
00000000
00000000
00000000
00130000
01000000
10000000
00000000
00000000
00000000
,
01000000
00010000
00001000
00010000
00000100
00001000
00000010
00000100
,
00000001
00000000
00000010
00000000
00000100
00000000
00001000
00000001
00000100
00000000
00000010
00000000
00001000
00000000
00000100
00000000
,
00020000
00000000
00000000
00000000
00031000
00000000
00010000
00001000
00010000
00000000
00001000
00000000
00100000
00000000
00010000
00000000
,
01000000
00000000
00000000
00100000
00000000
00000000
10000000
00000000
00000000
01000000
00000000
00000000
00100000
00000000
00010000
00000000
00100000
00000000
00001000
00000000
00010000
00000000
00000100
00000000
,
00010000
00000000
00001000
00010000
00001000
00000000
00010000
00000000
00000010
00000000
00000100
00000000
00001000
00000000
00000100
00000000
,
00000001
00000000
00000100
00000001
00000100
00000000
00000010
00000000
00001000
00000000
00000100
00000000
00001000
00000100
00001000
00000100
,
00010000
00000000
00001000
00000000
00010000
00001000
00010000
00001000
00010000
00000000
00001000
00000000
00100000
00010000
00100000
00010000
,
00200000
00000000
00000000
00000000
00000000
00000000
00000000
00000000
00000000
00300000
01000000
00000000
10000000
00000000
00100000
00000000
,
02100000
00000000
03010000
00200000
00000000
01300000
00010000
00002000
,
00000000
00000000
00003010
00000000
00000100
00000010
00000001
00000000
00001000
00000000
00000010
00000000
00000100
00000000
00000001
00000000
,
00000020
00000000
00000000
00000000
00000130
00000000
00020000
00000000
00000000
00000000
00032000
00000000
00000000
00000000
00103000
00010000
,
00100000
01000000
10000000
01000000
00010000
00001000
00100000
00001000
,
00021000
00000000
00000000
00030010
00000100
00001000
00000100
00000001
,
00000010
00000000
00000001
00000000
00001000
00000000
00000010
00000000
00001000
00000100
00001000
00000100
00010000
00001000
00010000
00001000
,
00200000
00000000
00300000
00010000
01000000
00010000
10000000
00100000
,
10000000
00000000
00000000
00000000
01000000
00000000
00000000
00000000
10000000
00000000
00000000
00000000
01000000
00000000
00000000
00000000
00100000
00000000
00000000
00000000
01000000
00000000
00000000
00000000
00100000
00000000
00000000
00000000
00000000
00000000
00010000
00000000
00000000
00100000
00000000
00000000
00010000
00000000
00000000
00000000
00000000
00000000
00100000
00000000
00000000
00001000
00000000
00000000
,
00020000
00000000
00000000
00030100
00001000
00000010
00001000
00000001
,
00000100
00000000
00001000
00000000
00010000
00000000
00001000
00000000
00010000
00001000
00010000
00000000
00001000
00000000
00100000
00010000
,
00100000
00000000
01000000
00000000
10000000
00000000
01000000
00000000
00100000
00010000
00100000
00000000
00001000
00000000
00010000
00000000
,
00011000
00000000
00000010
00001010
00000000
00000110
00000000
00000101
,
00000101
00000000
00000000
00000001
00001000
00000000
00000100
00000000
00001000
00000000
00000001
00001000
00000001
00000000
00000100
00000000
,
00000010
00000100
00000010
00000100
00000010
00000000
00001000
00000000
00000100
00001000
00000100
00001000
00000100
00000000
00010000
00000000
,
00002000
00000000
00103000
00010000
01000000
00100000
10000000
01000000
,
00100000
00010000
00100000
00001000
00010000
00000100
00001000
00000000
00001010
00000000
00000110
00000000
,
00002002
00000000
00000000
00000000
,
00000000
00000000
00000000
00000000
,
00000000
00000000
00000000
00000000
,
00000000
00000000
00000000
00003003
,
00001000
00000100
00001000
00000100
00001000
00000000
00000100
00000000
00010000
00001000
00010000
00001000
00010000
00000000
00001000
00000000
,
00100000
00010000
00100000
00000000
01000000
00000000
00100000
00010000
00100000
00000000
01000000
00000000
10000000
00000000
00000000
00000000
,
00010000
01000000
00010000
01000000
00010000
00000000
01000000
00000000
00001000
00010000
00001000
00010000
00001000
00000000
00010000
00000000
,
00000010
00001000
00000010
00000000
00000100
00000000
00000010
00001000
00000010
00000000
00000100
00000000
00000001
00000000
00001000
00000001
,
00001000
00000000
00000100
00000000
00010000
00000000
00001000
00010000
00001000
00000000
00100000
00000000
00010000
00000000
01000000
00010000
,
01000000
00000000
00100000
00000000
10000000
00000000
01000000
00100000
00010000
00000000
00100000
00000000
00001000
00000000
00010000
00001000
,
00010000
00000000
00000100
00000000
00001000
00000000
00000100
00000000
00000010
00000001
00000010
00000001
00001000
00000001
00001000
00000001
,
00002000
00000000
00000000
00000000
00003200
00000000
00000000
00000000
00010300
00000000
00001000
00100000
00010000
00000000
00000000
00000000
;
