#VERSION:0.83;
#TITLE:元禄花吹雪;
#SUBTITLE:;
#ARTIST:泉 陸奥彦;
#TITLETRANSLIT:Genroku hanafubuki;
#SUBTITLETRANSLIT:;
#ARTISTTRANSLIT:Mutsuhiko Izumi;
#GENRE:;
#CREDIT:;
#MUSIC:Genroku hanafubuki.ogg;
#BANNER:Genroku hanafubuki.png;
#BACKGROUND:Genroku hanafubuki-bg.png;
#CDTITLE:./CDTitles/GITADORA.png;
#SAMPLESTART:11.615;
#SAMPLELENGTH:15.000;
#SELECTABLE:YES;
#OFFSET:1.088;
#BPMS:0.000=170.000;
#STOPS:;
#TIMESIGNATURES:0.000=4=4;
#BGCHANGES:0.000=../BGAs/24ni.mp4=1.000=0=0=0=StretchNoLoop====,
99999.000=-nosongbg-=1.000=0=0=0=StretchNoLoop====
;
#FGCHANGES:;

//--------------- dance-single - chrononical vs. forcednature ----------------
#NOTEDATA:;
#STEPSTYPE:dance-single;
#DESCRIPTION:chrononical vs. forcednature;
#DIFFICULTY:Beginner;
#METER:4;
#RADARVALUES:0,0,0,0,0;
#CREDIT:chrononical vs. forcednature;
#NOTES:
0000
0000
0000
0000
,
0000
0000
0000
0000
,
0000
0000
0000
0000
,
0000
0000
0000
0000
,
0000
0000
0000
0000
,
0001
0000
0001
0000
,
1000
0000
1000
0000
,
0001
0000
0001
0000
,
0000
0010
0100
0000
,
1000
0000
0100
0000
,
0010
0000
0100
0000
,
1000
0000
0010
0000
,
0100
0100
0100
0000
,
0001
0000
0100
0000
,
0010
0000
0100
0000
,
0001
0000
0010
0000
,
0100
0100
0100
0000
,
1000
0000
0100
0000
,
0001
0000
0010
0000
,
2000
0000
3000
0000
,
0001
0100
0001
0000
,
0001
0000
0100
0000
,
1000
0000
0010
0000
,
0001
0000
1000
0000
,
0001
1000
0001
0000
,
1001
0000
0000
0000
,
1001
0000
0000
0000
,
1001
0000
0000
0000
,
0001
1000
0001
0000
,
1000
0000
0100
0000
,
0001
0000
0100
0000
,
1000
0000
0010
0000
,
0001
0000
0010
0000
,
0100
0100
0100
0000
,
0010
0010
0010
0000
,
1000
0000
0001
0000
,
0010
0000
0100
0000
,
1000
1000
1000
0000
,
0001
0001
0001
0000
,
0100
0100
0100
0000
,
0010
0010
0010
0000
,
1000
0000
0010
0000
,
0100
0000
0001
0000
,
0001
0000
0010
0000
,
0100
0010
0100
0000
,
0000
0000
0000
0000
,
0000
0000
0000
0000
,
0000
0000
0000
0000
,
0000
1000
0001
0000
,
1000
0000
0010
0000
,
1000
0000
0001
0000
,
1000
0000
0100
0000
,
0000
1000
0001
0000
,
0001
0000
0010
0000
,
1000
0000
0100
0000
,
0002
0000
0003
0000
,
1000
0010
1000
0000
,
1000
0000
0010
0000
,
0001
0000
0100
0000
,
1000
0000
0001
0000
,
1000
0001
1000
0000
,
1001
0000
0000
0000
,
1001
0000
0000
0000
,
1001
0000
1001
0000
,
0001
0001
1000
1000
,
0001
0010
0000
0010
,
0001
0100
0000
0100
,
0001
0010
0000
0010
,
0001
0100
0000
0010
,
0000
0000
0000
0000
,
0000
0000
0000
0000
,
0000
0000
0000
0000
,
0000
0110
0000
0000
0000
0000
0000
0000
;

//--------------- dance-single - chrononical vs. forcednature ----------------
#NOTEDATA:;
#STEPSTYPE:dance-single;
#DESCRIPTION:chrononical vs. forcednature;
#DIFFICULTY:Easy;
#METER:9;
#RADARVALUES:0,0,0,0,0;
#CREDIT:chrononical vs. forcednature;
#NOTES:
0000
0000
0000
0000
,
0000
0000
0000
0000
,
0000
0000
0000
0000
,
0000
0000
0000
0000
,
0000
0000
0000
0000
,
1000
0000
0000
0100
0000
0000
0010
0000
,
0001
0000
0000
0100
0000
0000
0010
0000
,
1000
0000
0000
0100
0000
0000
0010
0000
,
0000
0001
1000
0000
0010
0100
0000
0000
,
0001
0000
0100
0000
0010
1000
0000
0010
,
1000
0000
0100
0000
0010
0001
0000
0010
,
0001
0000
0100
0000
0010
1000
0000
0010
,
1000
0001
1001
0000
,
1000
0000
0100
0000
0010
0001
0000
0010
,
0001
0000
0100
0000
0010
1000
0000
0010
,
1000
0000
0100
0000
0010
0001
0000
0010
,
0001
1000
1001
0000
,
0001
0100
1000
0010
,
0001
0100
1000
0010
,
0200
0000
0000
0000
0000
0000
1300
0100
,
0010
0100
1000
0001
,
1000
0010
0001
0100
,
1000
0010
0001
0100
,
0010
0100
1000
0010
,
0100
0010
1000
0001
,
1001
0000
0000
0000
,
1001
0000
0000
0000
,
1001
0000
0000
0000
,
1000
0001
1000
0000
0100
0010
0100
0000
,
1000
0100
0010
0001
,
1000
0010
0100
0001
,
0001
0100
0010
1000
,
1000
0100
0010
0001
,
1000
0001
1000
0001
1000
0000
0000
0000
,
0001
1000
0001
1000
0001
0000
0000
0000
,
0010
0100
1000
0010
,
0010
0100
0001
0010
,
0001
0010
0001
0000
1000
0010
1000
0000
,
0001
0100
0001
0000
1000
0100
1000
0000
,
0100
0010
0100
0000
1000
0000
0001
0000
,
0100
0010
0100
0000
0001
0000
1000
0000
,
0100
1000
0100
0000
0010
0001
0010
0000
,
0001
0100
0001
0000
1000
0010
1000
0000
,
0001
0001
0001
0000
1000
1000
1000
0000
,
0100
0100
0100
0000
0010
0010
0010
0000
,
0000
0000
0000
0000
,
0000
0000
0000
0000
,
0000
0000
0000
0000
,
0000
0010
0100
0000
1000
0000
0001
1000
,
0001
0000
0100
0001
0000
1000
0010
0000
,
1000
0000
0100
1000
0000
0001
0010
0000
,
0001
0000
0100
0001
0000
1000
0010
0000
,
0000
0100
0010
0000
1000
0001
0000
0000
,
1000
0100
0001
0010
,
1000
0100
0001
0010
,
0200
0000
0000
0000
0000
0000
0301
0100
,
0001
1000
0001
0000
1000
0100
1000
0000
,
0001
0010
1000
0100
,
0001
0010
1000
0100
,
0010
0100
0001
0010
,
0100
0010
0001
1000
,
1001
0000
0000
0000
,
1001
0000
0000
0000
,
1001
0000
1001
0000
,
0001
1000
0001
0000
0100
0010
0100
0000
,
0001
1010
0001
1010
,
1000
0011
1000
0011
,
0001
1100
0001
1100
,
1000
0101
1000
0001
,
0000
0000
0000
0000
,
0000
0000
0000
0000
,
0000
0000
0000
0000
,
0000
0110
0000
0000
0000
0000
0000
0000
;

//--------------- dance-single - chrononical vs. forcednature ----------------
#NOTEDATA:;
#STEPSTYPE:dance-single;
#DESCRIPTION:chrononical vs. forcednature;
#DIFFICULTY:Medium;
#METER:14;
#RADARVALUES:0,0,0,0,0;
#CREDIT:chrononical vs. forcednature;
#NOTES:
0000
0000
0000
0000
,
0000
0000
0000
0000
,
0000
0000
0000
0000
,
0000
0000
0000
0000
,
0000
0000
0000
0000
,
0001
0010
0010
0001
1000
1000
0010
0000
,
1000
0010
0010
1000
0001
0001
0100
0000
,
0001
0100
0100
0001
1000
1000
0100
0000
,
0000
1000
0010
0100
0001
1001
0000
0000
,
0001
0000
0100
0001
1000
0100
0000
0010
,
0100
0000
0100
1000
0001
0100
0000
0010
,
0100
0000
0010
1000
0001
0010
0000
0100
,
0010
0000
0100
1000
0010
1000
0010
0100
,
0001
0000
1000
0010
0100
0001
0000
0010
,
0001
0000
0001
0010
0100
1000
0000
0010
,
1000
0000
1000
0010
0100
0001
0000
0010
,
0001
0000
0010
0001
0100
0000
0001
0100
,
0010
1000
0010
0100
0000
0100
0001
0000
0001
0010
0000
0010
,
0100
1000
0100
0010
0000
0010
0001
0000
0001
0100
0000
0100
,
0020
0000
0100
0000
1030
0000
0001
1000
,
0100
1000
0100
0000
0010
0000
0001
0000
0100
0001
0100
0000
0010
0000
0000
0000
,
0100
0001
0100
0010
0000
0010
1000
0000
1000
0100
0000
0100
,
0010
0001
0010
0100
0000
0100
1000
0000
1000
0010
0000
0100
,
0001
1000
0001
1000
0001
1000
0001
1000
0001
1000
0001
1000
,
0010
0100
0010
0100
0010
0100
0001
0010
0100
1000
0000
0000
,
0001
0001
0000
0000
0000
0000
0000
0000
,
1000
1000
0000
0000
0000
0000
0000
0000
,
0001
0001
0100
0020
0130
0020
1030
0001
,
0100
0100
0100
2000
0000
3100
0001
0000
,
1000
0010
1000
0000
0001
0000
0010
0000
0001
0010
0001
0000
1000
0000
0010
0000
,
1000
0000
0100
0000
0010
0100
0010
0000
0001
0000
1000
0001
1000
0000
0010
0000
,
0100
0000
0001
0100
0001
0000
1000
0000
0100
0000
1000
0100
1000
0000
0100
0000
,
0010
0001
0100
0010
1000
0200
0000
0000
,
1300
0010
0001
0010
2000
0000
0100
0000
,
3001
0000
0000
0001
0100
0000
0100
0000
0020
0000
0000
0000
0100
0000
0000
0000
,
1030
0000
0010
0000
0100
0000
0001
1000
0000
0001
1000
0000
0001
0000
0010
0000
,
0002
0000
0000
0000
0203
0000
0000
0000
0320
0000
0000
0000
1030
0000
0000
1000
0000
0000
1000
0000
0000
0000
0000
0000
,
0001
0100
0001
0000
0100
0000
0010
0000
1000
0100
1000
0000
0100
0000
0010
0000
,
0001
0000
0100
0001
0100
0000
0010
0000
0100
0010
0200
0000
1000
0000
0000
0000
,
0310
0100
0010
0000
1000
0000
0001
0000
0010
0100
0010
0000
0001
0000
1000
0000
,
0010
1000
0010
0000
0100
0000
0001
0000
0010
0001
0010
0000
0100
0000
1000
0000
,
0100
1000
0100
0000
0010
0000
0100
0000
1000
0001
1000
0000
0010
0000
0100
0000
,
0001
0100
0001
0000
0100
0000
0010
0000
1000
0001
1000
0000
0100
0000
0010
0000
,
0001
0010
1000
0010
0001
1000
0001
0000
,
1000
0010
0001
0010
1000
0001
1000
0000
,
0200
0000
0000
0000
,
0000
0000
0000
0300
,
0020
0000
0000
0000
,
0030
0001
0100
0010
1000
0100
0010
0001
,
1000
0000
0010
0100
0010
0000
1000
0000
0100
0010
0100
0000
0110
0000
0000
0000
,
0001
0000
0010
0100
0010
0000
0001
0000
0100
0010
0100
0000
0110
0000
0000
0000
,
1000
0000
0001
0100
0001
0000
1000
0000
0001
0010
0001
0000
0100
0000
0100
0000
,
0000
0001
0010
0100
1000
0001
1001
0000
,
1000
0010
0100
0001
0000
0001
1000
0000
1000
0100
0000
0100
,
0010
0001
1000
0010
0000
0010
1000
0000
1000
0001
0000
0001
,
0200
0000
0010
0000
0301
0000
1000
0001
,
0010
0001
0010
0000
0100
0000
1000
0000
0010
1000
0010
0000
0100
0000
0000
0000
,
0001
0100
0010
1000
0000
1000
0001
0000
0001
0100
0000
0100
,
0010
1000
0001
0010
0000
0010
0001
0000
0001
1000
0000
1000
,
0100
0010
0100
0010
0100
0010
0100
0010
0100
0010
0100
0010
,
0001
0000
1000
0000
0001
0000
1000
0000
0001
0000
1000
0000
0010
0000
0100
0000
0001
0000
1000
0000
0000
0001
0000
0000
,
1001
0000
0000
0000
,
0110
0000
0000
0000
,
0000
0110
0000
0000
0000
0000
0000
0000
0110
0000
0000
0000
0000
0000
0000
0000
,
0001
0001
0001
0010
0001
1000
0010
0100
,
0001
0200
1000
0000
0301
0200
1000
0000
,
0310
2000
0100
0000
3010
1000
0100
0000
,
1000
0200
0001
0000
1300
0200
0001
0000
,
0310
0100
0010
0000
0001
0000
1000
0000
0010
1000
0010
0000
0100
0001
0100
0000
,
0000
0000
0000
0000
0000
0000
0000
0000
0000
0000
0000
0000
0000
0000
0000
0000
0000
0000
0000
0000
0000
0000
0000
0000
0000
0000
0000
0000
0000
0000
0000
0000
0000
0000
0000
0000
0000
0000
0000
0000
0000
0000
0000
0000
0000
0000
0000
0000
0000
0000
0000
0000
0000
0000
0000
0000
0000
0000
0000
0000
0000
0000
0000
0001
,
0000
0000
0000
0000
0000
0000
0000
0000
0000
0000
0000
0000
0000
0000
0000
0000
0000
0000
0000
0000
0000
0000
0000
0000
0000
0000
0000
0000
0000
0000
0000
0000
0000
0000
0000
0000
0000
0000
0000
0000
0000
0000
0000
0000
0000
0000
0000
0000
0000
0000
0000
0000
0000
0000
0000
0000
0000
0000
0000
0000
0000
0000
0000
0000
0000
0000
0000
0000
0000
0000
0000
0000
0000
0000
0000
0000
0000
0000
0000
0000
0000
0000
0000
0000
0000
0000
0000
0000
0000
0000
0000
0000
0000
0000
0000
0000
0000
0000
0000
0000
0000
0000
0000
0000
0000
0000
0000
0000
0000
0000
0000
0000
0000
0000
0000
0000
0000
0000
0000
0000
0000
0000
0000
0000
0000
0000
0000
0000
0000
0000
0000
0000
0000
0000
0000
0000
0000
0000
0000
0000
1000
0000
0000
0000
0000
0000
0000
0000
0000
0000
0000
0000
0000
0000
0000
0000
0000
0000
0000
0000
0000
0000
0000
0000
0000
0000
0000
0000
0000
0000
0000
0000
0000
0000
0000
0000
0000
0000
0000
0000
0000
0000
0000
0000
0000
0000
0000
0000
0000
0010
0000
0000
,
0000
0000
0000
0000
,
0000
1001
0000
0000
0000
0000
0000
0000
;

//--------------- dance-single - chrononical vs. forcednature ----------------
#NOTEDATA:;
#STEPSTYPE:dance-single;
#DESCRIPTION:chrononical vs. forcednature;
#DIFFICULTY:Hard;
#METER:17;
#RADARVALUES:0,0,0,0,0;
#CREDIT:chrononical vs. forcednature;
#NOTES:
0000
0000
0000
0000
,
0000
0000
0000
0000
,
0000
0000
0000
0000
,
0000
0000
0000
0000
,
0000
0000
0000
0000
,
1010
0000
0010
1000
0001
0000
0011
0000
0010
0001
1000
0000
0100
0000
1000
0000
,
1100
0000
0100
1000
0001
0000
0101
0000
0100
0001
1000
0000
0001
0000
0010
0000
,
0011
0000
0010
0001
1000
0000
1010
0000
0010
1000
0001
0000
1000
0001
1000
0000
,
0000
0001
1000
0010
0100
0110
0000
0000
,
1000
0000
0000
0000
0100
0000
0010
0000
0100
1000
0001
0000
0000
0000
1000
0010
,
0000
0000
0000
0000
0100
0000
0010
0000
0100
0001
1000
0000
0000
0000
0001
0010
,
0000
0000
0000
0000
0100
0000
0010
0000
0100
1000
0001
0000
0000
0000
1000
0010
,
0000
0000
0000
0000
1010
0000
0010
0000
1001
0000
1000
0100
0010
0001
0010
0000
,
0100
0000
0010
0000
0001
0000
0010
0000
0100
1000
0001
0000
1000
0000
0001
1000
,
0010
0000
0100
0000
0001
0000
0100
0000
0010
1000
0001
0000
1000
0000
0001
1000
,
0100
0000
0010
0000
0001
0000
0010
0000
0100
1000
0001
0000
1000
0000
0001
1000
,
0010
0000
0000
0000
0101
0000
0100
0000
1001
0000
0000
0000
0001
1000
0001
1000
,
0001
0010
0100
1000
0100
0010
1000
0010
0001
1000
0001
0100
,
1000
0000
0100
0000
0001
0000
1000
0000
0001
0000
0010
0000
0100
0000
1000
0000
0001
0000
1000
0000
0010
0000
0100
0010
,
0200
0000
0010
0000
0301
0000
1000
0100
,
0010
0100
0010
0000
0001
0000
0100
0000
0010
0100
0010
0000
1000
0001
1000
0001
,
1000
0010
0100
0001
0100
0010
0001
0010
1000
0001
1000
0100
,
0001
0000
0000
0000
0100
0000
0000
0000
1000
0000
0000
0000
0001
0000
0000
0000
1000
0000
0000
0000
0010
0000
0000
0000
0001
0000
0000
0000
0010
0000
0000
0000
1000
0000
0000
0000
0001
0000
0000
1000
0000
0000
0100
0000
0000
0010
0000
0000
,
0001
1000
0001
1000
0001
1000
0001
1000
0001
1000
0001
1000
,
0010
0000
0000
0000
0100
0000
0000
0000
0010
0000
0000
0000
0100
0000
0000
0000
0001
0000
0000
0000
1000
0000
0000
0000
0010
0000
0000
0100
0000
0000
0010
0000
0000
0100
0000
0000
0010
0000
0000
0000
0000
0000
0010
0000
0000
0100
0000
0000
,
0001
1000
0001
0000
0000
0000
0000
0000
0000
0000
0000
0000
0000
0000
0000
0000
,
1000
0001
1000
0000
0000
0000
0000
0000
0000
0000
0000
0000
0000
0000
0000
0000
,
0001
1000
0001
0000
0010
0000
0200
0000
0310
0000
0200
0000
1300
0100
0010
0001
,
1000
0010
1000
0010
0100
0001
0100
0000
0001
0010
0001
0010
0100
1000
0100
0000
,
0010
0100
0010
0100
1000
0000
0010
0000
0100
0010
0100
0000
1000
0000
0100
0000
,
0010
0000
0001
0000
0010
0100
0010
0000
1000
0000
0100
1000
0100
0000
0010
0000
,
0001
0000
1000
0100
1000
0000
0010
0000
1000
0000
0001
0100
0001
0000
0010
0000
,
0001
0000
0010
0000
1000
0000
0001
0000
0100
1000
0001
1000
0010
0100
0010
0200
,
0001
0000
0001
0000
0010
0000
0310
0000
1000
0200
0000
0000
0320
0000
0000
0000
,
0001
0000
0001
0000
0100
0000
0130
0000
1000
0020
0000
0000
0130
0001
1000
0010
,
1000
0001
0100
0001
0010
0000
0001
1000
0100
1000
0010
0000
1000
0001
0100
0002
,
0010
0000
0000
0000
0010
0000
0000
0000
0010
0000
0000
0000
0010
0000
0000
0010
0000
0000
0013
0000
0000
0000
0000
0000
,
0001
0100
0001
0000
0100
0000
0010
0000
1000
0100
0010
0000
0100
0000
1000
0000
,
0001
0000
0010
0001
1000
0000
0001
0000
1000
0001
0200
0000
1000
0000
0000
0000
,
0301
0100
0001
0000
0100
0000
0010
0000
1000
0100
1000
0000
0100
0000
0010
0000
,
0001
1000
0001
0000
1000
0000
0010
0000
1000
0001
2000
0000
0100
0000
0000
0000
,
3001
0100
0001
0000
0010
0000
0001
0100
0001
0100
0001
0000
0010
0000
0100
0000
,
1000
0100
1000
0000
0010
0000
1000
0100
1000
0100
1000
0000
0010
0000
0100
0000
,
1000
0001
0010
0100
0001
0010
0100
0010
,
1000
0010
1000
0010
0100
0010
0100
0010
0001
0010
0001
1000
0020
0000
0000
0000
,
0230
0000
0000
0000
,
0000
0000
0000
0000
,
0302
0000
0000
0000
,
0003
1000
0010
0100
0001
0010
0100
1000
,
1100
0000
1000
0100
0010
0000
0011
0000
0001
1000
0001
0000
0101
0000
0100
0000
,
0101
0000
0001
0100
0010
0000
1010
0000
1000
0001
1000
0000
1100
0000
0100
0000
,
1100
0000
1000
0100
0010
0000
0011
0000
0001
1000
0001
0000
0100
0001
0100
0000
,
0000
0000
0001
0000
0100
0000
0010
0000
1000
0000
0100
0000
0010
0100
0010
0001
,
1000
0100
0010
0001
0010
0100
0001
0100
1000
0001
0100
1000
,
0001
0000
0010
0000
1000
0000
0001
0000
0010
0000
1000
0000
0001
0000
0100
0000
1000
0000
0010
0000
0100
0000
0010
0100
,
0020
0000
0100
0000
1030
0000
0001
0010
,
0100
0010
0100
0000
1000
0000
0010
0000
0100
0010
0100
0000
0001
1000
0001
1000
,
0001
0100
0010
1000
0010
0100
1000
0100
0001
1000
0100
0001
,
1000
0010
0001
1000
0010
0001
1000
0100
0001
1000
0100
0001
,
0100
0010
0100
0010
0100
0010
0100
0010
0100
0010
0100
0010
,
0001
0000
0000
0000
1000
0000
0000
0000
0001
0000
0000
0000
1000
0000
0000
0000
0010
0000
0000
0000
0100
0000
0000
0000
0001
0000
0000
1000
0000
0000
0001
0000
0000
1000
0000
0000
0100
0000
0000
0010
0000
0000
0001
0000
0000
1000
0000
0000
,
0010
0100
0010
0000
0000
0000
0000
0000
0000
0000
0000
0000
0000
0000
0000
0000
,
0100
0010
0100
0000
0000
0000
0000
0000
0000
0000
0000
0000
0000
0000
0000
0000
,
0010
0100
0010
0000
0000
0000
0100
0010
0100
0000
0000
0000
0000
0000
0000
0000
,
0001
0100
0001
0100
0010
1000
0010
0000
1000
0100
1000
0100
0010
0001
0010
0000
,
0001
0010
0001
0000
0101
0000
0001
0010
0001
0000
0010
0000
0101
0000
0001
0000
,
1000
0010
1000
0000
1100
0000
1000
0010
1000
0000
0010
0000
1100
0000
1000
0000
,
0001
0100
0001
0000
0011
0000
0001
0100
0001
0000
0100
0000
0011
0000
0001
0000
,
1000
0100
0010
0100
1000
0100
0010
0000
0001
0100
0010
1000
0100
0010
0001
0000
,
0000
0000
0000
0000
0000
0000
0000
0000
0000
0000
0000
0000
0000
0000
0000
0000
0000
0000
0000
0000
0000
0000
0000
0000
0000
0000
0000
0000
0000
0000
0000
0000
0000
0000
0000
0000
0000
0000
0000
0000
0000
0000
0000
0000
0000
0000
0000
0000
0000
0000
0000
0000
0000
0000
0000
0000
0000
0000
0000
0000
0000
0000
0000
0100
,
0000
0000
0000
0000
0000
0000
0000
0000
0000
0000
0000
0000
0000
0000
0000
0000
0000
0000
0000
0000
0000
0000
0000
0000
0000
0000
0000
0000
0000
0000
0000
0000
0000
0000
0000
0000
0000
0000
0000
0000
0000
0000
0000
0000
0000
0000
0000
0000
0000
0000
0000
0000
0000
0000
0000
0000
0000
0000
0000
0000
0000
0000
0000
0000
0000
0000
0000
0000
0000
0000
0000
0000
0000
0000
0000
0000
0000
0000
0000
0000
0000
0000
0000
0000
0000
0000
0000
0000
0000
0000
0000
0000
0000
0000
0000
0000
0000
0000
0000
0000
0000
0000
0000
0000
0000
0000
0000
0000
0000
0000
0000
0000
0000
0000
0000
0000
0000
0000
0000
0000
0000
0000
0000
0000
0000
0000
0000
0000
0000
0000
0000
0000
0000
0000
0000
0000
0000
0000
0000
0000
0010
0000
0000
0000
0000
0000
0000
0000
0000
0000
0000
0000
0000
0000
0000
0000
0000
0000
0000
0000
0000
0000
0000
0000
0000
0000
0000
0000
0000
0000
0000
0000
0000
0000
0000
0000
0000
0000
0000
0000
0000
0000
0000
0000
0000
0000
0000
0000
0000
1000
0000
0000
,
0000
0000
0000
0000
,
0000
1001
0000
0000
0000
0000
0000
0000
;

//--------------- dance-double - chrononical vs. forcednature ----------------
#NOTEDATA:;
#STEPSTYPE:dance-double;
#DESCRIPTION:chrononical vs. forcednature;
#DIFFICULTY:Easy;
#METER:9;
#RADARVALUES:0,0,0,0,0;
#CREDIT:chrononical vs. forcednature;
#NOTES:
00000000
00000000
00000000
00000000
,
00000000
00000000
00000000
00000000
,
00000000
00000000
00000000
00000000
,
00000000
00000000
00000000
00000000
,
00000000
00000000
00000000
00000000
,
00001000
00000000
00000000
00001000
00000000
00000000
00010000
00000000
,
00001000
00000000
00000000
00001000
00000000
00000000
00010000
00000000
,
00001000
00000000
00000000
00001000
00000000
00000000
01000000
00000000
,
00000000
00010000
10000000
00000000
00100000
01000000
00000000
00000000
,
00010000
00000000
00100000
00000000
00001000
00010000
00000000
00001000
,
00010000
00000000
00000100
00000000
00001000
00000100
00000000
00001000
,
00000100
00000000
00000010
00000000
00000001
00000100
00000000
00000001
,
00000100
00001000
00011000
00000000
,
00010000
00000000
00100000
00000000
10000000
00100000
00000000
10000000
,
00100000
00000000
01000000
00000000
00001000
00010000
00000000
00001000
,
00010000
00000000
00000100
00000000
00001000
00000001
00000000
00001000
,
00000001
00000010
00000110
00000000
,
00000001
00000100
00000010
00001000
,
00010000
01000000
00100000
10000000
,
02000000
00000000
00000000
00000000
00000000
00000000
03100000
01000000
,
00100000
00010000
10000000
00100000
,
10000000
01000000
00100000
00010000
,
00001000
00000100
00000010
00000001
,
00000200
00000010
00000010
00000310
,
00001000
00000100
00010000
00001000
,
00011000
00000000
00000000
00000000
,
00011000
00000000
00000000
00000000
,
00011000
00000000
00000000
00000000
,
00010000
00001000
00010000
00000000
00001000
00100000
00001000
00000000
,
00100000
00010000
01000000
00010000
,
00100000
00001000
00010000
00000010
,
00000010
00001000
00000100
00010000
,
00010000
00001000
01000000
00010000
,
10000000
00010000
10000000
00010000
10000000
00000000
00000000
00000000
,
00010000
10000000
00010000
10000000
00010000
00000000
00000000
00000000
,
00100000
00001000
00010000
00000100
,
00000100
00001000
00000010
00010000
,
00001000
00010000
00001000
00000000
00010000
00000100
00010000
00000000
,
00000100
00001000
00000100
00000000
00001000
00000010
00001000
00000000
,
00000001
00000100
00000001
00000000
00000100
00000000
00000010
00000000
,
00001000
00000100
00001000
00000000
00000100
00000000
00010000
00000000
,
00001000
00010000
00001000
00000000
00100000
00010000
00100000
00000000
,
00001000
00010000
00001000
00000000
01000000
00010000
01000000
00000000
,
00100000
00100000
00100000
00000000
10000000
10000000
10000000
00000000
,
01000000
01000000
01000000
00000000
00010000
00010000
00010000
00000000
,
00000000
00000000
00000000
00000000
,
00000000
00000000
00000000
00000000
,
00000000
00000000
00000000
00000000
,
00000000
00001000
00010000
00000000
00001000
00000000
00100000
00000000
,
00001000
00000000
00010000
00000100
00000000
00001000
00000010
00000000
,
00010000
00000000
00001000
01000000
00000000
00010000
00100000
00000000
,
00001000
00000000
00010000
00000100
00000000
00001000
00000010
00000000
,
00000000
00010000
00001000
00000000
00001000
00010000
00000000
00000000
,
00100000
10000000
01000000
00010000
,
00001000
00000100
00000001
00000010
,
00000200
00000000
00000000
00000000
00000000
00000000
00000310
00000100
,
00001000
00000100
00000010
00000000
00000001
00001000
00000001
00000000
,
00000010
00000001
00000100
00001000
,
00010000
01000000
10000000
00100000
,
00020000
00001000
00001000
00031000
,
00010000
00000100
00000010
00001000
,
00011000
00000000
00000000
00000000
,
00011000
00000000
00000000
00000000
,
00011000
00000000
00011000
00000000
,
00010000
00001000
00010000
00000000
00000100
00001000
00000100
00000000
,
00001000
00010010
00001000
00010010
,
00010000
00101000
00010000
00101000
,
00001000
00010100
00001000
00010100
,
00010000
01001000
01000000
00100000
,
00000000
00000000
00000000
00000000
,
00000000
00000000
00000000
00000000
,
00000000
00000000
00000000
00000000
,
00000000
10010000
00000000
00000000
00000000
00000000
00000000
00000000
;

//--------------- dance-double - chrononical vs. forcednature ----------------
#NOTEDATA:;
#STEPSTYPE:dance-double;
#DESCRIPTION:chrononical vs. forcednature;
#DIFFICULTY:Medium;
#METER:14;
#RADARVALUES:0,0,0,0,0;
#CREDIT:chrononical vs. forcednature;
#NOTES:
00000000
00000000
00000000
00000000
,
00000000
00000000
00000000
00000000
,
00000000
00000000
00000000
00000000
,
00000000
00000000
00000000
00000000
,
00000000
00000000
00000000
00000000
,
00001000
00010000
00010000
00100000
01000000
01000000
00100000
00000000
,
00010000
00001000
00001000
00000010
00000100
00000100
00000010
00000000
,
00001000
00010000
00010000
01000000
00100000
00100000
01000000
10000000
,
00000000
01000000
00010000
00001000
00010000
00011000
00000000
00000000
,
00010000
00000000
00001000
00000010
00000001
00000010
00000000
00000100
,
00000010
00000000
00000001
00000100
00001000
00000100
00000000
00001000
,
00010000
00000000
00100000
01000000
00100000
10000000
00000000
01000000
,
10000000
00000000
01000000
00010000
00001000
00010000
00001000
00000010
,
00000001
00000000
00000100
00000001
00000100
00001000
00000000
00010000
,
00001000
00000000
00010000
00100000
10000000
00100000
00000000
01000000
,
00100000
00000000
01000000
00001000
00010000
00001000
00000000
00100000
,
00001000
00000000
00010000
00001000
00011000
00000000
00010000
00000000
,
00000100
00001000
00000100
00000010
00000000
00000010
00000001
00000000
00000001
00000100
00000000
00000100
,
00000010
00001000
00000010
00010000
00000000
00010000
00001000
00000000
00001000
01000000
00000000
01000000
,
00020000
00000000
01000000
00000000
10030000
00000000
00010000
00100000
,
00001000
00010000
00001000
00000000
00010000
00000000
00000100
00000000
00001000
00000100
00001000
00000000
00000010
00000000
00000000
00000000
,
00000100
00000001
00000100
00000010
00000000
00000010
00001000
00000000
00001000
00000100
00000000
00000100
,
00010000
00001000
00100000
00001000
00000000
00001000
01000000
00000000
01000000
00010000
00000000
00100000
,
00001000
00010000
00001000
00010000
00001000
00010000
00001000
00010000
00001000
00010000
00001000
00010000
,
00000010
00001000
00000010
00001000
00000010
00001000
00000001
00000010
00000100
00001000
00000000
00000000
,
00000010
00000010
00000000
00000000
00000000
00000000
00000000
00000000
,
00000100
00000100
00000000
00000000
00000000
00000000
00000000
00000000
,
00000010
00000010
00010000
00002000
00013000
00002000
01003000
00010000
,
00100000
00100000
00100000
02000000
00000000
13000000
00010000
00000000
,
01000000
00010000
01000000
00000000
00010000
00000000
00100000
00000000
00010000
00100000
00010000
00000000
01000000
00000000
00001000
00000000
,
00010000
00000000
00000100
00000000
00001000
00000100
00001000
00000000
00000010
00000000
00001000
00000010
00001000
00000000
00000001
00000000
,
00000010
00000000
00000100
00000010
00000100
00000000
00001000
00000000
00000100
00000000
00010000
00000100
00010000
00000000
00001000
00000000
,
01000000
00010000
00100000
00010000
10000000
00200000
00000000
00000000
,
00310000
00001000
00010000
00100000
00020000
00000000
00001000
00000000
,
00030100
00000000
00000000
00000100
00001000
00000000
00001000
00000000
00000020
00000000
00000000
00000000
00000100
00000000
00000000
00000000
,
00001030
00000000
00000001
00000000
00000010
00000000
00000100
00000010
00000000
00000100
00000010
00000000
00000001
00000000
00001000
00000000
,
00000020
00000000
00000000
00000000
00000230
00000000
00000000
00000000
00002300
00000000
00000000
00000000
00013000
00000000
00000000
00010000
00000000
00000000
00010000
00000000
00000000
00000000
00000000
00000000
,
00010000
00001000
00010000
00000000
00001000
00000000
00100000
00000000
00010000
00100000
00010000
00000000
01000000
00000000
00100000
00000000
,
10000000
00000000
01000000
10000000
01000000
00000000
00100000
00000000
01000000
00100000
02000000
00000000
00010000
00000000
00000000
00000000
,
03100000
01000000
00100000
00000000
00010000
00000000
00100000
00000000
00001000
00010000
00001000
00000000
00010000
00000000
00000100
00000000
,
00001000
00000100
00001000
00000000
00000010
00000000
00000100
00000000
00000001
00000100
00000001
00000000
00001000
00000000
00000010
00000000
,
00000100
00000010
00000100
00000000
00000001
00000000
00000010
00000000
00000100
00000010
00000100
00000000
00001000
00000000
00000010
00000000
,
00010000
00001000
00010000
00000000
00001000
00000000
00100000
00000000
00010000
00100000
00010000
00000000
01000000
00000000
00100000
00000000
,
10000000
01000000
00010000
00001000
00000100
00000001
00000010
00000000
,
00000001
00000100
00001000
00010000
01000000
10000000
00100000
00000000
,
02000000
00000000
00000000
00000000
,
00000000
00000000
00000000
03000000
,
00020000
00000000
00000000
00000000
,
00030000
00100000
01000000
00100000
00001000
00010000
00000100
00000010
,
00000100
00000000
00010000
00001000
00010000
00000000
00000010
00000000
00010000
00001000
00010000
00000000
00011000
00000000
00000000
00000000
,
01000000
00000000
00001000
00010000
00001000
00000000
00100000
00000000
00001000
00010000
00001000
00000000
00011000
00000000
00000000
00000000
,
00000100
00000000
00010000
00001000
00010000
00000000
00000010
00000000
00010000
00001000
00010000
00000000
00001000
00000000
00001000
00000000
,
00000000
00010000
00100000
10000000
00100000
01100000
00000000
00000000
,
00100000
10000000
00010000
10000000
00000000
10000000
01000000
00000000
01000000
00010000
00000000
00010000
,
00001000
00100000
00001000
00010000
00000000
00010000
00001000
00000000
00001000
00000010
00000000
00000010
,
00000002
00000000
00000100
00000000
00001003
00000000
00000001
00000010
,
00000100
00000010
00000100
00000000
00001000
00000000
00000010
00000000
00010000
00001000
00010000
00000000
00001000
00000000
00000000
00000000
,
00100000
00010000
00100000
01000000
00000000
01000000
10000000
00000000
10000000
00100000
00000000
00100000
,
01000000
00001000
00010000
00001000
00000000
00001000
00010000
00000000
00010000
00001000
00000000
00001000
,
00000100
00000010
00000100
00000010
00000100
00000010
00000100
00000010
00000100
00000010
00000100
00000010
,
00010000
00001000
00010000
00001000
00010000
00001000
01000000
00100000
10000000
00100000
00000000
00000000
,
10010000
00000000
00000000
00000000
,
00011000
00000000
00000000
00000000
,
00000000
00001001
00000000
00000000
00000000
00000000
00000000
00000000
00001001
00000000
00000000
00000000
00000000
00000000
00000000
00000000
,
00000001
00000001
00000001
00000010
00000001
00000100
00001000
00010000
,
00001000
02000000
00010000
00000000
03001000
02000000
00010000
00000000
,
03001000
00200000
00010000
00000000
00301000
00100000
00010000
00000000
,
00001000
00000200
00010000
00000000
00001300
00000200
00010000
00000000
,
00001300
00000100
00001000
00000000
00000010
00000000
00001000
00000000
00000010
00000100
00000010
00000000
00000100
00000001
00000100
00000000
,
00000000
00000000
00000000
00000000
00000000
00000000
00000000
00000000
00000000
00000000
00000000
00000000
00000000
00000000
00000000
00000000
00000000
00000000
00000000
00000000
00000000
00000000
00000000
00000000
00000000
00000000
00000000
00000000
00000000
00000000
00000000
00000000
00000000
00000000
00000000
00000000
00000000
00000000
00000000
00000000
00000000
00000000
00000000
00000000
00000000
00000000
00000000
00000000
00000000
00000000
00000000
00000000
00000000
00000000
00000000
00000000
00000000
00000000
00000000
00000000
00000000
00000000
00000000
00001000
,
00000000
00000000
00000000
00000000
00000000
00000000
00000000
00000000
00000000
00000000
00000000
00000000
00000000
00000000
00000000
00000000
00000000
00000000
00000000
00000000
00000000
00000000
00000000
00000000
00000000
00000000
00000000
00000000
00000000
00000000
00000000
00000000
00000000
00000000
00000000
00000000
00000000
00000000
00000000
00000000
00000000
00000000
00000000
00000000
00000000
00000000
00000000
00000000
00000000
00000000
00000000
00000000
00000000
00000000
00000000
00000000
00000000
00000000
00000000
00000000
00000000
00000000
00000000
00000000
00000000
00000000
00000000
00000000
00000000
00000000
00000000
00000000
00000000
00000000
00000000
00000000
00000000
00000000
00000000
00000000
00000000
00000000
00000000
00000000
00000000
00000000
00000000
00000000
00000000
00000000
00000000
00000000
00000000
00000000
00000000
00000000
00000000
00000000
00000000
00000000
00000000
00000000
00000000
00000000
00000000
00000000
00000000
00000000
00000000
00000000
00000000
00000000
00000000
00000000
00000000
00000000
00000000
00000000
00000000
00000000
00000000
00000000
00000000
00000000
00000000
00000000
00000000
00000000
00000000
00000000
00000000
00000000
00000000
00000000
00000000
00000000
00000000
00000000
00000000
00000000
00010000
00000000
00000000
00000000
00000000
00000000
00000000
00000000
00000000
00000000
00000000
00000000
00000000
00000000
00000000
00000000
00000000
00000000
00000000
00000000
00000000
00000000
00000000
00000000
00000000
00000000
00000000
00000000
00000000
00000000
00000000
00000000
00000000
00000000
00000000
00000000
00000000
00000000
00000000
00000000
00000000
00000000
00000000
00000000
00000000
00000000
00000000
00000000
00000000
00100000
00000000
00000000
,
00000000
00000000
00000000
00000000
,
00000000
10010000
00000000
00000000
00000000
00000000
00000000
00000000
;

//--------------- dance-double - chrononical vs. forcednature ----------------
#NOTEDATA:;
#STEPSTYPE:dance-double;
#DESCRIPTION:chrononical vs. forcednature;
#DIFFICULTY:Hard;
#METER:17;
#RADARVALUES:0,0,0,0,0;
#CREDIT:chrononical vs. forcednature;
#NOTES:
00000000
00000000
00000000
00000000
,
00000000
00000000
00000000
00000000
,
00000000
00000000
00000000
00000000
,
00000000
00000000
00000000
00000000
,
00000000
00000000
00000000
00000000
,
00011000
00000000
00010000
00001000
00010000
00000000
00011000
00000000
00001000
00010000
00100000
00000000
10000000
00000000
01000000
00000000
,
00011000
00000000
00001000
00010000
00001000
00000000
00011000
00000000
00010000
00001000
00000010
00000000
00000001
00000000
00000100
00000000
,
00011000
00000000
00010000
00001000
00010000
00000000
00011000
00000000
00001000
00010000
00100000
00000000
01000000
00100000
01000000
00000000
,
00000000
00100000
00010000
00001000
00000100
00000110
00000000
00000000
,
00000010
00000000
00000000
00000000
00001000
00000000
00000001
00000000
00000010
00000100
00001000
00000000
00000000
00000000
00000100
00010000
,
00000000
00000000
00000000
00000000
00001000
00000000
00100000
00000000
00010000
01000000
00100000
00000000
00000000
00000000
10000000
00100000
,
00000000
00000000
00000000
00000000
01000000
00000000
00001000
00000000
00010000
00001000
00010000
00000000
00000000
00000000
00001000
00010000
,
00000000
00000000
00000000
00000000
00001100
00000000
00000001
00000000
00000101
00000000
00000100
00000010
00001000
00000100
00000010
00000001
,
00001000
00000000
00000010
00000000
00010000
00000000
00001000
00000000
00100000
00010000
10000000
00000000
01000000
00000000
10000000
00010000
,
00100000
00000000
00001000
00000000
00010000
00000000
00000010
00000000
00001000
00000001
00000100
00000000
00000010
00000000
00000100
00000001
,
00001000
00000000
00000100
00000000
00010000
00000000
00001000
00000000
01000000
00010000
00100000
00000000
01000000
00000000
00100000
00010000
,
01000000
00000000
00000000
00000000
10100000
00000000
00100000
00000000
01010000
00000000
00000000
00000000
00001000
00010000
00001000
00010000
,
00001000
00010000
00100000
01000000
00100000
00010000
00001000
00010000
00001000
00000100
00000010
00000100
,
00000001
00000000
00001000
00000000
00000001
00000000
00000010
00000000
00000100
00000000
00000010
00000000
00001000
00000000
00010000
00000000
00001000
00000000
00010000
00000000
01000000
00000000
00100000
01000000
,
00200000
00000000
01000000
00000000
00310000
00000000
00100000
01000000
,
10000000
00010000
10000000
00000000
00100000
00000000
01000000
00000000
00010000
00100000
00001000
00000000
00010000
00001000
00010000
00001000
,
00010000
00001000
00000010
00000100
00000010
00001000
00010000
00001000
00010000
01000000
00100000
01000000
,
10000000
00000000
00000000
00000000
00010000
00000000
00000000
00000000
10000000
00000000
00000000
00000000
00100000
00000000
00000000
00000000
01000000
00000000
00000000
00000000
00100000
00000000
00000000
00000000
00010000
00000000
00000000
00000000
00001000
00000000
00000000
00000000
00010000
00000000
00000000
00000000
00001000
00000000
00000000
00000000
00000000
00000000
00000100
00000000
00000000
00000010
00000000
00000000
,
00001000
00000001
00001000
00000001
00001000
00000001
00001000
00000001
00001000
00000001
00001000
00000001
,
00000010
00000000
00000000
00000000
00001000
00000000
00000000
00000000
00000010
00000000
00000000
00000000
00001000
00000000
00000000
00000000
00010000
00000000
00000000
00000000
01000000
00000000
00000000
00000000
00100000
00000000
00000000
01000000
00000000
00000000
00100000
00000000
00000000
01000000
00000000
00000000
10000000
00000000
00000000
00000000
00000000
00000000
10000000
00000000
00000000
01000000
00000000
00000000
,
00010000
00001000
00010000
00000000
00000000
00000000
00000000
00000000
00000000
00000000
00000000
00000000
00000000
00000000
00000000
00000000
,
00001000
00010000
00001000
00000000
00000000
00000000
00000000
00000000
00000000
00000000
00000000
00000000
00000000
00000000
00000000
00000000
,
00010000
00001000
00010000
00000000
00001000
00000000
00000020
00000000
00001030
00000000
00000020
00000000
00000031
00000010
00000100
00001000
,
00000001
00000100
00000001
00000100
00000010
00001000
00000010
00000000
00010000
00001000
00010000
00001000
00100000
00000000
00010000
00000000
,
01000000
00100000
01000000
00100000
10000000
00000000
01000000
00000000
00100000
01000000
00100000
00000000
10000000
00000000
00100000
00000000
,
01000000
00000000
00010000
00000000
00001000
00010000
00001000
00000000
00000010
00000000
00000100
00000010
00000001
00000000
00001000
00000000
,
00000010
00000000
00000100
00000010
00000100
00000000
00001000
00000000
00010000
00000000
00001000
00010000
00001000
00000000
01000000
00000000
,
00100000
00000000
00001000
00000000
00010000
00000000
01000000
00000000
00100000
10000000
00010000
00000000
01000000
00100000
01000000
00100000
,
00020000
00000000
00032000
00000000
00003200
00000000
00020300
00000000
00031000
00000020
00000000
00000000
00000032
00000000
00000000
00000000
,
00000023
00000000
00002030
00000000
00023000
00000000
02030000
00000000
03001000
00020000
00000000
00000000
00030010
00001000
00000001
00001000
,
00000100
00010000
00001000
00100000
00001000
00000000
01000000
00001000
00010000
00000010
00010000
00000000
00000100
00010000
00001000
00200000
,
01000000
00000000
00000000
00000000
01000000
00000000
00000000
00000000
01000000
00000000
00000000
00000000
01000000
00000000
00000000
01000000
00000000
00000000
01300000
00000000
00000000
00000000
00000000
00000000
,
00100000
00010000
00100000
00000000
00001000
00000000
00010000
00000000
00000010
00001000
00000001
00000000
00000100
00000000
00001000
00000000
,
00010000
00000000
00100000
10000000
00010000
00000000
00100000
00000000
01000000
10000000
02000000
00000000
00010000
00000000
00000000
00000000
,
03100000
01000000
00100000
00000000
00001000
00000000
00010000
00000000
00000010
00000100
00000010
00000000
00010000
00000000
00001000
00000000
,
01000000
00100000
01000000
00000000
00001000
00000000
00010000
00000000
00000100
00000010
00000002
00000000
00000100
00000000
00000000
00000000
,
00000013
00000100
00000010
00000000
00001000
00000000
00000010
00000100
00000010
00000100
00000010
00000000
00000001
00000000
00000100
00000000
,
00001000
00010000
00001000
00000000
00000010
00000000
00001000
00010000
00001000
00010000
00001000
00000000
00010000
00000000
00000100
00000000
,
00000001
00000100
00000010
00001000
00010000
01000000
00100000
10000000
,
00100000
00010000
00100000
00010000
00001000
00010000
00001000
00010000
00001000
00000100
00001000
00000100
00000020
00000000
00000000
00000000
,
00000032
00000000
00000000
00000000
,
00000000
00000000
00000000
00000000
,
00002003
00000000
00000000
00000000
,
00003000
00000010
00000100
00001000
00010000
01000000
00100000
00001000
,
00011000
00000000
00010000
00000100
00001000
00000000
00001010
00000000
00000010
00000100
00001000
00000000
00011000
00000000
00010000
00000000
,
00011000
00000000
00001000
01000000
00010000
00000000
00110000
00000000
00100000
01000000
00010000
00000000
00011000
00000000
00001000
00000000
,
00011000
00000000
00010000
00000100
00001000
00000000
00001010
00000000
00000010
00000100
00001000
00000000
00010000
00001000
00010000
00000000
,
00000000
00000000
00000010
00000000
00000100
00000000
00001000
00000000
00010000
00000000
00100000
00000000
01000000
00100000
10000000
00010000
,
01000000
00100000
00010000
00001000
00010000
00001000
00000100
00000010
00000100
00001000
00010000
00001000
,
00000100
00000000
00000001
00000000
00001000
00000000
00000001
00000000
00000010
00000000
00000100
00000000
00000010
00000000
00001000
00000000
00010000
00000000
01000000
00000000
00010000
00000000
01000000
00100000
,
02000000
00000000
10000000
00000000
03100000
00000000
01000000
00010000
,
00001000
00010000
00001000
00000000
00100000
00000000
00001000
00000000
00010000
00000100
00001000
00000000
00000010
00001000
00000010
00001000
,
00000100
00000010
00001000
00010000
00001000
00010000
01000000
00100000
01000000
00010000
00001000
00010000
,
01000000
10000000
00010000
10000000
00100000
01000000
00100000
00010000
00001000
00000100
00000001
00000010
,
00001000
00010000
00001000
00010000
00001000
00010000
00001000
00010000
00001000
00010000
00001000
00010000
,
01000000
00000000
00000000
00000000
10000000
00000000
00000000
00000000
01000000
00000000
00000000
00000000
00100000
00000000
00000000
00000000
00001000
00000000
00000000
00000000
00010000
00000000
00000000
00000000
00000010
00000000
00000000
00001000
00000000
00000000
00000001
00000000
00000000
00000100
00000000
00000000
00000001
00000000
00000000
00001000
00000000
00000000
00000010
00000000
00000000
00000100
00000000
00000000
,
00001000
00010000
00001000
00000000
00000000
00000000
00000000
00000000
00000000
00000000
00000000
00000000
00000000
00000000
00000000
00000000
,
00010000
00001000
00010000
00000000
00000000
00000000
00000000
00000000
00000000
00000000
00000000
00000000
00000000
00000000
00000000
00000000
,
00001000
00010000
00001000
00000000
00000000
00000000
00010000
00001000
00010000
00000000
00000000
00000000
00000000
00000000
00000000
00000000
,
00001000
00100000
00001000
00100000
00010000
01000000
00010000
00000000
00100000
01000000
00100000
01000000
10000000
00010000
01000000
00000000
,
00001000
00010000
00001000
00000000
00101000
00000000
00001000
00010000
00001000
00000000
00010000
00000000
00101000
00000000
00001000
00000000
,
00010000
00001000
00010000
00000000
00010010
00000000
00010000
00001000
00010000
00000000
00001000
00000000
00010010
00000000
00000010
00000000
,
00001000
00000100
00001000
00000000
00001010
00000000
00001000
00000100
00001000
00000000
00000100
00000000
00001010
00000000
00001000
00000000
,
00000001
00000100
00000010
00000100
00000001
00001000
00000001
00000000
00001000
00000100
00010000
00001000
01000000
00010000
00100000
00000000
,
00000000
00000000
00000000
00000000
00000000
00000000
00000000
00000000
00000000
00000000
00000000
00000000
00000000
00000000
00000000
00000000
00000000
00000000
00000000
00000000
00000000
00000000
00000000
00000000
00000000
00000000
00000000
00000000
00000000
00000000
00000000
00000000
00000000
00000000
00000000
00000000
00000000
00000000
00000000
00000000
00000000
00000000
00000000
00000000
00000000
00000000
00000000
00000000
00000000
00000000
00000000
00000000
00000000
00000000
00000000
00000000
00000000
00000000
00000000
00000000
00000000
00000000
00000000
01000000
,
00000000
00000000
00000000
00000000
00000000
00000000
00000000
00000000
00000000
00000000
00000000
00000000
00000000
00000000
00000000
00000000
00000000
00000000
00000000
00000000
00000000
00000000
00000000
00000000
00000000
00000000
00000000
00000000
00000000
00000000
00000000
00000000
00000000
00000000
00000000
00000000
00000000
00000000
00000000
00000000
00000000
00000000
00000000
00000000
00000000
00000000
00000000
00000000
00000000
00000000
00000000
00000000
00000000
00000000
00000000
00000000
00000000
00000000
00000000
00000000
00000000
00000000
00000000
00000000
00000000
00000000
00000000
00000000
00000000
00000000
00000000
00000000
00000000
00000000
00000000
00000000
00000000
00000000
00000000
00000000
00000000
00000000
00000000
00000000
00000000
00000000
00000000
00000000
00000000
00000000
00000000
00000000
00000000
00000000
00000000
00000000
00000000
00000000
00000000
00000000
00000000
00000000
00000000
00000000
00000000
00000000
00000000
00000000
00000000
00000000
00000000
00000000
00000000
00000000
00000000
00000000
00000000
00000000
00000000
00000000
00000000
00000000
00000000
00000000
00000000
00000000
00000000
00000000
00000000
00000000
00000000
00000000
00000000
00000000
00000000
00000000
00000000
00000000
00000000
00000000
00010000
00000000
00000000
00000000
00000000
00000000
00000000
00000000
00000000
00000000
00000000
00000000
00000000
00000000
00000000
00000000
00000000
00000000
00000000
00000000
00000000
00000000
00000000
00000000
00000000
00000000
00000000
00000000
00000000
00000000
00000000
00000000
00000000
00000000
00000000
00000000
00000000
00000000
00000000
00000000
00000000
00000000
00000000
00000000
00000000
00000000
00000000
00000000
00000000
00001000
00000000
00000000
,
00000000
00000000
00000000
00000000
,
00000000
00011000
00000000
00000000
00000000
00000000
00000000
00000000
;
