#VERSION:0.83;
#TITLE:檄;
#SUBTITLE:;
#ARTIST:Ryu☆ feat.青龍;
#TITLETRANSLIT:Geki;
#SUBTITLETRANSLIT:;
#ARTISTTRANSLIT:Ryu feat. Seiryu;
#GENRE:;
#CREDIT:;
#MUSIC:Geki.ogg;
#BANNER:Geki.png;
#BACKGROUND:Geki-bg.png;
#CDTITLE:./CDTitles/jb Qubell.png;
#SAMPLESTART:72.716;
#SAMPLELENGTH:15.000;
#SELECTABLE:YES;
#OFFSET:0.154;
#BPMS:0.000=191.000
,72.000=95.500
,87.500=191.000
,184.000=95.500
,199.500=191.000
,236.000=95.500
,238.000=191.000
,242.000=95.500
,244.000=191.000
;
#STOPS:87.500=0.157
,199.500=0.157
;
#TIMESIGNATURES:0.000=4=4,
236.000=2=4,
238.000=4=4,
242.000=2=4,
244.000=4=4
;
#BGCHANGES:0.000=../BGAs/30rd.mp4=1.000=0=0=0=StretchNoLoop====,
99999.000=-nosongbg-=1.000=0=0=0=StretchNoLoop====
;
#FGCHANGES:;

//--------------- dance-single - forcednature ----------------
#NOTEDATA:;
#STEPSTYPE:dance-single;
#DESCRIPTION:forcednature;
#DIFFICULTY:Beginner;
#METER:4;
#RADARVALUES:0,0,0,0,0;
#CREDIT:forcednature;
#NOTES:
0000
0000
0000
0000
,
0000
0000
0000
0000
,
0000
0000
0000
0000
,
0000
0000
0000
0000
,
0000
0000
0000
0000
,
0000
0000
0000
0000
,
0001
0000
0000
0000
,
1000
0000
0000
0000
,
0001
0000
0000
0000
,
0100
0000
0000
0000
,
0020
0000
0000
0000
,
0000
0000
0030
0000
,
2000
0000
0000
0000
,
0000
0000
3000
0000
,
0001
0000
0001
0000
,
0010
0000
0000
0000
,
0001
0000
0100
0000
,
0001
0000
0000
0000
,
1001
0000
0000
0000
,
1000
0000
0100
0000
,
1000
0000
0000
0000
,
0010
0010
0100
0000
,
0001
0000
0000
0000
,
1000
0000
0000
0000
,
0001
0000
0000
0000
,
0010
0000
0100
0000
,
1000
0000
0000
0000
,
0001
0000
0000
0000
,
1000
0000
0000
0000
,
0010
0000
0100
0000
,
0002
0000
0000
0000
,
0000
0000
0003
0000
,
0020
0000
0000
0000
,
0000
0000
0030
0000
,
0200
0000
0000
0000
,
0000
0000
0300
0000
,
2000
0000
0000
0000
,
0000
0000
3000
0000
,
0010
0000
0010
0000
,
1000
0000
0000
0000
,
0100
0000
0100
0000
,
1000
0000
0000
0000
,
0001
0000
0100
0000
,
0001
0000
0100
0000
,
0010
1000
0010
0000
,
2000
0000
3000
0000
,
1001
0000
0001
0010
,
0100
0010
0001
0000
,
1000
0000
0010
0010
,
0100
0000
0001
0000
,
1001
0000
1000
0000
,
0100
0000
1000
0000
,
0010
0000
0000
0000
,
0100
0000
0010
0000
,
0100
0000
0001
0000
,
0010
0000
0001
0000
,
0010
0000
0000
0000
,
0001
0000
1000
0000
,
1001
0000
0000
0000
,
0001
0000
0110
0000
,
0000
0000
1000
0000
,
1001
0000
0000
0000
,
0001
0000
0010
0000
,
0001
0000
0001
0000
,
1000
0000
0000
0000
,
2002
0000
0000
0000
,
3003
0000
0000
0000
;

//--------------- dance-single - forcednature ----------------
#NOTEDATA:;
#STEPSTYPE:dance-single;
#DESCRIPTION:forcednature;
#DIFFICULTY:Easy;
#METER:10;
#RADARVALUES:0,0,0,0,0;
#CREDIT:forcednature;
#NOTES:
0000
0000
0000
0000
,
0000
0000
0000
0000
,
0000
0000
0000
0000
,
0000
0000
0000
0000
,
0000
0000
0000
0000
,
0000
0000
0000
0000
,
1000
0001
0000
0001
,
0100
0000
0001
0000
0000
0001
0100
0000
,
0001
1000
0000
1000
,
0001
0000
1000
0000
0000
1000
0100
0000
,
0110
0010
0001
0010
,
0100
1000
0100
0000
1000
0000
0010
0000
,
0110
0100
0001
0100
,
0010
0000
1000
0000
0100
1000
0100
0000
,
0010
0000
0001
0000
0100
0001
0100
0000
,
0010
0000
1000
0000
0100
1000
0100
0000
,
2000
0010
0001
3100
,
0220
0000
0000
0330
,
1001
0000
0001
0000
0100
0000
0010
0100
0010
0000
1000
0000
1010
0000
0000
0000
,
0001
0000
0010
0001
0010
0000
0100
0000
1000
0000
0001
0000
1001
0000
0110
0000
,
0001
0000
1000
0001
1000
0000
0100
0000
0010
0000
0001
0000
0200
0000
0320
0000
,
1030
0000
1100
0000
0001
0000
0101
0000
1000
0000
1000
0001
0000
0001
0100
0000
,
0010
0110
0010
1010
,
1000
0001
1000
0000
0100
0000
0010
0000
,
0001
0101
0001
1001
,
1000
0010
1000
0000
0001
0000
0010
0000
,
0100
1100
0100
0110
,
0010
0000
0001
0000
0100
0001
0100
0000
,
0010
1010
0010
0110
,
1000
0000
1000
0001
0000
0001
1000
0000
,
0020
0000
0000
0000
,
0230
0000
0000
0000
,
0302
0000
0000
0000
,
2003
0000
0000
0000
,
3010
0010
0010
0010
,
0100
0100
0100
0100
,
0001
0001
0001
0001
,
1000
1000
1000
1000
,
0100
0000
0010
0000
0100
0010
0100
0000
,
0010
0001
1000
0010
,
0100
0000
0010
0000
0100
0010
0100
0000
,
0010
1000
0001
0010
,
0100
0000
1000
0000
0100
1000
0100
0000
,
1000
0000
0010
0000
1000
0010
1000
0000
,
0002
0010
1000
0103
,
0220
0000
0000
0330
,
2002
0000
3003
0000
1000
0100
1000
0000
0010
0000
0100
0000
0001
0100
0001
0000
,
0010
0000
0100
0010
0001
0000
0100
0000
0010
0000
0010
1000
0010
0000
0100
0000
,
1001
0000
0001
0000
1000
0001
0010
0000
0100
0000
0100
0010
0002
0000
2003
0000
,
3010
0000
0110
0000
0100
0000
0110
0000
0001
0000
0001
1000
0000
1000
0001
0000
,
0010
0100
1000
0000
0010
1000
0010
0000
,
0100
0101
0011
1000
,
0010
0100
0001
0000
0010
0001
0010
0000
,
0100
1100
1010
0001
,
0010
0100
1000
0000
1000
0010
0100
0000
,
0001
0011
1010
0001
,
0100
0010
0100
0000
0010
1000
0010
0000
,
0220
0000
0000
0330
,
1000
0001
0010
0000
0001
1000
0010
0000
,
0200
0000
0301
1000
0100
0010
0001
0000
,
0100
0010
1000
0000
1001
0001
0200
0320
,
1030
0000
1000
0010
1000
0000
1000
0001
,
1000
0000
1000
0100
0010
0000
0001
0000
,
0100
0010
0100
0000
0010
1000
0001
0000
,
0020
0000
0000
0030
,
2002
0000
0000
0000
,
3003
0000
0000
0000
;

//--------------- dance-single - forcednature ----------------
#NOTEDATA:;
#STEPSTYPE:dance-single;
#DESCRIPTION:forcednature;
#DIFFICULTY:Medium;
#METER:14;
#RADARVALUES:0,0,0,0,0;
#CREDIT:forcednature;
#NOTES:
0000
0000
0000
0000
,
0000
0000
0000
0000
,
0000
0000
0000
0000
,
0000
0000
0000
0000
,
0000
0000
0000
0000
,
0000
0000
0000
0000
,
1000
0000
1001
0000
0000
0001
0010
0000
,
0001
0000
0100
0010
0000
0010
0100
0000
,
0001
0000
1001
0000
0000
1000
0010
0000
,
1000
0000
0100
0010
0000
0010
0100
0000
,
2000
0010
0001
3010
,
1000
0100
0001
0000
0100
1000
0010
0000
,
0200
0001
0010
1300
,
0100
0001
0010
0000
0100
1000
0010
0000
,
0100
0001
0100
0001
0010
0001
0010
0001
,
1000
0010
0100
0001
0010
0100
1000
0000
,
0010
0100
0010
0100
1000
0100
0001
0010
,
0200
0300
0200
0300
0200
0300
0011
0000
,
2000
0000
0000
0000
0010
0000
0000
0000
3001
0000
0010
0000
0100
0000
1000
0000
0010
0000
0000
0010
0000
0000
0100
0000
0001
0000
0000
0000
1001
0000
0000
0000
,
2000
0000
0000
0000
3200
0000
0000
0000
0310
0000
0100
0000
0001
0000
0100
0000
0010
0000
0000
0010
0000
0000
0001
0000
0100
0000
0000
0000
0110
0000
0000
0000
,
0020
0000
0000
0000
0000
0000
0000
0000
0000
0000
0000
0000
1000
0000
0000
0000
0000
0000
0000
0000
0000
0000
0000
0000
0130
0000
0000
0000
0000
0000
0001
0000
0000
0000
0000
0000
0010
0000
0000
0000
0000
0000
0100
0000
0000
0000
0000
0000
1000
0000
0000
0000
0000
0000
0000
0000
0000
1000
0000
0000
0000
0000
0000
0000
0000
0000
0001
0000
0000
0000
0000
0000
0100
0000
0000
0000
0010
0000
0000
0000
0100
0000
0000
0000
0010
0000
0000
0000
1000
0000
0000
0000
0010
0000
0000
0000
,
2000
0000
0100
0000
3002
0000
0100
0000
1003
1000
0010
0100
0100
0001
0010
0000
,
1001
0000
1100
0000
0100
0010
0001
0010
,
0100
1000
0010
0000
0100
0001
0010
0000
,
0001
0100
0001
0100
0010
1000
0010
1000
,
0100
0010
0001
0100
0010
1000
0100
0000
,
1000
0010
1000
0010
0001
0010
0001
0010
,
1000
0100
1000
0100
0001
0100
0001
0100
,
1000
0001
0100
0010
1000
0001
0010
0000
,
0001
0001
1000
0001
0001
1000
0010
0000
,
0200
0000
0000
0000
0000
0000
0000
0302
,
0000
0000
0000
0023
0000
0000
0000
0000
,
0230
0000
0000
0000
0000
0000
0000
2300
,
0000
0000
0000
3020
0000
0000
0030
0000
,
2000
0100
0100
3100
,
0002
0010
0010
0013
,
2000
0010
0010
3010
,
0002
0100
0100
0103
,
0110
0000
0010
1000
0010
0100
0010
0000
,
0100
0001
0010
0000
0100
1000
0010
0000
,
0110
0000
0100
0001
0100
0010
0100
0000
,
0010
1000
0100
0000
0010
0001
0100
0000
,
0010
1000
0010
1000
0100
1000
0100
1000
,
0001
0010
0100
1000
0010
0100
0001
0000
,
0010
0001
0010
0001
0100
0010
1000
0100
,
0020
0030
0020
0030
0020
0030
1001
0000
,
0002
0000
0000
0000
0010
0000
0000
0000
1003
0000
0010
0000
0001
0000
0010
0000
1000
0000
0000
1000
0000
0000
0001
0000
0100
0000
0100
0000
0010
0000
0000
0000
,
1000
0000
0100
0000
0001
0000
0100
0000
1000
0000
0010
0000
1000
0000
0000
0000
0001
0000
0000
0001
0000
0000
0010
0000
0001
0000
0100
0000
0010
0000
0000
0000
,
0210
0000
0000
0000
0000
0000
0000
0000
0000
0000
0000
0000
0001
0000
0000
0000
0000
0000
0000
0000
0000
0000
0000
0000
0310
0000
0000
0000
0000
0000
1000
0000
0000
0000
0000
0000
0100
0000
0000
0000
0000
0000
0001
0000
0000
0000
0000
0000
0100
0000
0000
0000
0000
0000
0000
0000
0000
0100
0000
0000
0000
0000
0000
0000
0000
0000
1000
0000
0000
0000
0000
0000
0001
0000
0000
0000
0100
0000
0000
0000
0001
0000
0000
0000
0100
0000
0000
0000
0010
0000
0000
0000
0100
0000
0000
0000
,
0020
0000
1000
0000
0230
0000
0301
0000
0110
0000
1001
0000
1000
0100
0001
0000
,
0100
1000
0010
1000
0100
0010
0001
0100
,
1000
0000
0100
0000
0001
0000
0010
0000
0100
0000
1000
0100
1000
0000
0000
0000
,
0010
0100
0001
0010
0001
0100
1000
0100
,
0001
0000
0010
0000
0100
0000
1000
0000
0001
0000
0100
0001
0100
0000
0000
0000
,
0010
1000
0100
0010
0100
1000
0010
0100
,
0001
0000
0010
0000
1000
0000
0010
0000
0001
0000
0100
0001
0100
0000
0000
0000
,
0010
1000
0010
1000
0001
0010
1000
0010
,
0002
0003
0002
0003
0002
0003
1100
0000
,
1000
0010
0100
0010
0001
0010
1000
0010
,
0200
0000
0001
0000
0310
1000
0100
0001
0100
0000
1000
0000
0100
0000
1000
0000
,
0010
0000
0000
0000
0000
0000
0000
0000
0000
0000
0000
0000
0100
0000
0000
0000
0000
0000
0000
0000
0000
0000
0000
0000
0001
0000
0000
0000
0000
0000
0000
0000
0000
0000
0000
0000
0010
0000
0000
0000
0000
0000
0000
0000
0000
0000
0000
0000
1000
0000
0000
0000
0000
0000
0000
0000
0000
1000
0000
0000
0000
0000
0000
0000
0000
0000
0010
0000
0000
0000
0000
0000
0001
0000
0000
0000
0010
0000
0000
0000
0001
0000
0000
0000
0010
0000
0000
0000
0100
0000
0000
0000
0010
0000
0000
0000
,
0100
1000
0010
1000
0100
0010
0001
0100
,
1000
0100
0001
0010
0100
1000
0010
0100
,
1000
0100
1000
0100
0001
0100
1000
0100
,
0002
0003
0002
0003
0002
0003
0110
0000
,
2002
0000
0000
0000
,
3003
0000
0000
0000
;

//--------------- dance-single - forcednature ----------------
#NOTEDATA:;
#STEPSTYPE:dance-single;
#DESCRIPTION:forcednature;
#DIFFICULTY:Hard;
#METER:17;
#RADARVALUES:0,0,0,0,0;
#CREDIT:forcednature;
#NOTES:
0000
0000
0000
0000
,
0000
0000
0000
0000
,
0000
0000
0000
0000
,
0000
0000
0000
0000
,
0000
0000
0000
0000
,
0000
0000
0000
0000
,
1100
0000
0001
0000
0000
0100
0001
0000
,
0010
0000
0001
1000
0000
1000
0001
0000
,
0101
0000
1000
0000
0000
0100
1000
0000
,
0010
0000
0000
0000
1000
0000
0001
0000
0000
0000
0001
1000
0100
0000
0000
0000
,
0010
0000
0100
0000
0010
0000
0001
0000
0100
0001
0000
0001
0000
0100
0000
0010
,
0000
1000
0010
0000
0100
0000
0010
0000
1000
0100
0000
0010
0000
0001
0000
1000
,
0010
0000
0100
0000
0010
0000
1000
0000
0100
0010
0000
0100
0000
1000
0000
0001
,
0000
0010
0001
0000
1000
0000
0010
0000
0100
0001
0000
0010
0000
0100
0000
1000
,
0001
0100
0001
0100
0010
1000
0010
1000
,
0001
0010
0100
1000
0010
0100
0001
1000
,
0001
0010
0001
0010
0100
1000
0100
1000
0010
0100
0010
0100
0001
1000
0100
0010
,
0002
0000
0003
0000
0002
0000
0003
0000
0002
0000
0103
0010
1000
0000
0000
0000
,
1002
0000
0000
0000
0010
0000
0000
0000
1003
0000
0001
0000
0100
0010
0100
0010
1000
0000
0000
0100
0000
0000
1000
0000
1001
0000
0000
0000
0001
1000
0001
1000
,
0020
0000
0000
0000
0230
0000
0000
0000
0301
0000
1000
0000
0100
1000
0100
1000
0100
0000
0000
0010
0000
0000
0001
0000
0011
0000
0000
0000
1000
0000
0001
1000
,
0002
0000
0000
0000
0000
0000
0000
0000
0000
0000
0000
0000
0013
0000
0000
0000
0000
0000
0001
0000
0000
0010
0000
0000
0001
0000
0000
0000
0000
0000
1000
0000
0000
0000
0000
0000
0010
0000
0000
0100
0000
0000
0010
0000
0000
0100
0000
0000
0001
0000
0000
0000
0000
0000
0001
0000
0000
1000
0000
0000
0000
0000
0000
0000
0000
0000
0001
0000
0000
0000
0000
0000
1000
0000
0000
0000
0100
0000
0000
0000
0010
0000
0000
0000
0100
0000
0000
0000
0010
0000
0000
0000
0001
0000
0000
0000
,
1000
0000
0010
1000
0020
0000
0000
0000
0130
0000
0001
0100
0002
0000
0000
0000
0013
0000
0100
0010
0000
0100
1000
0000
0100
0000
0010
0001
1000
0000
0000
0000
,
0010
0000
0100
0000
0001
0000
0100
0000
0010
0000
1000
0000
0001
1000
0001
1000
,
0100
0000
0010
0000
0001
0000
0010
0000
0100
0000
1000
0010
0100
0000
0001
0010
,
0100
0000
1000
0000
0010
0000
1000
0000
0100
0000
0010
0000
0001
1000
0001
1000
,
0001
0100
0010
0100
2000
3200
0302
0023
,
0130
0000
1000
0000
0010
0000
1000
0000
0100
0000
0010
0000
0001
1000
0001
1000
,
0010
0000
0000
0100
0000
0000
0010
0000
0000
1000
0000
0000
0001
0000
0010
0000
0100
0000
0010
0000
0100
0000
1000
0000
,
0001
0000
0100
0000
0010
0100
0010
0000
1000
0000
0010
0000
0100
0000
0001
0000
,
1000
0100
1000
0100
1000
0000
0001
0100
0001
0100
0001
0000
0010
0000
0000
0000
,
1002
0000
0000
0000
0000
0000
0000
0203
,
0000
0000
0000
0320
0000
0000
0000
0000
,
2030
0000
0000
0000
0000
0000
0000
3020
,
0000
0000
0000
0230
0000
0000
0000
0000
,
0302
0010
1000
0100
,
2003
0010
0001
0100
,
3002
0100
1000
0010
,
2003
0100
0001
3010
,
0210
0000
0001
0000
0010
0010
0010
0000
,
1300
0100
0001
0010
1000
0010
0001
0000
,
0210
0000
1000
0000
0010
0010
0010
0000
,
0301
0100
1000
0010
0001
0010
1000
0000
,
0100
0010
0100
0010
0001
0100
0010
1000
,
0001
0010
0001
1000
0010
1000
0001
0000
,
1000
0010
1000
0010
0100
0001
0100
0001
0010
0100
0010
0100
1000
0001
0100
0010
,
2000
0000
3000
0000
2000
0000
3000
0000
2000
0000
3100
0010
0001
0000
0000
0000
,
2001
0000
0000
0000
0010
0000
0000
0000
3001
0000
1000
0000
0100
0010
0001
0010
0100
0000
0000
1000
0000
0000
0001
0000
1001
0000
0000
0000
1000
0001
1000
0001
,
0020
0000
0000
0000
0130
1000
0001
1000
0100
0000
0010
0000
0001
1000
0001
1000
0001
0000
0000
0001
0000
0000
0100
0000
0110
0000
0000
0000
0001
0000
1000
0001
,
2000
0000
0000
0000
0000
0000
0000
0000
0000
0000
0000
0000
3010
0000
0000
0000
0000
0000
1000
0000
0000
0010
0000
0000
1000
0000
0000
0000
0000
0000
0001
0000
0000
0000
0000
0000
0010
0000
0000
0100
0000
0000
1000
0000
0000
0100
0000
0000
0010
0000
0000
0000
0000
0000
0010
0000
0000
0001
0000
0000
0000
0000
0000
0000
0000
0000
1000
0000
0000
0000
0000
0000
0001
0000
0000
0000
0100
0000
0000
0000
1000
0000
0000
0000
0100
0000
0000
0000
0001
0000
0000
0000
1000
0000
0000
0000
,
0001
0000
0010
0001
0020
0000
0000
0000
0130
0000
1000
0100
2000
0000
0000
0000
3010
0000
0100
0010
0000
0100
0001
0000
1000
0000
0100
0010
0001
0000
0000
0000
,
0100
0001
1000
0000
0010
0000
0100
0000
0001
1000
0000
0010
0000
0001
0000
0010
,
0000
1000
0010
0000
0100
0000
0001
0000
0010
0100
0000
1000
0000
0100
0000
0010
,
0001
0010
0001
0000
1000
0000
0010
0000
0100
1000
0000
0100
0000
0001
0000
0100
,
0000
0010
1000
0000
0001
0000
0010
0000
0100
1000
0000
0010
0000
0100
0000
0001
,
0010
0001
0010
0000
0100
0000
1000
0000
0001
0100
0000
0010
0000
1000
0000
0100
,
0000
0001
0100
0000
1000
0000
0010
0000
0100
0001
0000
0010
0000
0100
0000
1000
,
0010
1000
0010
0000
0100
0000
0001
0000
0010
0100
0000
1000
0000
0010
0000
0100
,
0001
1000
0100
1000
0001
0000
1000
0001
0100
0001
1000
0000
0010
0000
0000
0000
,
1000
0100
0010
0000
0001
0000
0100
0000
0010
1000
0000
0001
0000
0010
0000
0100
,
0002
0000
0000
0000
0203
0000
0000
0000
1300
0000
0010
0000
0100
0010
1000
0001
0100
0000
0010
0000
0100
0000
0000
0000
0010
0000
0000
0000
1000
0000
0000
0000
,
0001
0000
0000
0000
0000
0000
0010
0000
0000
0000
0000
0000
0000
0000
0000
0000
0000
0000
0001
0000
0000
0000
0000
0000
0000
0000
0000
0000
0000
0000
0100
0000
0000
0000
0000
0000
0000
0000
0000
0000
0000
0000
1000
0000
0000
0000
0000
0000
0200
0000
0000
0000
0000
0000
0000
0000
0000
0302
0000
0000
0000
0000
0000
0000
0000
0000
0023
0000
0000
0000
0000
0000
0130
0000
0000
0000
1000
0000
0000
0000
0100
0000
0000
0000
0001
0000
0000
0000
0100
0000
0000
0000
1000
0000
0000
0000
,
0010
0100
0010
0000
0100
0000
0001
0000
0010
0100
0000
1000
0000
0010
0000
0100
,
0000
1000
0100
0000
0001
0000
0010
0000
0100
1000
0000
0010
0100
0000
0001
0000
,
1000
0100
1000
0100
0010
0001
0010
0001
0100
0010
0100
0010
1000
0001
0010
0100
,
2000
3000
2000
3000
2000
3000
0020
0030
,
2002
0000
0000
0000
,
3003
0000
0000
0000
;

//--------------- dance-double - forcednature ----------------
#NOTEDATA:;
#STEPSTYPE:dance-double;
#DESCRIPTION:forcednature;
#DIFFICULTY:Easy;
#METER:10;
#RADARVALUES:0,0,0,0,0;
#CREDIT:forcednature;
#NOTES:
00000000
00000000
00000000
00000000
,
00000000
00000000
00000000
00000000
,
00000000
00000000
00000000
00000000
,
00000000
00000000
00000000
00000000
,
00000000
00000000
00000000
00000000
,
00000000
00000000
00000000
00000000
,
00001000
00010000
00000000
00010000
,
00000100
00000000
00010000
00000000
00000000
00010000
00001000
00000000
,
00100000
00001000
00000000
00001000
,
00010000
00000000
00001000
00000000
00000000
00001000
01000000
00000000
,
00100000
00100000
10000000
00100000
,
10000000
01000000
10000000
00000000
01000000
00000000
00010000
00000000
,
00001000
00001000
00010000
00001000
,
00000010
00000000
00000001
00000000
00000100
00000001
00000100
00000000
,
00000010
00000000
00001000
00000000
00000100
00001000
00000100
00000000
,
00010000
00000000
00001000
00000000
00100000
00001000
00100000
00000000
,
00020000
01000000
10000000
00130000
,
02200000
00000000
00000000
03300000
,
10010000
00010000
00100000
00000000
00001000
00010000
00011000
00000000
,
00000010
00000000
00001000
00000010
00001000
00000000
00000001
00000000
00000010
00000000
00000100
00000000
00002000
00000000
00003002
00000000
,
00000103
00000000
00000010
00000100
00000010
00000000
00000000
00000000
00001000
00000000
00000100
00000000
00020000
00000000
00032000
00000000
,
01003000
00000000
00000000
00000000
10010000
00000000
00000000
00000000
00010000
00000000
00010000
00100000
00000000
00100000
00001000
00000000
,
00010000
00011000
00000100
00011000
,
00010000
00001000
00010000
00000000
00000010
00000000
00001000
00000000
,
00000001
00000101
00000001
00000011
,
00001000
00000001
00001000
00000000
00000100
00000000
00010000
00000000
,
00001000
00101000
00001000
00011000
,
00010000
00000000
00001000
00000000
01000000
00010000
01000000
00000000
,
00100000
10100000
00100000
01100000
,
10000000
00000000
10000000
00010000
00000000
00010000
10000000
00000000
,
02000000
00000000
00000000
00000000
,
03200000
00000000
00000000
00000000
,
00302000
00000000
00000000
00000000
,
00023000
00000000
00000000
00000000
,
00030100
00000100
00000100
00000100
,
00001000
00001000
00001000
00001000
,
00000010
00000010
00000010
00000010
,
00000100
00000100
00000100
00000100
,
00000001
00000000
00000010
00000000
00000100
00000010
00000100
00000000
,
00001000
00000010
00010000
00001000
,
01000000
00000000
00010000
00000000
01000000
00010000
01000000
00000000
,
00100000
10000000
00010000
00100000
,
00001000
00000000
00010000
00000000
00000100
00010000
00000100
00000000
,
00001000
00000100
00000010
00000001
,
00002000
00000100
00000001
00003010
,
00000220
00000000
00000000
00000330
,
00002002
00000000
00003003
00000000
00000001
00000000
00000100
00000000
00001000
00000000
00000000
00000000
00010000
00001000
00010000
00000000
,
00001000
00000000
00100000
00000000
00010000
00000000
00000000
00000000
01000000
00000000
00100000
01000000
00100000
00000000
10000000
00000000
,
10010000
00000000
00000000
00000000
00010000
00000000
00100000
00000000
00001000
00000000
00010000
00001000
00020000
00000000
00030200
00000000
,
00001300
00000000
00000000
00000000
00001001
00000000
00000000
00000000
00000001
00000000
00000001
00000100
00000000
00000100
00000001
00000000
,
00000010
00000000
00000100
00000000
00001000
00000100
00001000
00000000
,
00000010
00010000
00011000
00001000
,
00100000
00000000
00010000
00000000
01000000
00010000
01000000
00000000
,
00100000
10000000
11000000
00010000
,
00100000
00000000
00001000
00000000
00010000
00001000
00010000
00000000
,
00000010
00001000
00001100
00000001
,
00000100
00000000
00000001
00000000
00000010
00000001
00000010
00000000
,
00000220
00000000
00000000
00000330
,
00000100
00001000
00000100
00000000
00010000
00001000
00010000
00000000
,
00002000
00000000
00103000
00000000
00010000
00100000
00010000
00000000
,
01000000
00010000
01000000
00000000
00100000
00100000
20000000
00000000
,
31000000
00000000
00100000
01000000
00100000
00000000
00010000
00000000
,
01000000
00000000
00001000
01000000
00001000
00000000
00010000
00000000
,
00000100
00000000
00001000
00000100
00001000
00000000
00000010
00000000
,
00000200
00000000
00000000
00000300
,
00002002
00000000
00000000
00000000
,
00003003
00000000
00000000
00000000
;

//--------------- dance-double - forcednature ----------------
#NOTEDATA:;
#STEPSTYPE:dance-double;
#DESCRIPTION:forcednature;
#DIFFICULTY:Medium;
#METER:14;
#RADARVALUES:0,0,0,0,0;
#CREDIT:forcednature;
#NOTES:
00000000
00000000
00000000
00000000
,
00000000
00000000
00000000
00000000
,
00000000
00000000
00000000
00000000
,
00000000
00000000
00000000
00000000
,
00000000
00000000
00000000
00000000
,
00000000
00000000
00000000
00000000
,
00001000
00000000
00011000
00000000
00000000
00001000
00010000
00000000
,
00100000
00000000
01000000
00100000
00000000
00100000
01000000
00000000
,
00010000
00000000
10010000
00000000
00000000
10000000
00010000
00000000
,
10000000
00000000
01000000
00100000
00000000
00100000
01000000
00000000
,
20000000
00100000
00010000
30100000
,
10000000
01000000
00010000
00000000
00001000
00000000
00000010
00000000
,
00000002
00000100
00001000
00000013
,
00000001
00000100
00001000
00000000
00010000
00000000
00100000
00000000
,
10000000
01000000
10000000
01000000
00100000
01000000
00100000
00000000
,
00001000
00010000
00001000
00010000
00000100
00001000
00000100
00000000
,
00000010
00000001
00000010
00000001
00000100
00000001
00000010
00000100
,
00020000
00030000
00020000
00030000
00020000
00030000
00011000
00000000
,
00200000
00000000
00000000
00000000
00010000
00000000
00000000
00000000
01300000
00000000
10000000
00000000
01000000
00000000
00000000
00000000
00100000
00000000
00000000
00100000
00000000
00000000
00001000
00000000
00010000
00000000
00000000
00000000
00011000
00000000
00000000
00000000
,
00000020
00000000
00000000
00000000
00002030
00000000
00000000
00000000
00003001
00000000
00000010
00000000
00000100
00000000
00000000
00000000
00001000
00000000
00000000
00001000
00000000
00000000
00000100
00000000
00010000
00000000
00000000
00000000
00011000
00000000
00000000
00000000
,
00200000
00000000
00000000
00000000
00000000
00000000
00000000
00000000
00000000
00000000
00000000
00000000
00010000
00000000
00000000
00000000
00000000
00000000
00000000
00000000
00000000
00000000
00000000
00000000
01300000
00000000
00000000
00000000
00000000
00000000
10000000
00000000
00000000
00000000
00000000
00000000
01000000
00000000
00000000
00000000
00000000
00000000
00000000
00000000
00000000
00000000
00000000
00000000
00100000
00000000
00000000
00000000
00000000
00000000
00000000
00000000
00000000
00100000
00000000
00000000
00000000
00000000
00000000
00000000
00000000
00000000
00100000
00000000
00000000
00000000
00000000
00000000
00001000
00000000
00000000
00000000
00010000
00000000
00000000
00000000
00001000
00000000
00000000
00000000
00010000
00000000
00000000
00000000
00001000
00000000
00000000
00000000
00010000
00000000
00000000
00000000
,
00000020
00000000
00001000
00000000
00000230
00000000
00000001
00000000
00000310
00000010
00001000
00000100
00000100
00010000
00001000
00000000
,
00011000
00000000
00101000
00000000
00100000
00010000
01000000
00000000
,
00100000
10000000
01000000
10000000
00010000
00100000
00001000
00000000
,
00010000
00001000
00010000
00001000
00000100
00000010
00000100
00000010
,
00001000
00000001
00000010
00000100
00010000
00001000
00100000
00000000
,
00010000
01000000
00010000
01000000
10000000
01000000
10000000
01000000
,
00010000
00000000
00010000
00100000
00001000
00010000
00000100
00000000
,
00001000
00000010
00000100
00000001
00000010
00000100
00010000
00000000
,
00001000
00001000
00100000
00001000
00001000
00100000
00010000
00000000
,
02000000
00000000
00000000
00000000
00000000
00000000
00000000
03200000
,
00000000
00000000
00000000
20300000
00000000
00000000
00000000
00000000
,
32000000
00000000
00000000
00000000
00000000
00000000
00000000
03020000
,
00000000
00000000
00000000
00032000
00000000
00000000
00003000
00000000
,
00200000
00010000
00010000
00310000
,
02000000
00001000
00001000
03001000
,
00002000
00010000
00010000
00013000
,
00000020
00001000
00001000
00001030
,
00000110
00000000
00000100
00000001
00000100
00000010
00000100
00000000
,
00001000
00010000
00100000
00000000
00010000
00001000
00000010
00000000
,
00000110
00000000
00000100
00010000
00001000
00010000
00000100
00000000
,
00010000
00001000
01000000
00000000
00010000
00100000
01000000
00000000
,
10000000
00100000
10000000
00100000
10000000
01000000
10000000
00000000
,
01000000
00010000
00001000
00010000
00001000
00000010
00000001
00000000
,
00000100
00000010
00000100
00000010
00001000
00000100
00000010
00000001
,
00000200
00000300
00000200
00000300
00000200
00000300
00011000
00000000
,
00200000
00000000
00000000
00000000
00010000
00000000
00000000
00000000
01300000
00000000
10000000
00000000
01000000
00000000
00000000
00000000
00010000
00000000
00000000
00010000
00000000
00000000
00010000
00000000
00001000
00000000
00010000
00000000
00000010
00000000
00000000
00000000
,
00001000
00000000
00000001
00000000
00000010
00000000
00000100
00000000
00001000
00000000
00000010
00000000
00001000
00000000
00000000
00000000
00010000
00000000
00000000
00010000
00000000
00000000
00010000
00000000
01000000
00000000
00010000
00000000
00100000
00000000
00000000
00000000
,
02100000
00000000
00000000
00000000
00000000
00000000
00000000
00000000
00000000
00000000
00000000
00000000
10000000
00000000
00000000
00000000
00000000
00000000
00000000
00000000
00000000
00000000
00000000
00000000
03100000
00000000
00000000
00000000
00000000
00000000
00010000
00000000
00000000
00000000
00000000
00000000
01000000
00000000
00000000
00000000
00000000
00000000
00000000
00000000
00000000
00000000
00000000
00000000
00100000
00000000
00000000
00000000
00000000
00000000
00000000
00000000
00000000
00100000
00000000
00000000
00000000
00000000
00000000
00000000
00000000
00000000
00100000
00000000
00000000
00000000
00000000
00000000
00010000
00000000
00000000
00000000
00001000
00000000
00000000
00000000
00010000
00000000
00000000
00000000
00001000
00000000
00000000
00000000
00010000
00000000
00000000
00000000
00001000
00000000
00000000
00000000
,
00020000
00000000
00000100
00000000
00032000
00000000
01003000
00000000
01010000
00000000
10100000
00000000
10000000
01000000
00010000
00000000
,
00001000
00010000
00001000
00000010
00000100
00001000
00000001
00000000
,
00000100
00000000
00001000
00000000
00010000
00000000
00001000
00000000
00100000
00000000
00010000
00100000
00010000
00000000
00000000
00000000
,
01000000
00100000
10000000
01000000
00010000
00001000
00100000
00000000
,
00010000
00000000
01000000
00000000
00001000
00000000
00010000
00000000
00000010
00000000
00001000
00000010
00001000
00000000
00000000
00000000
,
00000001
00000010
00000100
00001000
00000001
00000100
00001000
00000000
,
00010000
00000000
00100000
00000000
10000000
00000000
00100000
00000000
01000000
00000000
00010000
10000000
00010000
00000000
00000000
00000000
,
10000000
01000000
10000000
01000000
00010000
00001000
00000100
00000001
,
00000020
00000030
00000020
00000030
00000020
00000030
00001100
00000000
,
00010000
00001000
01000000
00001000
00010000
00100000
01000000
00100000
,
20000000
00000000
00010000
00000000
31000000
00100000
00010000
00000000
01000000
00000000
00100000
00000000
01000000
00000000
00100000
00000000
,
00010000
00000000
00000000
00000000
00000000
00000000
00000000
00000000
00000000
00000000
00000000
00000000
00001000
00000000
00000000
00000000
00000000
00000000
00000000
00000000
00000000
00000000
00000000
00000000
00000100
00000000
00000000
00000000
00000000
00000000
00000000
00000000
00000000
00000000
00000000
00000000
00000010
00000000
00000000
00000000
00000000
00000000
00000000
00000000
00000000
00000000
00000000
00000000
00000100
00000000
00000000
00000000
00000000
00000000
00000000
00000000
00000000
00000100
00000000
00000000
00000000
00000000
00000000
00000000
00000000
00000000
00000100
00000000
00000000
00000000
00000000
00000000
00001000
00000000
00000000
00000000
00010000
00000000
00000000
00000000
00001000
00000000
00000000
00000000
00010000
00000000
00000000
00000000
00001000
00000000
00000000
00000000
00010000
00000000
00000000
00000000
,
00001000
00100000
00010000
00100000
01000000
10000000
01000000
00000000
,
00010000
00001000
00000100
00000001
00000010
00000100
00001000
00000000
,
00000001
00000100
00000001
00000100
00001000
00010000
00001000
00010000
,
00200000
00300000
00200000
00300000
00200000
00300000
01010000
00000000
,
00202000
00000000
00000000
00000000
,
00303000
00000000
00000000
00000000
;

//--------------- dance-double - forcednature ----------------
#NOTEDATA:;
#STEPSTYPE:dance-double;
#DESCRIPTION:forcednature;
#DIFFICULTY:Hard;
#METER:17;
#RADARVALUES:0,0,0,0,0;
#CREDIT:forcednature;
#NOTES:
00000000
00000000
00000000
00000000
,
00000000
00000000
00000000
00000000
,
00000000
00000000
00000000
00000000
,
00000000
00000000
00000000
00000000
,
00000000
00000000
00000000
00000000
,
00000000
00000000
00000000
00000000
,
00011000
00000000
00000010
00000000
00000000
00001000
00000010
00000000
,
00010000
00000000
00001000
00010000
00000000
00010000
00001000
00000000
,
00011000
00000000
00100000
00000000
00000000
00010000
00100000
00000000
,
00001000
00000000
00000000
00000000
00010000
00000000
00001000
00000000
00000000
00000000
00001000
00010000
00000100
00000000
00000000
00000000
,
00001000
00000000
00000010
00000000
00000100
00000000
00000001
00000000
00000010
00000001
00000000
00000001
00000000
00001000
00000000
00000010
,
00000000
00001000
00000100
00000000
00010000
00000000
00001000
00000000
01000000
00010000
00000000
00100000
00000000
01000000
00000000
10000000
,
00100000
00000000
01000000
00000000
00010000
00000000
01000000
00000000
00001000
00010000
00000000
00000010
00000000
00001000
00000000
00000001
,
00000000
00000010
00000100
00000000
00001000
00000000
00000010
00000000
00010000
00001000
00000000
00100000
00000000
00010000
00000000
01000000
,
00100000
10000000
00100000
10000000
01000000
00010000
01000000
00010000
,
00001000
00000010
00000001
00000010
00000100
00001000
00000001
00000100
,
00000010
00001000
00000010
00001000
00000100
00001000
00000100
00010000
00001000
00010000
00001000
00100000
00010000
00100000
01000000
10000000
,
00020000
00000000
00030000
00000000
00020000
00000000
00030000
00000000
00020000
00000000
01030000
00100000
10000000
00000000
00000000
00000000
,
10020000
00000000
00000000
00000000
00100000
00000000
00000000
00000000
10030000
00000000
01000000
00000000
00010000
00001000
00010000
00001000
00010000
00000000
00000000
00001000
00000000
00000000
00000010
00000000
00000001
00000000
00000000
00000000
00000100
00000001
00000100
00000001
,
00002000
00000000
00000000
00000000
00003020
00000000
00000000
00000000
00000130
00000000
00000001
00000000
00000010
00000001
00000010
00000001
00000010
00000000
00000000
00000100
00000000
00000000
00010000
00000000
00011000
00000000
00000000
00000000
00100000
00000000
00010000
00100000
,
00020000
00000000
00000000
00000000
00000000
00000000
00000000
00000000
00000000
00000000
00000000
00000000
01030000
00000000
00000000
00000000
00000000
00000000
00010000
00000000
00000000
01000000
00000000
00000000
00010000
00000000
00000000
00000000
00000000
00000000
10000000
00000000
00000000
00000000
00000000
00000000
01000000
00000000
00000000
00100000
00000000
00000000
01000000
00000000
00000000
00100000
00000000
00000000
00001000
00000000
00000000
00000000
00000000
00000000
00001000
00000000
00000000
00010000
00000000
00000000
00000000
00000000
00000000
00000000
00000000
00000000
00001000
00000000
00000000
00000000
00000000
00000000
01000000
00000000
00000000
00000000
00100000
00000000
00000000
00000000
00010000
00000000
00000000
00000000
00001000
00000000
00000000
00000000
00000100
00000000
00000000
00000000
00000010
00000000
00000000
00000000
,
00000100
00000000
00000001
00000100
00000002
00000000
00000000
00000000
00000013
00000000
00000001
00000010
00000002
00000000
00000000
00000000
00000103
00000000
00001000
00000100
00000000
00001000
00010000
00000000
00001000
00000000
00010000
00000000
00100000
00000000
00000000
00000000
,
10000000
00000000
01000000
00000000
00100000
00000000
01000000
00000000
10000000
00000000
01000000
00000000
00010000
00001000
00010000
00001000
,
00010000
00000000
00001000
00000000
00000010
00000000
00000100
00000000
00000010
00000000
00000001
00000100
00000010
00000000
00001000
00000100
,
00000010
00000000
00000001
00000000
00000100
00000000
00000001
00000000
00000010
00000000
00001000
00000000
00010000
00001000
00010000
00001000
,
00010000
01000000
00100000
01000000
20000000
30200000
00320000
00032000
,
01003000
00000000
00010000
00000000
00100000
00000000
00010000
00000000
10000000
00000000
00100000
00000000
00010000
00001000
00010000
00001000
,
00010000
00000000
00000000
00000100
00000000
00000000
00001000
00000000
00000000
00000001
00000000
00000000
00000100
00000000
00000010
00000000
00000100
00000000
00001000
00000000
00010000
00000000
00100000
00000000
,
01000000
00000000
00100000
00000000
10000000
00100000
10000000
00000000
01000000
00000000
00100000
00000000
01000000
00000000
00010000
00000000
,
00001000
00100000
00001000
00100000
00001000
00000000
00010000
00000010
00010000
00000010
00010000
00000000
00001000
00000000
00000000
00000000
,
00012000
00000000
00000000
00000000
00000000
00000000
00000000
00003020
,
00000000
00000000
00000000
00000032
00000000
00000000
00000000
00000000
,
00000203
00000000
00000000
00000000
00000000
00000000
00000000
00002300
,
00000000
00000000
00000000
00203000
00000000
00000000
00000000
00000000
,
00320000
01000000
10000000
00100000
,
00032000
00000100
00000001
00000010
,
00023000
01000000
10000000
00100000
,
00032000
00000100
00000001
00000010
,
00023000
00000000
01000000
00000000
00100000
00100000
00130000
00000000
,
10000000
01000000
00010000
00001000
00000100
00000001
00000010
00000000
,
00002001
00000000
00000100
00000000
00000010
00000010
00000010
00000000
,
00003001
00000100
00001000
00010000
01000000
10000000
00100000
00000000
,
01000000
00010000
01000000
00010000
00100000
01000000
10000000
01000000
,
00010000
00001000
00000100
00000001
00000010
00000100
00010000
00000000
,
00001000
00100000
00001000
00100000
00010000
01000000
00010000
01000000
00100000
10000000
00100000
10000000
01000000
00100000
00010000
00100000
,
00002000
00000000
00003000
00000000
00002000
00000000
00003000
00000000
00002000
00000000
00013000
00000100
00001000
00000000
00000000
00000000
,
00002001
00000000
00000000
00000000
00000010
00000000
00000000
00000000
00003001
00000000
00001000
00000000
00000010
00000100
00000001
00000100
00000010
00000000
00000000
00010000
00000000
00000000
00001000
00000000
00011000
00000000
00000000
00000000
00010000
00001000
00010000
00001000
,
00200000
00000000
00000000
00000000
01300000
10000000
00010000
10000000
01000000
00000000
00100000
00000000
00001000
00010000
00001000
00010000
00001000
00000000
00000000
00001000
00000000
00000000
00000010
00000000
00000001
00000000
00000100
00000000
00000010
00000000
00001000
00000010
,
00002000
00000000
00000000
00000000
00000000
00000000
00000000
00000000
00000000
00000000
00000000
00000000
00003100
00000000
00000000
00000000
00000000
00000000
00001000
00000000
00000000
00000100
00000000
00000000
00010000
00000000
00000000
00000000
00000000
00000000
00001000
00000000
00000000
00000000
00000000
00000000
01000000
00000000
00000000
00010000
00000000
00000000
10000000
00000000
00000000
00010000
00000000
00000000
01000000
00000000
00000000
00000000
00000000
00000000
01000000
00000000
00000000
00100000
00000000
00000000
00000000
00000000
00000000
00000000
00000000
00000000
10000000
00000000
00000000
00000000
00000000
00000000
01000000
00000000
00000000
00000000
00100000
00000000
00000000
00000000
00010000
00000000
00000000
00000000
00001000
00000000
00000000
00000000
00000100
00000000
00000000
00000000
00000010
00000000
00000000
00000000
,
00000100
00000000
00001000
00000100
00002000
00000000
00000000
00000000
00003010
00000000
00010000
00000010
00020000
00000000
00000000
00000000
00031000
00000000
00010000
00001000
00000000
00100000
00001000
00000000
00010000
00000000
00100000
01000000
00100000
00000000
00000000
00000000
,
10000000
00100000
01000000
00000000
00010000
00000000
00100000
00000000
01000000
00010000
00000000
00001000
00000000
00010000
00000000
00001000
,
00000000
00000010
00000100
00000000
00000010
00000000
00000001
00000000
00000100
00000010
00000000
00000100
00000000
00001000
00000000
00010000
,
00001000
00010000
00001000
00000000
00010000
00000000
00100000
00000000
10000000
01000000
00000000
00100000
00000000
01000000
00000000
00010000
,
00000000
00001000
00010000
00000000
00001000
00000000
00000010
00000000
00000001
00000100
00000000
00000010
00000000
00001000
00000000
00000100
,
00000010
00000100
00000010
00000000
00000001
00000000
00000010
00000000
00001000
00010000
00000000
00001000
00000000
00100000
00000000
00010000
,
00000000
01000000
00100000
00000000
10000000
00000000
01000000
00000000
00010000
00001000
00000000
00100000
00000000
00010000
00000000
01000000
,
00001000
01000000
00001000
00000000
00010000
00000000
00001000
00000000
00000010
00000100
00000000
00000010
00000000
00000001
00000000
00000100
,
00000010
00001000
00000010
00010000
00001000
00000000
00100000
00010000
00100000
00001000
00010000
00000000
01000000
00000000
00000000
00000000
,
00100000
00010000
10000000
00000000
00100000
00000000
01000000
00000000
10000000
01000000
00000000
00010000
00000000
00100000
00000000
00001000
,
00020000
00000000
00000000
00000000
00032000
00000000
00000000
00000000
00003010
00000000
00000001
00000000
00001000
00000010
00000100
00000001
00000010
00000000
00000100
00000000
00000010
00000000
00000000
00000000
00000001
00000000
00000000
00000000
00000100
00000000
00000000
00000000
,
00001000
00000000
00000000
00000000
00000000
00000000
00010000
00000000
00000000
00000000
00000000
00000000
00000000
00000000
00000000
00000000
00000000
00000000
00001000
00000000
00000000
00000000
00000000
00000000
00000000
00000000
00000000
00000000
00000000
00000000
00100000
00000000
00000000
00000000
00000000
00000000
00000000
00000000
00000000
00000000
00000000
00000000
00010000
00000000
00000000
00000000
00000000
00000000
02000000
00000000
00000000
00000000
00000000
00000000
00000000
00000000
00000000
03200000
00000000
00000000
00000000
00000000
00000000
00000000
00000000
00000000
20300000
00000000
00000000
00000000
00000000
00000000
31000000
00000000
00000000
00000000
00010000
00000000
00000000
00000000
00001000
00000000
00000000
00000000
00010000
00000000
00000000
00000000
00001000
00000000
00000000
00000000
00000010
00000000
00000000
00000000
,
00000001
00000010
00000100
00000000
00001000
00000000
00000001
00000000
00000100
00001000
00000000
00010000
00000000
00001000
00000000
00100000
,
00000000
01000000
00100000
00000000
00010000
00000000
01000000
00000000
00100000
10000000
00000000
01000000
00100000
00000000
00010000
00000000
,
01000000
00001000
01000000
00001000
00010000
00000010
00010000
00000010
00001000
00000001
00001000
00000001
00000010
00000100
00001000
00000001
,
00000200
00000300
00000200
00000300
00000200
00000300
00002000
00003000
,
00020020
00000000
00000000
00000000
,
00030030
00000000
00000000
00000000
;
