#VERSION:0.83;
#TITLE:GAME ON;
#SUBTITLE:;
#ARTIST:DJ Mass MAD Izm* feat.H14 of LEONAIR;
#TITLETRANSLIT:;
#SUBTITLETRANSLIT:;
#ARTISTTRANSLIT:;
#GENRE:MIXTURE;
#CREDIT:;
#MUSIC:GAME ON.ogg;
#BANNER:GAME ON.png;
#BACKGROUND:GAME ON-bg.png;
#CDTITLE:./CDTitles/bm IIDX 31 EPOLIS.png;
#SAMPLESTART:101.501;
#SAMPLELENGTH:15.000;
#SELECTABLE:YES;
#OFFSET:0.200;
#BPMS:0.000=105.000
,41.750=210.000
,71.000=105.000
,73.000=210.000
,103.000=105.000
,106.000=210.000
,170.000=105.000
,219.000=210.000
,248.000=105.000
,250.000=210.000
;
#STOPS:41.750=0.929
,103.000=1.143
,219.000=0.286
;
#TIMESIGNATURES:0.000=4=4,
40.000=3=4,
43.000=4=4,
71.000=2=4,
73.000=4=4,
101.000=3=4,
104.000=2=4,
106.000=4=4,
170.000=2=4,
172.000=4=4,
248.000=2=4,
250.000=4=4
;
#BGCHANGES:0.000=GAME ON.mp4=1.000=0=0=0=StretchNoLoop====,
99999.000=-nosongbg-=1.000=0=0=0=StretchNoLoop====
;
#FGCHANGES:;

//--------------- dance-single - forcednature ----------------
#NOTEDATA:;
#STEPSTYPE:dance-single;
#DESCRIPTION:forcednature;
#DIFFICULTY:Beginner;
#METER:4;
#RADARVALUES:0,0,0,0,0;
#CREDIT:forcednature;
#NOTES:
0000
0000
0000
0000
,
0000
0000
0000
0000
,
0000
0000
0000
0000
,
0000
0000
0000
0000
,
0000
0000
0000
0000
,
0001
0000
0000
0000
,
0100
0000
0000
0000
,
0010
0000
0000
0000
,
1000
0000
0000
0000
,
0100
0000
0100
0000
,
0010
0000
0000
0001
,
0000
0000
0000
0001
,
0000
0001
0000
1000
,
0000
0000
0000
1000
,
0000
1000
0000
0010
,
0000
0000
0000
0010
,
0000
0010
0000
0100
,
0000
0000
0000
0001
,
0000
1000
0000
1000
,
0000
0010
0000
0000
,
0000
1000
0000
1000
,
0000
0100
0000
0000
,
0000
0001
0000
0001
,
0000
0010
0000
0000
,
0000
0001
0000
0001
,
0000
0100
0100
0100
,
0000
0000
1001
0000
,
0000
0000
1000
0000
,
0000
0000
0110
0000
,
0000
0000
0001
0000
,
0000
0000
0010
0000
,
0010
0000
0010
0000
,
0000
0000
0100
0000
,
0100
0000
0100
0000
,
0000
0000
1001
0000
,
0000
0000
0001
0000
,
0000
0000
0110
0000
,
0000
0000
1000
0000
,
0000
0000
0010
0000
,
0010
0000
0010
0000
,
0000
0000
0100
0000
,
0100
0000
0100
0000
,
0000
0000
1001
0000
,
0000
0000
1000
0000
,
0000
0000
0100
0000
,
0000
0000
0010
0000
,
0000
0000
0001
0000
,
0000
0100
0000
0000
,
0000
0010
0000
0000
,
0000
1000
0000
0000
,
0000
0001
0000
0000
,
0010
0000
0000
0000
,
0100
0000
0000
0000
,
1000
0000
0000
0000
,
0001
0000
0000
0000
,
0100
0000
0100
0000
,
0100
0000
0010
0000
,
1000
0000
1000
0000
,
0001
0000
1000
0000
,
0100
0000
0100
0000
,
0100
0000
0010
0000
,
0001
0000
0001
0000
,
1000
0000
0010
0000
,
1001
0000
0000
0000
,
1000
0000
0100
0000
,
1001
0000
0000
0000
,
0001
0000
0010
0000
,
1001
0000
0000
0000
,
0001
0000
0100
0000
,
1001
0000
0000
0000
,
1000
0000
0010
0000
,
0110
0000
0000
0000
,
0001
0000
0010
0000
,
0110
0000
0000
0000
,
1000
0000
0100
0000
,
1001
0000
0000
0000
,
0001
0000
0100
0000
,
0100
0000
0010
0000
,
0100
0000
0001
0000
,
0000
0000
0010
0000
,
0000
0000
0100
0000
,
0000
0000
1000
0000
,
0000
0000
2002
0000
,
0000
0000
3003
0000
;

//--------------- dance-single - forcednature ----------------
#NOTEDATA:;
#STEPSTYPE:dance-single;
#DESCRIPTION:forcednature;
#DIFFICULTY:Easy;
#METER:9;
#RADARVALUES:0,0,0,0,0;
#CREDIT:forcednature;
#NOTES:
0000
0000
0000
0000
,
0000
0000
0000
0000
,
0000
0000
0000
0000
,
0000
0000
0000
0000
,
0000
0000
0000
0000
,
0002
0000
0003
0200
0000
0000
0300
0000
,
0020
0000
0030
2000
0000
0001
3000
0000
,
2000
0000
3000
0200
0000
0000
0300
0000
,
0020
0000
0030
0002
0000
1000
0003
0000
,
0010
0000
0010
0000
0000
0010
0010
0000
,
0100
0100
0100
0000
0000
0000
0001
0000
,
0001
0010
0010
0001
,
0100
1001
0000
1000
,
1000
0010
0010
1000
,
0100
1001
0000
0001
,
0001
0100
0100
0001
,
0010
1001
0000
0100
,
0010
0110
0000
2000
,
3000
0001
0010
0100
,
0010
1001
0110
1001
,
0000
1000
0010
0100
,
0010
1001
0110
1001
,
0000
0001
0100
0001
,
0010
0110
1001
0110
,
0000
1000
0010
1001
,
0000
0001
0100
1001
,
0000
0110
0000
0001
,
0011
0000
1000
0100
,
0001
0100
0000
1000
,
1010
0000
0001
0100
,
1000
0100
0000
0001
,
0110
0000
1000
0010
,
0001
0010
0000
1000
,
0110
0000
0000
0000
0001
0000
1000
0001
,
1000
0001
0000
0001
,
0101
0000
1000
0100
,
1000
0010
0000
1000
,
1100
0000
0001
0100
,
0001
0010
0000
0100
,
1001
0000
0010
0100
,
0100
0010
0110
0000
,
1001
0000
1000
0001
,
0100
0000
0010
0000
2002
0000
0000
3003
,
0000
0000
0000
0000
1000
0000
0000
0100
0000
0000
1000
0000
1000
0000
0000
0000
,
0010
0000
0100
0100
0000
0001
0100
0000
,
0001
0000
0000
0000
0010
0000
0000
0010
0000
0000
0001
0000
0100
0000
0000
0000
,
0010
0000
0000
2002
0000
3003
0000
0000
,
0000
1000
0000
1000
0000
1000
0100
1000
,
0000
0001
0000
0001
0000
0001
0100
0002
,
0000
0023
0000
0230
0000
2300
0000
3000
,
0000
0110
0220
0330
,
2000
3000
0020
0030
,
0200
0300
0002
0003
,
0020
0030
0200
0300
,
2000
0000
3000
0000
0001
0001
0001
0000
,
1000
0100
0001
0100
,
1100
0010
1001
0000
,
0001
0100
1000
0100
,
0101
0010
1001
0000
,
1000
0010
0001
0010
,
1010
0100
1001
0000
,
0001
0010
0110
0000
,
2000
0000
3000
0001
0002
0000
0003
0000
,
1001
0000
1000
0100
,
0010
0100
2000
3000
,
1001
0000
0001
0001
,
0010
0001
0200
0300
,
1001
0000
1000
1000
,
0010
1000
0200
0300
,
1001
0000
0001
0100
,
1000
0100
0000
0001
,
0100
0000
0001
1000
0001
0000
0010
0000
,
0100
1000
0000
1000
,
0100
0000
1000
0001
1000
0000
0010
0000
,
0100
0001
0000
0010
,
0001
0000
0010
0100
0010
0000
0100
0000
,
1000
0001
0100
0100
,
0010
0010
1000
0110
,
0010
1001
0002
0000
,
0003
0000
0200
0000
,
0300
0000
0020
0000
,
0030
0000
2000
0000
,
3000
0000
2002
0000
,
0000
0000
3003
0000
;

//--------------- dance-single - forcednature ----------------
#NOTEDATA:;
#STEPSTYPE:dance-single;
#DESCRIPTION:forcednature;
#DIFFICULTY:Medium;
#METER:13;
#RADARVALUES:0,0,0,0,0;
#CREDIT:forcednature;
#NOTES:
0000
0000
0000
0000
,
0000
0000
0000
0000
,
0000
0000
0000
0000
,
0000
0000
0000
0000
,
0000
0000
0000
0000
,
2001
0000
0000
3100
0000
0110
0000
0001
,
0020
0000
0000
0000
0000
0000
0230
0000
0000
0000
2300
0000
0000
3000
0000
0000
,
1002
0000
0013
0110
0000
1001
0000
1000
,
0020
0000
0130
0002
0000
0023
0000
0030
,
0001
0000
0100
0001
0100
0000
0000
0000
0010
0000
1000
0010
1000
0000
0000
0000
,
0001
1000
0000
0100
0000
0010
0000
0002
0003
0000
0000
0000
0101
0000
0000
0000
,
0101
1010
1010
0100
,
0110
1001
0000
1100
,
1100
0011
0011
0100
,
0110
1001
0000
1010
,
1100
1010
1001
0100
,
0110
1001
0000
0011
,
1010
0100
0010
0002
,
0003
0000
0010
0100
0010
0100
1000
0001
,
0010
0001
0101
1010
,
0000
0000
0001
0010
0001
0010
0100
1000
,
0001
0100
0110
1001
,
0000
0000
1000
0010
1000
0010
0100
0001
,
1000
0100
0110
1001
,
0000
0000
0001
0010
0100
0000
1000
0010
,
0100
0010
0110
1001
,
0000
0000
0010
0000
0110
0000
0001
0001
0000
0000
0000
0000
0100
0000
0001
0000
,
0100
0000
0010
1000
0000
0100
0001
0100
,
2000
0000
3002
0000
0013
0000
0100
0010
,
0001
0000
1000
0010
0000
1000
0100
0001
,
0200
0000
2300
0000
3001
0000
0100
0010
,
0100
0000
0001
0010
0000
0001
0100
1000
,
0200
0302
1003
0010
,
1000
0100
0010
0000
0210
0000
0010
0000
,
0310
0000
1001
0000
0000
0001
0010
0100
,
0010
0000
0001
1000
0000
0010
0100
0001
,
2000
0000
3020
0000
1030
0000
0100
0010
,
0100
0000
1000
0001
0000
0100
0010
0100
,
0002
0000
0023
0000
0130
1000
0100
0010
,
0001
0000
0011
0000
0100
1000
0001
0000
,
0100
0001
1000
0000
2020
0000
3030
0000
,
0202
0000
0303
0000
1001
0000
0100
0010
,
0100
0000
0010
0000
0220
0000
0000
0330
,
0000
0000
0001
0000
0001
0000
0000
0100
0000
0000
0010
0000
2000
0000
0000
0000
,
0000
3000
0000
0200
0320
0000
0032
0000
,
0003
0000
1000
0000
0010
0000
0000
0100
0000
0000
0001
0000
0010
0000
0200
0000
,
0000
0300
0000
2002
0000
3003
0000
0000
,
0000
1000
1000
0100
0001
0100
1100
1010
,
0000
0001
0001
0100
1000
0100
0101
2000
,
0000
3020
0030
0200
0000
0301
0020
0000
,
0030
0000
2002
3003
2002
0000
3003
0000
,
1000
0000
0100
1000
0000
0000
0000
0000
1000
0000
0100
0010
0000
0001
0000
0000
,
0001
0000
0100
0001
0000
0000
0000
0000
0001
0000
0100
0010
0000
1000
0000
0000
,
0100
0000
0010
0100
0000
0000
0000
0000
0100
0000
0010
0001
0000
1000
0000
0000
,
0010
0000
0100
0010
0000
0000
0000
0000
2000
0000
0001
0000
3001
0000
0000
0000
,
1000
0100
0010
0000
0100
1000
0010
0000
,
0100
0110
1001
0000
,
0001
0100
0010
0000
0100
0001
0010
0000
,
0100
0110
1001
0000
,
1000
0001
0010
0000
0001
0100
0010
0000
,
1000
1100
0101
0000
,
0011
0000
0010
0100
1000
0100
0010
0000
,
0002
0000
0000
0000
0003
0000
1000
1000
1000
0000
0000
0000
0000
0000
0010
0000
,
0100
0000
0001
0100
0010
0100
0001
0000
,
0010
0000
1001
0000
0011
0000
0000
0010
,
0100
0000
1000
0100
0010
0100
1000
0000
,
0010
0000
0110
0000
1001
0000
0000
1000
,
0100
0000
0001
0100
1000
0001
0010
0000
,
0110
0000
1000
0001
0100
0000
0001
1000
,
0010
0000
1000
0001
0010
0001
0010
0000
,
0110
0000
1100
0000
0000
0001
0010
0100
,
0010
0000
0001
0100
0010
0100
0001
0000
,
1000
0100
0001
0100
0000
1000
0010
0100
,
0010
0000
1000
0100
0010
0100
1000
0000
,
0001
0100
1000
0100
0000
0001
1000
0010
,
1000
0000
0001
0010
0001
1000
0100
0000
,
0010
0100
1000
0100
0001
0000
0101
0000
,
1100
0000
1010
0000
0100
0010
0100
0001
,
0010
0100
0010
0000
0200
0000
0000
0000
,
0000
0300
2000
0000
,
0000
3000
0020
0000
,
0000
0030
0200
0000
,
0000
0300
2002
0000
,
0000
0000
3003
0000
;

//--------------- dance-single - forcednature ----------------
#NOTEDATA:;
#STEPSTYPE:dance-single;
#DESCRIPTION:forcednature;
#DIFFICULTY:Hard;
#METER:16;
#RADARVALUES:0,0,0,0,0;
#CREDIT:forcednature;
#NOTES:
0000
0000
0000
0000
,
0000
0000
0000
0000
,
0000
0000
0000
0000
,
0000
0000
0000
0000
,
0000
0000
0000
0000
,
2001
0000
0100
0100
0000
3100
0000
1000
,
0020
0000
0130
0002
0000
0010
0003
0000
,
1002
0000
0100
0100
0000
0103
0000
0001
,
0020
0000
0130
2000
0000
0010
3000
0000
,
1000
0100
1000
0100
1000
0000
0000
0000
0001
0100
0001
0100
0001
0000
0000
0000
,
0010
0100
0010
0100
1000
0001
0100
0020
0030
0000
0000
0000
1000
0000
0100
0000
,
1000
0001
0010
0100
1000
0010
0100
0000
,
1010
0000
0101
0000
1000
0000
0001
0100
,
0001
1000
0010
0100
0001
0010
0100
0000
,
1100
0000
0101
0000
1000
0000
0001
0010
,
0001
1000
0010
1000
0100
0010
0001
0000
,
0110
0000
1100
0000
0001
0000
0100
0010
,
0100
0110
1000
0020
,
0030
0000
0000
0000
0100
0000
0001
0000
0100
0010
0100
0000
0010
0000
1000
0000
,
0001
0000
0010
0000
0100
0000
1000
0000
0100
0010
0100
0000
0010
0000
0001
0000
,
1000
0000
0010
0000
0100
0000
0001
0000
0010
0001
0010
0000
0100
0000
1000
0000
,
0001
0000
0100
0000
0010
0000
1000
0000
0100
1000
0100
0000
0010
0000
0001
0000
,
1000
0000
0010
0000
0100
0000
0010
0000
1000
0001
0100
0000
0010
0000
1000
0000
,
0001
0000
0010
0000
0100
0000
0010
0000
0001
1000
0100
0000
1000
0000
0010
0000
,
0100
0000
0001
0000
0010
0000
0100
0000
0010
0001
1000
0000
0010
0000
0100
0000
,
0001
0110
0110
1001
,
1000
0000
0100
0000
0010
0000
0001
0000
0100
0000
0010
0000
1000
0001
1000
0000
0000
0000
0000
0000
1000
0000
0000
0000
0001
0000
0000
0000
0010
0000
0000
0000
,
1000
0000
0000
0000
0010
0000
0002
0000
0000
0000
0103
0000
0010
0100
0010
0000
,
1000
0000
0001
0000
1000
0100
0001
0100
,
1000
0000
0000
0000
0001
0000
0020
0000
0000
0000
0031
0000
0100
0010
0100
0000
,
0010
1000
0010
1000
0000
0001
0010
0001
,
0100
0000
1000
0000
0100
0000
0001
0000
0000
0000
0010
0000
0100
0010
0100
0000
,
1000
0001
0010
0000
0001
0100
1000
0100
,
0001
0000
1000
0000
0010
0000
0000
0000
0100
0010
0100
0000
0001
0000
0010
0000
,
0100
0000
1001
0000
0001
1000
0100
1000
,
0001
0000
0010
0000
1000
0000
0010
0000
0001
0000
0000
0000
0100
0001
0100
0000
,
0010
0000
0110
0000
1000
0001
0100
0001
,
1000
0000
0010
0000
0001
0000
0010
0000
1000
0000
0000
0000
0100
1000
0100
0000
,
0010
0010
0001
0001
0000
0100
0010
1000
,
0100
0000
0010
0000
0001
0000
0010
0000
0001
0100
0001
0000
1000
0000
0010
0000
,
1000
1001
0102
0013
,
2100
0000
3010
0000
1001
0000
0010
0100
,
0010
0000
0110
0000
2002
0000
0000
3003
,
0000
1000
0100
1000
0000
1000
0001
0010
,
0100
0000
0010
0002
0000
0100
0203
0000
,
0310
0000
1000
0000
0010
0000
0100
0010
0000
0000
0100
0000
0001
0000
0020
0000
,
0000
0000
0130
0000
1000
0000
2200
0000
0000
0000
0000
3300
0000
0000
0000
0000
,
0000
0101
0101
1001
1001
0001
0011
1000
,
0000
0110
0110
1010
1010
0100
0001
0021
,
0000
1030
0000
0210
0000
1300
0020
0000
,
0030
0000
0000
0000
1000
0002
0000
0003
1000
0002
0000
0003
0000
0000
0000
0000
,
0100
0010
1000
0010
0000
0000
0000
0000
0100
0010
1000
0010
0000
0100
0000
0001
,
0000
0010
0100
0010
0000
0000
0000
0000
0001
0010
0100
0010
0000
0001
0000
1000
,
0000
0010
0100
0010
0000
0000
0000
0000
1000
0010
0100
0010
0000
1000
0000
0001
,
0000
0010
0100
1000
0000
0000
0000
0000
0001
0100
0010
1000
0200
0300
0000
0000
,
1000
0000
0010
0000
0100
0010
0100
0000
0001
0000
0010
0000
0100
0010
0100
0000
,
1000
0000
0001
0000
0100
0001
0100
0000
0010
0100
0010
0100
0010
0000
1000
0000
,
0001
0000
0010
0000
0001
1000
0100
0000
1000
0000
0010
0000
0100
0010
0100
0000
,
0001
0000
0010
0000
0001
1000
0001
0000
1000
0100
1000
0100
0010
0000
0000
0000
,
0100
0000
1000
0000
0010
0100
0010
0000
0100
0000
0001
0000
0010
0100
0010
0000
,
0100
0000
1000
0000
0001
0100
0001
0000
0100
0010
0100
0010
1000
0000
0001
0000
,
0010
0000
0001
0000
0010
0100
1000
0000
0010
0000
1000
0000
0010
0100
0010
0100
,
0002
0000
0000
0000
0000
0000
0000
0000
0003
0000
0000
0000
1000
0001
1000
0001
1000
0000
0000
0000
0000
0000
0000
0000
0010
0000
0000
0000
0100
0000
0000
0000
,
0110
0000
0001
0100
0010
0100
0001
1000
,
1010
0000
0000
0000
0001
0100
0001
0100
0001
0000
0000
0000
1000
0000
0100
0000
,
0110
0000
0000
0000
1000
0000
0001
0000
0010
0000
0001
0000
0010
0100
0010
0000
,
0100
0000
0110
0000
1001
0000
1000
0010
,
0110
0000
0000
0000
0001
0000
0010
0000
0100
0000
0010
0000
0001
1000
0001
1000
,
0100
0000
0010
0010
0001
0000
1000
0010
,
1010
0000
0000
0000
0001
0000
0010
0000
0001
0000
1000
0000
0010
0100
0010
0100
,
0001
1000
0001
0000
1000
0100
0001
0100
,
1100
0000
0000
0000
0001
0000
0010
0000
0100
0000
0010
0000
0001
1000
0100
1000
,
0100
0010
0010
0000
0001
0010
0001
0100
,
0101
0000
0000
0000
0001
0000
1000
0000
0010
0000
0100
0000
0010
1000
0001
1000
,
0001
0100
0010
0100
0001
0010
0100
1000
,
1100
0000
0000
0000
0001
0000
0010
0000
0001
0000
0100
0000
0010
0100
0001
0100
,
0010
0000
1000
0000
0010
0000
1000
0000
0100
0010
0100
0000
0010
0001
0010
0000
,
0100
1000
0100
0000
0010
0001
1000
0000
0010
0100
0010
0000
1000
0001
1000
0001
,
0100
0000
0110
0000
1000
0001
0100
0002
,
0000
0010
0003
0000
0001
1000
0100
2000
,
0000
0010
3000
0000
1000
0100
0010
0200
,
0000
1000
0300
0000
0010
0001
1000
0002
,
0000
0100
0003
0010
2002
0000
0000
0000
,
0000
0000
3003
0000
;

//--------------- dance-single - ----------------
#NOTEDATA:;
#STEPSTYPE:dance-single;
#DESCRIPTION:forcednature;
#CREDIT:forcednature;
#DIFFICULTY:Challenge;
#METER:17;
#RADARVALUES:0,0,0,0,0;
#NOTES:
0000
0000
0000
0000
,
0000
0000
0000
0000
,
0000
0000
0000
0000
,
0000
0000
0000
0000
,
0000
0000
0000
0000
,
1002
0000
0203
0000
0320
0000
1000
0000
0000
0000
1000
0000
0000
0000
0130
0001
,
0020
0230
2300
0010
0000
0002
0000
3003
,
0002
0000
0100
0100
0100
0000
2003
0000
3020
0000
0100
0100
0100
0000
2030
0000
,
3200
0000
0001
0001
0001
0000
2000
0000
0300
0000
0020
0000
0000
0000
3030
0000
,
0001
0100
1000
0100
0001
0000
MMMM
0000
0001
0010
1000
0010
0001
0000
MMMM
0000
,
0001
0100
0010
1000
0100
0010
0001
2002
3003
0000
0000
0000
1100
0000
0100
0000
,
1000
0000
0010
0000
0110
0000
0100
0000
0001
0000
0010
0000
0100
1000
0001
0000
,
0100
0001
1000
0000
0010
0000
0100
0000
0001
0000
0000
0000
0011
0000
0010
0000
,
0001
0000
0100
0000
0110
0000
0010
0000
1000
0000
0100
0000
0010
0001
1000
0000
,
0010
1000
0001
0000
0010
0000
0100
0000
1000
0000
0000
0000
1010
0000
0010
0000
,
0100
0000
0001
0000
0011
0000
0010
0000
0100
0000
1000
0000
0010
1000
0100
0000
,
0010
0001
0100
0000
0010
1000
0001
0000
0100
0000
0000
0000
1010
0000
0010
0000
,
1000
0100
1100
1000
0001
0000
MMMM
MMMM
,
MMMM
0000
0101
0100
0110
0010
1010
1000
,
1001
0000
0001
0000
0010
0100
1000
0000
0010
0100
0001
0000
1000
0100
0010
0100
,
1000
0000
1010
0010
0110
0100
0101
0001
,
1001
0000
1000
0000
0100
0010
0001
0000
0100
0010
1000
0000
0001
0010
0100
0010
,
0001
0000
1100
1000
1010
0010
0110
0100
,
0101
0000
0001
0000
0010
0100
1000
0000
0010
0100
0001
0000
1000
0001
0010
0001
,
1000
0000
1010
0010
0110
0100
0101
0001
,
0011
0000
1001
MMMM
0110
MMMM
1001
0000
,
1000
0000
0100
0000
0010
0000
0001
0000
1000
0010
1000
0010
0100
0001
0100
0001
0000
0000
0000
0000
1000
0000
0000
0000
0100
0000
0000
0000
0001
0000
0000
0000
,
0101
0000
0000
0000
0100
0000
1000
0000
0001
0000
0010
0100
1000
0000
0010
0100
,
0001
1000
MMMM
0000
0010
0001
0100
0010
,
0110
0000
0000
0000
1000
0000
0001
0000
0010
0000
0100
1000
0001
0000
0100
0001
,
1000
0010
MMMM
0010
0000
0100
1000
0100
,
0101
0000
0000
0000
0001
0000
0010
0000
0100
0000
1000
0001
0100
0000
0010
1000
,
0100
0010
MMMM
0000
0001
0100
0101
0000
,
1000
0000
0010
0000
1010
0000
0000
0000
0001
0010
0100
1000
0001
0000
0100
0000
,
0010
1000
0100
0000
0010
0001
0100
0000
0000
0000
0010
0000
1000
0000
0100
0000
,
0110
0000
0000
0000
0010
0000
0001
0000
1000
0000
0010
0100
0001
0000
0100
0010
,
1000
0100
MMMM
0100
1000
0010
1010
1000
,
0001
0000
0010
0000
0011
0000
0001
0000
1000
0000
0100
0010
0001
0000
0100
0010
,
1000
0001
MMMM
0010
0000
1000
0100
0001
,
0101
0000
0000
0000
0100
0000
1000
0000
0010
0100
0010
0100
0001
0000
1000
0000
,
0100
0010
MMMM
0000
1100
0010
0001
0000
,
0101
0010
1000
0000
1001
MMMM
0110
0110
,
0110
MMMM
1001
MMMM
0000
0000
0000
0000
,
1000
0000
0100
1000
0010
0000
0110
0000
0000
0100
0001
0000
0010
0000
0200
0000
,
0000
1300
0001
0101
1100
0010
1001
MMMM
,
0001
0000
0100
0010
1000
0000
0100
0010
0000
0100
1000
0000
0010
0000
0200
0000
,
0000
0301
0011
2010
0000
3100
1001
MMMM
,
0001
0000
0001
0010
0100
0000
0100
1000
0010
0000
0010
0100
1010
0000
0101
0000
,
1000
0000
1000
0010
0100
0000
0100
0001
0010
0000
0010
0100
0011
0000
2100
0000
,
0000
3010
MMMM
0102
0000
0013
0220
0000
,
0330
0000
0000
0000
1000
2000
0000
3000
0001
0002
0000
0003
0000
0000
MMMM
0000
,
1000
0010
0100
0101
0000
0000
0000
0000
1000
0010
0100
0101
0000
0011
0000
1001
,
0000
0010
0100
1100
0000
0000
0000
0000
0001
0010
0100
1100
0000
1010
0000
1001
,
0000
0010
0100
0101
0000
0000
0000
0000
1000
0010
0100
0101
0000
0011
0000
1001
,
0000
0010
0100
1100
0000
0000
0000
0000
0001
0100
0010
1000
0110
0000
0000
0000
,
0001
0010
0100
0000
1000
0010
0100
0000
0001
1000
0100
0000
0010
0001
1000
0000
,
0010
0100
0001
0100
0010
0000
1000
0000
1100
0000
0001
0000
0011
0000
MMMM
0000
,
1000
0010
0100
0000
0001
0010
0100
0000
0001
1000
0010
0000
0100
0001
1000
0000
,
0100
0010
0001
0000
1000
0010
0100
0010
1000
0000
0001
0000
0101
0000
MMMM
0000
,
1000
0010
0100
0000
0001
0010
0100
0000
1000
0001
0100
0000
0001
1000
0100
0000
,
0010
0001
0100
0000
0110
0000
0010
0000
1000
0100
0010
0000
0110
0000
MMMM
0000
,
1001
0000
1000
0000
0010
0100
0001
1000
0010
0000
0100
0000
0110
0000
0010
0000
,
MMMM
0000
MMMM
0000
MMMM
0000
MMMM
0000
MMMM
0000
0000
0000
1000
0001
1000
0001
1000
0000
0000
0000
0010
0000
0000
0000
0001
0000
0000
0000
0010
0000
0000
0000
,
0110
MMMM
0010
1000
0001
0010
1000
0010
,
0110
0000
MMMM
0000
1000
0100
0010
0001
1000
0000
0100
0000
0001
0000
0100
0000
,
0110
0000
MMMM
0000
0010
0000
0001
0000
0100
0000
0010
0000
1000
0100
1000
0010
,
1000
0000
0100
0000
0010
0001
0010
0000
0100
0000
1000
0000
0010
0000
0100
0000
,
1001
MMMM
1000
0010
0100
0001
0010
0100
,
1001
0000
MMMM
0000
0001
0100
0010
1000
0001
0000
0100
0000
1000
0000
0100
0000
,
0110
0000
MMMM
0000
0010
0000
1000
0000
0100
0000
0001
0000
0100
1000
0010
1000
,
0001
0000
0010
0100
1000
0000
0010
0000
0100
0000
0001
0000
0011
0000
0010
0000
,
0011
0000
0001
0000
0101
0000
MMMM
0000
1000
0100
0010
0000
0001
0100
0010
0100
,
0001
1000
1010
MMMM
0001
1000
1100
0100
,
1100
0000
1000
0000
1010
0000
MMMM
0000
1000
0100
0010
0000
0001
1000
0010
1000
,
0001
0010
0110
MMMM
0001
1000
1100
0100
,
0110
0000
0010
0000
0011
0000
MMMM
0000
1000
0010
0100
0000
0001
1000
0100
1000
,
0001
0000
0010
0000
0011
0000
MMMM
0000
0001
0100
0010
0000
1000
0100
0010
0000
,
0001
1000
0010
0000
1000
0001
0100
0000
0001
0010
0100
0000
1000
0001
0100
0001
,
1000
MMMM
0110
MMMM
0001
0010
0200
1000
,
0000
0010
0300
0000
1000
0010
0200
0001
,
0000
0010
0300
0000
0001
0010
0200
1000
,
0000
0010
0300
0000
1000
0010
0200
0001
,
0000
0010
0300
0010
2002
0000
0000
0000
,
0000
0000
3003
0000
;

//--------------- dance-double - forcednature ----------------
#NOTEDATA:;
#STEPSTYPE:dance-double;
#DESCRIPTION:forcednature;
#DIFFICULTY:Easy;
#METER:9;
#RADARVALUES:0,0,0,0,0;
#CREDIT:forcednature;
#NOTES:
00000000
00000000
00000000
00000000
,
00000000
00000000
00000000
00000000
,
00000000
00000000
00000000
00000000
,
00000000
00000000
00000000
00000000
,
00000000
00000000
00000000
00000000
,
00002000
00000000
00003000
00020000
00000000
00000000
00030000
00000000
,
00200000
00000000
00300000
20000000
00000000
00010000
30000000
00000000
,
20000000
00000000
30000000
02000000
00000000
00000000
03000000
00000000
,
00020000
00000000
00030000
00002000
00000000
00100000
00003000
00000000
,
00001000
00000000
00001000
00000000
00000000
00001000
00010000
00000000
,
00000010
00000010
00000010
00000000
00000000
00000000
00001000
00000000
,
00001000
00000100
00000100
00001000
,
00000010
00010000
00000000
00001000
,
00001000
00010000
00010000
00001000
,
00100000
00010000
00000000
01000000
,
01000000
00010000
00010000
10000000
,
00100000
01000000
00000000
00010000
,
00100000
00001000
00000000
00020000
,
00030000
00000100
00001000
00000100
,
00000010
00000001
00000100
00001001
,
00000000
00001000
00000010
00010000
,
00001000
00100000
00010000
10010000
,
00000000
00010000
01000000
00010000
,
00100000
00001000
00010000
00011000
,
00000000
00000100
00001000
00001001
,
00000000
00000010
00000001
00000110
,
00000000
00001001
00000000
00001000
,
00001000
00000000
00000010
00010000
,
00001000
00010000
00000000
00100000
,
00100000
00000000
10000000
00010000
,
01000000
00010000
00000000
10000000
,
10000000
00000000
00100000
10000000
,
01000000
00010000
00000000
00001000
,
00010000
00000000
00000100
00000100
,
00001000
00001001
00000000
00000010
,
00000110
00000000
00001000
00000100
,
00010000
00001000
00000000
00100000
,
00110000
00000000
10000000
00100000
,
10000000
01000000
00000000
00100000
,
10010000
00000000
00010000
01000000
,
01000000
00001000
00011000
00000000
,
00011000
00000000
00000100
00001000
,
00000010
00000000
00000100
00000000
00002002
00000000
00000000
00003003
,
00000000
00000000
00000000
00000000
00000001
00000000
00000000
00000010
00000000
00000000
00000001
00000000
00000001
00000000
00000000
00000000
,
00000100
00000000
00001000
00001000
00000000
00010000
00001000
00000000
,
00010000
00000000
00000000
00000000
00100000
00000000
00000000
00100000
00000000
00000000
10000000
00000000
00010000
00000000
00000000
00000000
,
01000000
00000000
00000000
20020000
00000000
30030000
00000000
00000000
,
00000000
10000000
00000000
10000000
00000000
10000000
01000000
00010000
,
00000000
00001000
00000000
00001000
00000000
00001000
00000010
00000002
,
00000000
00000203
00000000
00000320
00000000
00002030
00000000
00003000
,
00000000
00000110
00000220
00000330
,
00000002
00000003
00000020
00000030
,
00002000
00003000
00020000
00030000
,
02000000
03000000
20000000
30000000
,
00200000
00000000
00300000
00000000
01000000
01000000
01000000
00000000
,
00010000
00100000
00001000
00010000
,
00000100
00001000
00000011
00000000
,
00001000
00000010
00010000
00001000
,
01000000
00010000
10100000
00000000
,
10000000
01000000
00010000
00001000
,
00100000
00001000
00011000
00000000
,
00000010
00001000
00001001
00000000
,
00000200
00000000
00000300
00000010
00000020
00000000
00000030
00000000
,
00001001
00000000
00001000
00000100
,
00010000
00001000
00200000
00300000
,
10010000
00000000
00010000
00010000
,
01000000
00100000
20000000
30000000
,
10010000
00000000
00010000
00010000
,
00100000
00001000
00020000
00030000
,
00011000
00000000
00000100
00001000
,
00000010
00000100
00000000
00000001
,
00000010
00000000
00000001
00001000
00000001
00000000
00000100
00000000
,
00001000
00010000
00000000
00010000
,
00001000
00000000
00100000
00010000
00100000
00000000
01000000
00000000
,
10000000
01000000
00000000
00100000
,
00010000
00000000
00100000
00001000
00100000
00000000
00001000
00000000
,
00010000
00000100
00001000
00001000
,
00000010
00001000
00000001
00001001
,
00000100
00000110
00002000
00000000
,
00003000
00000000
00000200
00000000
,
00000300
00000000
00020000
00000000
,
00030000
00000000
00002000
00000000
,
00003000
00000000
00022000
00000000
,
00000000
00000000
00033000
00000000
;

//--------------- dance-double - forcednature ----------------
#NOTEDATA:;
#STEPSTYPE:dance-double;
#DESCRIPTION:forcednature;
#DIFFICULTY:Medium;
#METER:13;
#RADARVALUES:0,0,0,0,0;
#CREDIT:forcednature;
#NOTES:
00000000
00000000
00000000
00000000
,
00000000
00000000
00000000
00000000
,
00000000
00000000
00000000
00000000
,
00000000
00000000
00000000
00000000
,
00000000
00000000
00000000
00000000
,
00012000
00000000
00000000
00103000
00000000
00110000
00000000
10000000
,
02000000
00000000
00000000
03020000
00000000
00032000
00000000
00003000
,
00021000
00000000
00030010
00001010
00000000
00001100
00000000
00000001
,
00000020
00000000
00001030
00020000
00000000
02030000
00000000
03000000
,
10000000
00000000
01000000
10000000
01000000
00000000
00000000
00000000
00100000
00000000
00010000
00100000
00010000
00000000
00000000
00000000
,
00001000
00000100
00000000
00000010
00000000
00000001
00000000
00000200
00000300
00000000
00000000
00000000
00001000
00000000
00000000
00000000
,
00010000
00100000
10000000
11000000
,
00110000
10010000
00000000
10000000
,
01000000
00010000
00001000
00000110
,
00001100
00000011
00000000
00000001
,
00000010
00001000
00010000
00011000
,
00101000
10010000
00000000
00110000
,
10100000
01000000
00010000
00002000
,
00003000
00000000
00000010
00000100
00001000
00000000
00000010
00000100
,
00000001
00000010
00000110
00001100
,
00000000
00000000
00010000
00001000
00100000
00000000
00010000
01000000
,
10000000
01000000
01010000
10100000
,
00000000
00000000
10000000
01000000
00100000
00000000
01000000
00010000
,
00001000
00100000
00101000
00010100
,
00000000
00000000
00000100
00001000
00000010
00000000
00000100
00000001
,
00001000
00001010
00011000
01010000
,
00000000
00000000
10000000
00000000
00100000
00000000
01000000
01000000
00000000
00000000
00000000
00000000
00010000
00000000
00100000
00000000
,
00010000
00000000
10000000
01000000
00000000
00010000
01000000
00010000
,
00002000
00000000
00003020
00000000
00000130
00000000
00001000
00000100
,
00000001
00000000
00000100
00001000
00000000
00000010
00000100
00000001
,
00000200
00000000
00002300
00000000
00013000
00000000
00100000
01000000
,
00100000
00000000
10000000
00010000
00000000
01000000
10000000
01000000
,
00020000
00230000
01300000
00100000
,
00001000
00010000
00000100
00000000
00002100
00000000
00000010
00000000
,
00000010
00000000
00003001
00000000
00000000
00000001
00000100
00001000
,
00000100
00000000
00000001
00000010
00000000
00001000
00010000
00010000
,
00002000
00000000
00203000
00000000
00310000
00000000
01000000
00100000
,
01000000
00000000
00100000
10000000
00000000
01000000
00100000
00100000
,
00002000
00000000
00023000
00000000
00030100
00001000
00000100
00000000
,
00000010
00000001
00000010
00000000
00000100
00001000
00001000
00000001
,
00000100
00001000
00010000
00000000
00022000
00000000
00033000
00000000
,
00022000
00000000
00033000
00000000
00101000
00000000
00100000
00010000
,
01000000
00000000
01100000
00000000
20020000
00000000
00000000
30030000
,
00000000
00000000
10000000
00000000
10000000
00000000
00000000
01000000
00000000
00000000
00010000
00000000
00002000
00000000
00000000
00000000
,
00000000
00003000
00000000
00000020
00000230
00000000
00020300
00000000
,
00030000
00000000
00000010
00000000
00001000
00000000
00000000
00001000
00000000
00000000
00000001
00000000
00000100
00000000
00002000
00000000
,
00000000
00003000
00000000
00022000
00000000
00033000
00000000
00000000
,
00000000
00010000
00010000
00100000
10000000
00100000
00010000
00010000
,
00000000
00001000
00001000
00000010
00000001
00000010
00001000
00020000
,
00000000
02030000
03000000
20000000
00000000
30100000
00020000
00000000
,
00030000
00000000
00022000
00033000
00022000
00000000
00033000
00000000
,
00001000
00000000
00010000
00001000
00000000
00000000
00000000
00000000
00001000
00000000
00010000
00001000
00000000
00000010
00000000
00000000
,
00000100
00000000
00001000
00000100
00000000
00000000
00000000
00000000
00000100
00000000
00001000
00000100
00000000
00000010
00000000
00000000
,
00000001
00000000
00000100
00000001
00000000
00000000
00000000
00000000
00000001
00000000
00000100
00000001
00000000
00000010
00000000
00000000
,
00000100
00000000
00001000
00000100
00000000
00000000
00000000
00000000
00020000
00000000
00001000
00000000
00031000
00000000
00000000
00000000
,
00100000
00010000
01000000
00000000
00100000
10000000
01000000
00000000
,
00010000
00101000
00010100
00000000
,
00000010
00001000
00000100
00000000
00000010
00000001
00000100
00000000
,
00001000
00010010
01001000
00000000
,
10000000
00010000
00100000
00000000
01000000
00010000
00001000
00000000
,
00100000
00011000
00010100
00000000
,
00000110
00000000
00000010
00000001
00000100
00000001
00001000
00000000
,
00000020
00000000
00000000
00000000
00000030
00000000
00001000
00001000
00000001
00000000
00000000
00000000
00000000
00000000
00000100
00000000
,
00001000
00000000
00010000
00001000
00010000
00100000
00000000
10000000
,
00100000
00000000
10010000
00000000
00110000
00000000
00000000
10000000
,
01000000
00000000
00010000
01000000
00010000
00001000
00000000
00100000
,
00001000
00000000
00011000
00000000
00010100
00000000
00000000
00000100
,
00001000
00000000
00000010
00000100
00001000
00000100
00000000
00000001
,
00001000
00000000
00001010
00000000
00011000
00000000
00000000
00100000
,
00010000
00000000
01000000
10000000
01000000
00010000
01000000
00000000
,
01100000
00000000
10100000
00000000
00000000
10000000
01000000
00010000
,
01000000
00000000
00010000
00001000
00100000
00001000
00010000
00000000
,
00000100
00001000
00000010
00001000
00000000
00000001
00000100
00001000
,
00000100
00000000
00001000
00010000
00000010
00010000
00001000
00000000
,
01000000
00010000
00100000
00010000
00000000
10000000
01000000
00010000
,
01000000
00000000
00010000
00001000
00100000
00001000
00010000
00000000
,
00000100
00001000
00000010
00001000
00000002
00000000
00000023
00000000
,
00002030
00000000
00023000
00000000
01030000
00100000
01000000
10000000
,
00100000
01000000
00100000
00000000
00020000
00000000
00000000
00000000
,
00000000
00030000
00002000
00000000
,
00000000
00003000
00000200
00000000
,
00000000
00000300
00000002
00000000
,
00000000
00000003
00002002
00000000
,
00000000
00000000
00003003
00000000
;

//--------------- dance-double - forcednature ----------------
#NOTEDATA:;
#STEPSTYPE:dance-double;
#DESCRIPTION:forcednature;
#DIFFICULTY:Hard;
#METER:16;
#RADARVALUES:0,0,0,0,0;
#CREDIT:forcednature;
#NOTES:
00000000
00000000
00000000
00000000
,
00000000
00000000
00000000
00000000
,
00000000
00000000
00000000
00000000
,
00000000
00000000
00000000
00000000
,
00000000
00000000
00000000
00000000
,
00012000
00000000
01000000
01000000
00000000
00013000
00100000
10000000
,
00020000
00000000
01030000
00200000
00000000
10000000
00300000
00000000
,
20010000
00000000
01000000
01000000
00000000
30010000
00100000
00001000
,
00020000
00000000
00030100
00002000
00000000
00000010
00003000
00000000
,
00000001
00000100
00000001
00000100
00000010
00000000
00000000
00000000
00001000
00000100
00001000
00000100
00000010
00000000
00000000
00000000
,
00001000
00010000
00001000
00010000
00001000
00100000
00010000
02000000
03000000
00000000
00000000
00000000
00100000
00000000
10000000
00000000
,
01000000
00000000
00100000
00010000
01000000
00000000
00100000
10000000
,
01000000
00010000
00001000
00100000
00010000
00000000
00001000
00000100
,
00000010
00000000
00000001
00000100
00000010
00000000
00001000
00000001
,
00000100
00001000
00010000
00000010
00001000
00000000
00000001
00000010
,
00001000
00000000
00010000
00001000
00000010
00000000
00001000
00010000
,
01000000
00100000
00010000
10000000
00100000
00000000
10000000
01000000
,
00010000
00000000
00001000
00000100
00000001
00000000
00000020
00000000
,
00000030
00000000
00000000
00000000
00000001
00000000
00000010
00000000
00000100
00000010
00000100
00000000
00001000
00000000
00000010
00000000
,
00010000
00000000
00001000
00000000
00100000
00000000
00010000
00000000
00100000
01000000
00100000
00000000
01000000
00000000
10000000
00000000
,
00100000
00000000
10000000
00000000
00010000
00000000
00100000
00000000
01000000
00100000
01000000
00000000
10000000
00000000
00100000
00000000
,
00010000
00000000
00100000
00000000
10000000
00000000
01000000
00000000
10000000
00010000
10000000
00000000
00010000
00000000
00100000
00000000
,
01000000
00000000
00010000
00000000
00001000
00000000
00100000
00000000
00001000
00010000
00001000
00000000
00010000
00000000
00000100
00000000
,
00001000
00000000
00000010
00000000
00000100
00000000
00001000
00000000
00000100
00000001
00000100
00000000
00000001
00000000
00000010
00000000
,
00001000
00000000
00010000
00000000
00000100
00000000
00010000
00000000
00001000
00100000
00001000
00000000
00100000
00000000
00010000
00000000
,
01000000
01100000
01100000
10010000
,
00010000
00000000
01000000
00000000
00001000
00000000
00010000
00000000
00000010
00000000
00001000
00000000
00000001
00000100
00000001
00000000
00000000
00000000
00000000
00000000
00000010
00000000
00000000
00000000
00001000
00000000
00000000
00000000
00010000
00000000
00000000
00000000
,
00001000
00000000
00000000
00000000
00100000
00000000
00020000
00000000
00000000
00000000
01030000
00000000
00100000
01000000
00100000
00000000
,
10000000
00000000
00010000
00000000
10000000
01000000
00010000
00001000
,
00100000
00000000
00000000
00000000
00001000
00000000
00020000
00000000
00000000
00000000
00030010
00000000
00001000
00000010
00001000
00000000
,
00000001
00000100
00000001
00000100
00000000
00001000
00010000
00001000
,
00100000
00000000
00010000
00000000
00100000
00000000
00001000
00000000
00000000
00000000
01000000
00000000
00010000
01000000
00010000
00000000
,
10000000
00100000
10000000
00000000
01000000
00010000
00001000
00100000
,
00001000
00000000
00010000
00000000
00000100
00000000
00000000
00000000
00001000
00000010
00001000
00000000
00000010
00000000
00000100
00000000
,
00000001
00000000
00001001
00000000
00001000
00000010
00000001
00000010
,
00001000
00000000
00000001
00000000
00000100
00000000
00001000
00000000
00010000
00000000
00000000
00000000
00001000
00010000
00001000
00000000
,
00100000
00000000
00110000
00000000
10000000
01000000
00010000
00001000
,
00100000
00000000
00010000
00000000
00100000
00000000
01000000
00000000
00010000
00000000
00000000
00000000
00001000
00010000
00001000
00000000
,
00010000
00010000
00000010
00001000
00000000
00000001
00000100
00001000
,
00010000
00000000
00100000
00000000
10000000
00000000
00010000
00000000
01000000
00100000
01000000
00000000
00100000
00000000
10000000
00000000
,
01000000
00000000
01100000
00000000
01000000
00100000
00001000
00000000
,
00010000
00000100
00000010
00000000
00000110
00000000
00000100
00010000
,
00001000
00000000
00011000
00000000
00000020
00000000
00000000
00000030
,
00000000
00000100
00001000
00000100
00000000
00000100
00000001
00001000
,
00000010
00000000
00010000
00002000
00000000
00103000
00200000
00000000
,
00310000
00000000
01000000
00000000
00100000
00000000
01000000
00100000
00000000
00000000
10000000
00000000
01000000
00000000
00020000
00000000
,
00000000
00031000
00100000
00022000
00000000
00000000
00033000
00000000
,
00000000
00000010
00001000
00010000
00001000
00000010
00010000
00100000
,
00000000
01000000
10000000
01000000
00010000
00100000
00001000
00020000
,
00000000
01030000
00000000
00012000
00000000
00003100
00000002
00000000
,
00000003
00000000
00000000
00000000
00000010
00000200
00000000
00000300
00000010
00000200
00000000
00000300
00000000
00000000
00000000
00000000
,
00001000
00000001
00000100
00000001
00000000
00000000
00000000
00000000
00001000
00000001
00000100
00000001
00000000
00000010
00000000
00001000
,
00000000
00010000
00001000
00010000
00000000
00000000
00000000
00000000
00000100
00010000
00001000
00010000
00000000
00100000
00000000
10000000
,
00000000
01000000
00100000
01000000
00000000
00000000
00000000
00000000
10000000
01000000
00100000
01000000
00000000
10000000
00000000
00010000
,
00000000
00100000
00001000
00010000
00000000
00000000
00000000
00000000
00000010
00000100
00001000
00010000
00002000
00003000
00000000
00000000
,
00100000
00000000
00010000
00000000
01000000
00100000
01000000
00000000
00100000
00000000
10000000
00000000
01000000
00000000
00010000
00000000
,
00001000
00000000
00100000
00000000
00001000
00010000
00001000
00000000
00010000
00000000
00000100
00000000
00001100
00000000
00000000
00000000
,
00000001
00000000
00000010
00000000
00000100
00000010
00000100
00000000
00001000
00000000
00000010
00000000
00000100
00000000
00001000
00000000
,
00010000
00000000
00100000
00000000
01000000
00100000
01000000
00000000
00010000
00000000
10000000
00000000
10100000
00000000
00000000
00000000
,
10000000
00000000
01000000
00000000
00010000
01000000
00010000
00000000
00001000
00000000
00100000
00000000
00010000
00000000
01000000
00000000
,
00001000
00000000
00010000
00000000
00000010
00001000
00000010
00000000
00000100
00000000
00000001
00000000
00000011
00000000
00000000
00000000
,
00001000
00000000
00000100
00000000
00000010
00000100
00001000
00000000
00000001
00000000
00000010
00000000
00000001
00000000
00000100
00000000
,
00002000
00000000
00000000
00000000
00000000
00000000
00000000
00000000
00003000
00000000
00000000
00000000
00010000
00001000
00010000
00001000
00010000
00000000
00000000
00000000
00000000
00000000
00000000
00000000
00100000
00000000
00000000
00000000
10000000
00000000
00000000
00000000
,
01000000
00000000
00100000
00001000
00010000
00000010
00001000
00000100
,
00001100
00000000
00000000
00000000
00000001
00000010
00000001
00000010
00000001
00000000
00000000
00000000
00001000
00000000
00000100
00000000
,
00000001
00000000
00000100
00010000
00001000
00000010
00000001
00000100
,
00000110
00000000
00001001
00000000
00010100
00000000
00100000
00001000
,
00011000
00000000
00000000
00000000
00010000
00000000
00100000
00000000
10000000
00000000
00010000
00000000
01000000
00100000
01000000
00100000
,
10000000
00000000
00010000
00100000
01000000
00000000
00010000
00001000
,
00011000
00000000
00000000
00000000
00000010
00000000
00001000
00000000
00000100
00000000
00000010
00000000
00000001
00000100
00000001
00000100
,
00000010
00001000
00000001
00000000
00000010
00001000
00010000
00001000
,
00011000
00000000
00000000
00000000
00010000
00000000
01000000
00000000
10000000
00000000
00000000
00000000
00010000
00100000
00010000
00100000
,
00010000
00000000
10000000
00000000
00100000
00010000
00001000
00010000
,
00011000
00000000
00000000
00000000
00001000
00000000
00000100
00000000
00000001
00000000
00000000
00000000
00001000
00000010
00001000
00000010
,
00001000
00000001
00000100
00000001
00000010
00001000
00010000
00001000
,
00011000
00000000
00000000
00000000
00010000
00000000
00100000
00000000
10000000
00000000
00010000
00000000
01000000
00100000
01000000
00100000
,
10000000
00000000
00000000
00000000
00010000
00000000
00100000
00000000
01000000
00100000
01000000
00000000
10000000
00000000
00100000
00000000
,
01000000
00100000
01000000
00000000
00010000
00000000
00100000
00000000
00001000
00010000
00001000
00000000
00010000
00000100
00010000
00000000
,
00001000
00000000
00000110
00000000
00000001
00000100
00000010
00000200
,
00000000
00001000
00000300
00000000
00000100
00000001
00001000
00000020
,
00000000
00010000
00000030
00000000
00100000
00010000
00100000
02000000
,
00000000
10000000
03000000
00000000
01000000
00010000
00001000
00020000
,
00000000
00000010
00030000
00001000
00000200
00000000
00000000
00000000
,
00000000
00000000
00000300
00000000
;

//--------------- dance-double - ----------------
#NOTEDATA:;
#STEPSTYPE:dance-double;
#DESCRIPTION:forcednature;
#CREDIT:forcednature;
#DIFFICULTY:Challenge;
#METER:17;
#RADARVALUES:0,0,0,0,0;
#NOTES:
00000000
00000000
00000000
00000000
,
00000000
00000000
00000000
00000000
,
00000000
00000000
00000000
00000000
,
00000000
00000000
00000000
00000000
,
00000000
00000000
00000000
00000000
,
00012000
00000000
00003020
00000000
00000230
00000000
00001000
00000000
00000000
00000000
00001000
00000000
00000000
00000000
00000310
00000001
,
00002000
00003020
00020030
00001000
00000000
00200000
00000000
00330000
,
00200000
00000000
10000000
10000000
10000000
00000000
02300000
00000000
03002000
00000000
00100000
00100000
00100000
00000000
00003020
00000000
,
00000230
00000000
00000001
00000001
00000001
00000000
00002000
00000000
00000300
00000000
00000020
00000000
00000000
00000000
00003030
00000000
,
00000001
00000100
00001000
00000000
0002MMMM
00000000
00130000
00000000
10000000
01000000
00010000
00000000
MMMM2000
00000000
00003010
00000000
,
00000001
00000100
00000010
00001000
00010000
01000000
00010000
00200000
00300000
00000000
00000000
00000000
11000000
00000000
10000000
00000000
,
00100000
00000000
01000000
00000000
01100000
00000000
00100000
00000000
01000000
00000000
00010000
00000000
0010MMMM
00010000
00100000
00000000
,
MMMM1000
00000010
MMMM0110
00000000
00001000
00000000
00000101
00000001
,
00000010
00000000
00000100
00000000
00000110
00000000
00000010
00000000
00000100
00000000
00001000
00000000
MMMM0010
00001000
00000010
00000000
,
0001MMMM
00100000
0110MMMM
00000000
10010000
00000000
10100000
10000000
,
01000000
00000000
00100000
00000000
01100000
00000000
01000000
00000000
00100000
00000000
00001000
00000000
0100MMMM
00010000
01000000
00000000
,
MMMM1000
00000100
MMMM0010
00000000
00001001
00000000
00000011
00000001
,
00000100
00000010
00000110
00000100
00001000
00000000
0001MMMM
MMMM1000
,
0010MMMM
00000000
01010000
01000000
01100000
00100000
10100000
10000000
,
01000000
00000000
00010000
00000000
MMMM1000
00000010
00000001
00000000
MMMM0010
00000100
00001000
00000000
MMMM0020
00000000
00000000
00000000
,
00010030
00000000
00001100
00000100
00000110
00000010
00000011
00000001
,
00000100
00000000
00001000
00000000
0001MMMM
00100000
10000000
00000000
0010MMMM
01000000
00010000
00000000
0020MMMM
00000000
00000000
00000000
,
00301000
00000000
11000000
10000000
10100000
00100000
01100000
01000000
,
00010000
00000000
00100000
00000000
MMMM1000
00000010
00001000
00000000
MMMM0010
00000001
00000100
00000000
MMMM0120
00000000
00000000
00000000
,
00010030
00000000
00000101
00000001
00000011
00000010
00000110
00000100
,
00010000
00000000
00010010
MMMMMMMM
00101000
MMMMMMMM
00010010
00000000
,
00000010
00000000
00001000
00000000
00000100
00000000
00010000
00000000
00001000
00010000
00001000
00000000
00100000
00010000
00100000
00010000
00000000
00000000
00000000
00000000
10000000
00000000
00000000
00000000
01000000
00000000
00000000
00000000
00010000
00000000
00000000
00000000
,
01010000
00000000
01000000
00100000
00002000
MMMM0000
00100000
MMMM0000
,
01003000
0000MMMM
MMMM1010
00000000
00000010
00000100
00000001
00000010
,
00001000
00000000
00010000
01000000
10000000
01000000
0001MMMM
00001000
,
MMMM0010
00001000
0001MMMM
00001000
00000000
00000010
00000001
00001000
,
00000010
00000100
00001000
00000000
00020000
0000MMMM
00000010
0000MMMM
,
00030100
MMMM0000
0011MMMM
00000000
00010000
01000000
00011000
00000000
,
00000010
00000000
00001000
00000000
00000101
00000000
00000000
00000000
00001000
00000100
00010000
00001000
00010000
00000000
00001000
00000000
,
00000010
00000100
00001000
00000000
00000010
00000000
00000100
00000000
00000000
00000000
00000001
00000000
00000010
00000000
00001000
00000000
,
00001010
00000000
00000010
00000100
00020000
0000MMMM
00000100
0000MMMM
,
00030010
MMMM0000
0101MMMM
00000000
01000000
00100000
10000000
01000000
,
00010000
00000000
00001000
00000010
00000001
00000010
MMMM1000
00010000
,
0100MMMM
00010000
MMMM1000
00010000
00000000
01000000
10000000
00010000
,
01000000
00100000
00010000
00000000
00002000
MMMM0000
01000000
MMMM0000
,
00103000
0000MMMM
MMMM0100
00000000
00012000
00000000
MMMM3010
00000000
,
00021000
00000000
0013MMMM
00000000
0110MMMM
00000000
00010000
00001000
,
00011000
MMMM0220
00000000
00000330
,
00000001
00000000
00000100
00000000
00001000
00010000
00000000
00011000
00000000
00001000
00010000
00000000
00100000
00000000
20000000
00000000
,
00000000
31000000
00100000
00110000
00101000
00010000
01001000
MMMMMMMM
,
00001000
00000000
00010000
00001000
00010000
00000000
00100000
01000000
00000000
00100000
20000000
00000000
32000000
00000000
03020000
00000000
,
00000000
00031000
00000010
00002100
00000000
00003010
00000101
MMMMMMMM
,
00000001
00000000
00000001
00000100
00001000
00000000
00001000
00010000
00100000
00000000
00100000
01000000
10100000
00000000
01010000
00000000
,
10000000
00000000
10000000
01000000
00010000
00000000
00010000
00001000
00000010
00000000
00000010
00000100
00000011
00000000
00002100
00000000
,
00000000
MMMM3010
0000MMMM
01020000
00000000
0013MMMM
MMMM2000
00000000
,
00003000
00000000
00000000
00000000
01000000
0200MMMM
00000000
03000000
00000100
MMMM0200
00000000
00000300
00000000
00000000
00000000
00000000
,
00010000
00001000
00000100
00001000
00000000
00000000
00000000
00000000
00010000
00001000
00000100
00001000
00000000
00011000
00000000
00010000
,
00000000
00100000
01000000
00100000
00000000
00000000
00000000
00000000
00010000
00100000
01000000
00100000
00000000
01100000
00000000
01000000
,
00010000
00100000
01000000
10000000
00000000
00000000
00000000
00000000
00010000
00100000
01000000
10000000
00000000
01100000
00000000
00110000
,
00000000
00001000
00010000
00001000
00000000
00000000
00000000
00000000
00000010
00000100
00001000
00000001
MMMM1001
00000000
00000000
00000000
,
00000001
00000100
00000001
00000000
00000100
00000010
00000100
00000000
00000010
00001000
00000010
00000000
00010000
00001000
00010000
00000000
,
00100000
01000000
00010000
01000000
00100000
00000000
10000000
00000000
1001MMMM
00000000
00000000
00000000
MMMM1000
00000000
00000000
00000000
,
01000000
00010000
01000000
00000000
00100000
10000000
00100000
00000000
01000000
00001000
00010000
00000000
00000010
00001000
00000010
00000000
,
00000100
00000001
00001000
00000001
00000100
00000000
00000010
00000000
MMMM1001
00000000
00000000
00000000
0001MMMM
00000000
00000000
00000000
,
00000100
00001000
00000100
00000000
00010000
00001000
00010000
00000000
00000010
00001000
00000001
00000000
00000010
00000001
00001000
00000000
,
00000100
00001000
00000100
00000000
00010000
00000000
00000010
00000000
MMMM1010
00000000
00000000
00000000
0001MMMM
00000000
00000000
00000000
,
00011000
00000000
00011000
00011000
00022000
00000000
00033000
00000000
,
0000MMMM
00000000
0000MMMM
00000000
MMMM0000
00000000
0000MMMM
00000000
MMMM0000
00000000
00000000
00000000
00001000
00010000
00001000
00010000
00001000
00000000
00000000
00000000
00000010
00000000
00000000
00000000
00000001
00000000
00000000
00000000
00000100
00000000
00000000
00000000
,
00002000
00000000
MMMM0000
00000000
00103000
00010000
0100MMMM
00000000
00100000
00000000
10000000
01000000
00100000
00000000
00010000
00000000
,
01100000
00000000
MMMMMMMM
00000000
00010000
10000000
00100000
00000000
00010000
00000000
00100000
00000000
10000000
00000000
01000000
00000000
,
00020000
00000000
0000MMMM
00000000
00030010
00001000
MMMM0100
00000000
00000010
00000000
00000001
00000100
00000010
00000000
00001000
00000000
,
00000110
MMMMMMMM
00001010
00000000
00010000
00100000
10000000
01000000
,
00020000
00000000
0000MMMM
00000000
00030010
00001000
MMMM0100
00000000
00000010
00000000
00000001
00000100
00000010
00000000
00001000
00000000
,
00000110
00000000
MMMMMMMM
00000000
00001000
00000001
00000010
00000000
00001000
00000000
00000010
00000000
00000001
00000000
00000100
00000000
,
00002000
00000000
MMMM0000
00000000
00103000
00010000
0100MMMM
00000000
00100000
00000000
10000000
01000000
00100000
00000000
00010000
00000000
,
01100000
00000000
MMMMMMMM
00000000
00110000
00000000
00000000
00000000
10000000
00000000
01000000
00000000
10000000
00100000
01000000
00000000
,
00010000
00000000
00100000
00000000
00001000
00010000
00001000
00000000
00000010
00000100
00001000
00000000
MMMM0010
00000000
00010000
00000000
,
0010MMMM
00000000
00000000
00000000
01100000
00000000
MMMM0000
00000000
00010000
00000000
00100000
00000000
00001000
00010000
00001000
00000000
,
00010000
00000100
00001000
00000000
00000010
00000100
MMMM0001
00000000
00000010
00000000
00000100
00000000
00001000
00000010
00010000
00000010
,
MMMM1000
00000000
00000000
00000000
00000110
00000000
0000MMMM
00000000
00010000
00000000
00001000
00000000
00100000
00010000
00100000
00000000
,
00001000
00010000
00001000
00000000
00000010
00000100
MMMM1000
00000000
00000010
00000100
00000001
00000000
00001000
00000100
00010000
00000100
,
MMMM1000
00000000
00000010
00000000
0001MMMM
00000000
MMMM0000
00000000
00001000
01000000
00001000
00000000
00010000
00000100
00010000
00000000
,
00001000
00100000
00010000
00000000
01000000
00001000
00010000
00000000
MMMM0010
00001000
00000010
00000000
MMMM0100
00000001
00001000
00000001
,
MMMM0100
00000000
MMMM0110
0000MMMM
00010000
00001000
02000000
00010000
,
00000000
00100000
03000000
00000000
10000000
01000000
00020000
00001000
,
00000000
00000010
00030000
00000000
00001000
00010000
00000200
00001000
,
00000000
00000010
00000300
00000000
00001000
00000001
00000200
00000010
,
00000000
00001000
00000300
00000010
00020000
00000000
00000000
00000000
,
00000000
00000000
00030000
00000000
;
