#VERSION:0.83;
#TITLE:Fire Beat;
#SUBTITLE:;
#ARTIST:kors k;
#TITLETRANSLIT:;
#SUBTITLETRANSLIT:;
#ARTISTTRANSLIT:;
#GENRE:EXPERIMENTAL EUROBEAT;
#CREDIT:;
#MUSIC:Fire Beat.ogg;
#BANNER:Fire Beat.png;
#BACKGROUND:Fire Beat-bg.png;
#CDTITLE:./CDTitles/bm IIDX 28 BISTROVER.png;
#SAMPLESTART:13.198;
#SAMPLELENGTH:15.000;
#SELECTABLE:YES;
#OFFSET:0.544;
#BPMS:0.000=157.000
,162.000=300.000
;
#STOPS:162.000=0.365;
#BGCHANGES:0.000=../BGAs/18eu.mp4=1.000=0=0=0=StretchNoLoop====,
99999.000=-nosongbg-=1.000=0=0=0=StretchNoLoop====
;
#FGCHANGES:;

//--------------- dance-single - forcednature ----------------
#NOTEDATA:;
#STEPSTYPE:dance-single;
#DESCRIPTION:forcednature;
#DIFFICULTY:Beginner;
#METER:4;
#RADARVALUES:0,0,0,0,0;
#CREDIT:forcednature;
#NOTES:
0000
0000
0000
0000
,
0000
0000
0000
0000
,
0000
0000
0000
0000
,
0000
0000
0000
0000
,
0000
0000
0000
0000
,
1000
0000
0000
0000
,
0001
0000
0000
0000
,
0100
0000
0000
0000
,
0001
0000
0000
0000
,
1000
0000
0000
0000
,
0100
0000
0000
0000
,
1000
0000
0000
0000
,
0001
0000
0000
0000
,
0100
0000
0000
0000
,
0000
0000
0000
0000
,
0010
0000
0000
0000
,
1000
0000
0000
0000
,
0001
0000
0000
0000
,
0000
0000
0000
0000
,
0010
0000
0000
0000
,
0100
0000
0000
0000
,
1000
0000
0000
0000
,
0000
0000
0000
0000
,
0001
0000
0000
0000
,
0100
0000
0000
0000
,
0010
0000
0000
0000
,
0000
0000
0000
0000
,
1000
0000
0000
0000
,
0100
0000
0000
0000
,
0010
0000
0000
0000
,
0001
0000
0000
0000
,
0100
0000
0000
0000
,
0001
0000
0000
0000
,
1000
0000
0000
0000
,
0010
0000
0000
0000
,
1000
0000
0000
0000
,
0100
0000
0000
0000
,
0220
0000
0000
0000
,
0330
0000
0000
0000
,
1000
0000
0001
0000
,
0100
0000
0000
0000
,
1001
0000
0000
0000
,
0000
0000
0000
0000
,
0001
0000
0000
0000
,
0000
0000
0000
0000
,
0100
0000
0000
0000
,
0000
0000
0000
0000
,
0010
0000
0000
0000
,
1000
0000
0000
0000
,
0010
0000
0000
0000
,
0000
0000
0000
0000
,
1000
0000
0000
0000
,
0000
0000
0000
0000
,
0100
0000
0000
0000
,
0000
0000
0000
0000
,
0010
0000
0000
0000
,
0010
0000
0000
0000
,
0001
0000
0000
0000
,
0000
0000
0000
0000
,
0100
0000
0000
0000
,
0001
0000
0000
0000
,
0100
0000
0000
0000
,
0000
0000
0000
0000
,
2002
0000
0000
0000
,
3003
0000
0000
0000
,
1000
0000
0000
0000
,
1000
0000
0000
0000
,
1000
0000
0000
0000
,
1000
0000
0000
0000
,
0001
0000
0000
0000
,
0100
0000
0000
0000
,
0001
0000
0000
0000
,
0000
0000
0000
0000
,
0010
0000
0000
0000
,
0010
0000
0000
0000
,
0100
0000
0000
0000
,
0000
0000
0000
0000
,
1000
0000
0000
0000
,
0001
0000
0000
0000
,
1000
0000
0000
0000
,
0000
0000
0000
0000
,
0010
0000
0000
0000
,
0010
0000
0000
0000
,
0100
0000
0000
0000
,
0000
0000
0000
0000
,
0001
0000
0000
0000
,
1000
0000
0000
0000
,
0001
0000
0000
0000
,
0000
0000
0000
0000
,
0010
0000
0000
0000
,
0100
0000
0000
0000
,
0010
0000
0000
0000
,
0100
0000
0000
0000
,
1000
0000
0000
0000
,
0001
0000
0000
0000
,
1000
0000
0000
0000
,
0001
0000
0000
0000
,
0100
0000
0000
0000
,
0010
0000
0000
0000
,
1000
0000
0000
0000
,
0001
0000
0000
0000
,
0010
0000
0000
0000
,
0100
0000
0000
0000
,
1000
0000
0000
0000
,
0001
0000
0000
0000
,
2002
0000
0000
0000
,
0000
0000
0000
0000
,
0000
0000
0000
0000
,
0000
0000
0000
0000
,
3003
0000
0000
0000
;

//--------------- dance-single - forcednature ----------------
#NOTEDATA:;
#STEPSTYPE:dance-single;
#DESCRIPTION:forcednature;
#DIFFICULTY:Easy;
#METER:9;
#RADARVALUES:0,0,0,0,0;
#CREDIT:forcednature;
#NOTES:
0000
0000
0000
0000
,
0000
0000
0000
0000
,
0000
0000
0000
0000
,
0000
0000
0000
0000
,
0000
0000
0000
0000
,
1001
0000
0110
0000
,
1000
0001
0010
0100
,
1001
0000
0110
0000
,
0001
1000
0010
0100
,
0110
0000
1001
0000
,
1000
0100
0010
0001
,
0100
0100
0010
0010
,
1000
0001
1001
0000
,
0110
0000
1000
0100
,
0010
0100
0010
0000
0001
0000
0100
0000
,
0110
0000
0001
0100
,
0010
0100
0010
0000
1000
0000
0100
0000
,
0110
0000
0010
0001
,
1000
0100
1000
0000
0001
0000
0100
0000
,
0110
0000
0010
1000
,
1001
0000
0001
0010
,
0110
0000
0100
1000
,
0010
1000
0010
0000
0100
0000
0001
0000
,
0011
0000
0100
0001
,
0010
0001
0010
0000
0100
0000
1000
0000
,
1010
0000
1000
0001
,
0010
0100
0010
0000
0001
0000
1000
0000
,
1010
0000
0001
0010
,
0110
0000
0000
1001
0000
0000
0000
0000
,
1001
0100
1001
0010
,
1000
0001
0100
0010
,
1001
0100
1001
0010
,
0001
0100
0010
1000
,
0110
1000
0110
0001
,
0010
0100
1000
0001
,
0100
0100
0010
0010
,
1000
0001
1000
0000
0001
0000
0110
0000
,
2002
0000
0000
0000
0000
3003
0000
0010
,
0010
0000
0000
0000
0000
0000
0000
0100
,
0100
0000
0000
0000
0100
0000
0000
0100
,
0010
0000
0000
0010
0000
0000
0010
0000
0000
0000
0000
0000
0000
0000
0000
0000
,
1000
0000
0100
0000
,
1000
0100
1000
0000
,
0100
0000
0010
0000
,
0001
0100
0001
0000
,
0010
0000
0100
0000
,
1000
0001
1000
0000
,
0010
0000
0110
0000
,
0100
0000
1001
0000
,
0001
0000
0010
0000
,
0001
0100
0001
0000
,
1000
0000
0010
0000
,
1000
0100
1000
0000
,
0010
0000
0100
0000
,
0001
1000
0001
0000
,
1001
0000
0110
0000
,
2002
0000
3003
0000
,
1000
0000
0100
0000
,
1000
0100
1000
0000
,
0001
0000
0100
0000
,
0001
0100
0001
0000
,
0010
0000
0100
0000
,
0010
0100
0010
0000
,
2002
0000
3003
0000
,
0220
0000
0330
0000
,
1000
0000
0100
0000
,
1000
0010
1000
0000
,
0001
0000
0100
0000
,
0001
0010
0001
0000
,
1000
0000
1000
0000
,
0001
0000
0001
0000
,
0100
0000
0010
0000
,
2002
0000
3003
0000
,
1100
0000
0010
0000
,
0101
0000
0010
0000
,
1000
0000
0001
0000
,
0100
0000
0010
0000
,
0101
0000
0010
0000
,
1100
0000
0010
0000
,
0001
0000
1000
0000
,
0100
0010
0100
0000
,
0011
0000
0001
0000
,
1010
0000
1000
0000
,
0001
0000
0010
0000
,
0100
0000
1000
0000
,
0010
0100
0010
0000
,
0100
0010
0100
0000
,
0001
0000
1000
0000
,
2002
3003
0220
0330
,
1000
0100
1000
0000
,
0001
0100
0001
0000
,
0010
0100
0010
0000
,
0001
0000
1000
0000
,
0001
0010
0001
0000
,
1000
0010
1000
0000
,
0100
0100
0100
0000
,
0010
0000
1001
0000
,
1000
0100
1000
0000
,
0001
0100
0001
0000
,
1000
0010
1000
0000
,
0001
0010
0001
0000
,
1001
0000
0110
0000
,
1000
0001
0000
0001
,
1000
0000
0220
0330
,
0001
0000
0220
0330
,
2002
0000
0000
0000
,
0000
0000
0000
0000
,
0000
0000
0000
0000
,
0000
0000
0000
0000
,
3003
0000
0000
0000
;

//--------------- dance-single - forcednature ----------------
#NOTEDATA:;
#STEPSTYPE:dance-single;
#DESCRIPTION:forcednature;
#DIFFICULTY:Medium;
#METER:13;
#RADARVALUES:0,0,0,0,0;
#CREDIT:forcednature;
#NOTES:
0000
0000
0000
0000
,
0000
0000
0000
0000
,
0000
0000
0000
0000
,
0000
0000
0000
0000
,
0000
0000
0000
0000
,
1001
0000
1000
0100
0110
0000
0001
0100
,
0010
1000
0100
0001
0100
1000
0010
0000
,
1001
0000
0001
0100
0110
0000
1000
0100
,
0010
0001
0100
1000
0100
0001
0010
0000
,
0110
0000
0100
1000
1010
0000
0001
0100
,
0010
0001
0010
1000
0001
0100
0001
0000
,
1000
0000
0000
0100
0000
0000
0010
0000
0001
0000
0000
0100
0000
0000
0010
0000
,
1000
1000
0001
0001
0100
0000
0110
0000
,
2002
0000
3003
0000
1000
0100
0001
0100
,
0000
1100
0000
1010
0000
0010
0100
0001
,
0020
0000
0130
1000
0001
0100
0000
0110
,
0000
1010
0000
1100
0000
0100
0010
0001
,
2001
0000
3001
0010
0100
0001
0000
0101
,
0000
1100
0000
1010
0000
0010
0100
0001
,
2000
0000
3010
1000
0100
0010
0001
0000
,
0102
0000
0013
0001
0100
0010
1000
0000
,
1001
0000
0001
0100
1000
0100
0001
0010
,
0000
0011
0000
0101
0000
0100
0010
1000
,
1001
0000
0001
0100
0010
0001
0000
0011
,
0000
1010
0000
1100
0000
0100
0010
0001
,
1002
0000
1003
0010
0100
1000
0000
1100
,
0000
0101
0000
0011
0000
0001
1000
0010
,
0210
0000
0310
1000
0100
0010
0001
0000
,
0110
0000
0010
2002
0000
0000
3003
0000
,
1100
0000
0000
0000
0001
0000
0010
0001
0010
0000
0000
0000
0001
0000
0100
0000
,
0010
1000
0100
0001
0100
1000
0010
0000
,
0101
0000
0000
0000
1000
0000
0010
1000
0010
0000
0000
0000
1000
0000
0100
0000
,
0010
1000
0010
0001
0100
0100
0010
0000
,
0110
0000
0000
0000
0100
0000
0001
1000
0001
0000
0000
0000
0100
0000
0010
0000
,
1000
0100
1000
0001
0100
0001
0010
0000
,
0100
0000
0000
1000
0000
0000
0010
0000
0100
0000
0000
0001
0000
0000
0010
0000
,
0001
0001
1000
1000
0010
0000
0110
0000
,
2002
0000
0000
0000
0000
3003
0000
0100
,
0110
0000
0000
0000
0000
0000
0000
0010
,
0110
0000
0000
0000
1001
0000
0000
0100
,
0010
0000
0000
0110
0000
0000
0100
0000
2002
0000
3003
0000
0000
0000
0000
0000
,
1000
0100
0010
0001
,
0010
0100
1000
0000
,
0001
0100
0010
1000
,
0001
0001
0002
0000
,
0013
0100
1000
0001
,
0100
0010
1000
0000
,
0100
0100
0100
0000
,
0010
0000
1001
0000
,
0001
0100
0001
1000
,
0010
0100
0010
0000
,
1000
0001
0010
0100
,
1000
0001
0200
0000
,
0310
1000
0001
1000
,
0100
0010
0001
0000
,
1001
0000
0110
0000
,
2002
0000
3003
0000
,
1000
0100
1000
0010
,
1000
1000
0001
0010
,
0001
0100
0001
0010
,
0001
0001
0100
0010
,
1000
0100
1000
0010
,
1000
1000
0100
0010
,
0220
0000
0330
0000
,
0001
1000
0001
1000
0002
0000
0000
0000
,
0103
0001
0100
0010
,
0100
1000
0100
0010
,
0100
0001
0100
0010
,
0100
1000
0100
0000
,
0101
0000
0011
0000
,
1100
0000
1010
0000
,
1000
1000
0001
0001
,
0200
0000
0320
0000
,
1030
0000
0100
0000
0010
0100
0010
0000
,
0001
0000
0100
0000
0010
0100
0010
0000
,
1000
0001
0010
0001
,
1000
0010
0100
0000
,
0001
0000
0010
0000
0100
0010
0100
0000
,
1000
0000
0010
0000
0100
0010
0100
0000
,
0001
1000
0100
1000
,
0001
0100
1001
0000
,
1000
0000
0001
0000
0010
0001
0010
0000
,
0001
0000
1000
0000
0010
1000
0010
0000
,
0100
0001
1000
0100
,
1000
0001
0100
0000
,
0010
0010
1000
0001
,
0010
0010
0001
1000
,
0100
0000
0010
0000
,
0220
0330
2002
3003
,
1000
0100
1000
0000
0100
0000
0010
0000
,
0001
0100
0001
0000
0100
0000
0010
0000
,
1000
0001
1000
0000
0001
0000
0100
0000
,
1000
0100
0001
1000
,
0001
0010
0001
0000
0010
0000
0100
0000
,
1000
0010
1000
0000
0010
0000
0100
0000
,
0001
0001
1000
1000
,
0010
0110
1001
0000
,
1000
0100
1000
0000
0001
0000
0010
0000
,
0001
0100
0001
0000
1000
0000
0010
0000
,
0100
0010
0100
0000
0001
0000
0001
0000
,
1000
1000
0100
0010
,
0110
0000
1001
0000
,
1000
0010
0001
0010
,
0100
0100
1001
0000
,
0010
0010
0110
0000
,
2002
0000
0000
0000
,
0000
0000
0000
0000
,
0000
0000
0000
0000
,
0000
0000
0000
0000
,
3003
0000
0000
0000
;

//--------------- dance-single - forcednature ----------------
#NOTEDATA:;
#STEPSTYPE:dance-single;
#DESCRIPTION:forcednature;
#DIFFICULTY:Hard;
#METER:16;
#RADARVALUES:0,0,0,0,0;
#CREDIT:forcednature;
#NOTES:
0000
0000
0000
0000
,
0000
0000
0000
0000
,
0000
0000
0000
0000
,
0000
0000
0000
0000
,
0000
0000
0000
0000
,
2001
0000
3000
0000
1000
0100
0010
0001
2000
0000
3000
0000
0001
0100
0010
1000
,
0001
0000
0010
0100
0000
1000
0100
0000
0010
0001
1000
0001
0100
0000
0001
0000
,
1002
0000
0003
0000
0001
0100
0010
1000
0002
0000
0003
0000
1000
0100
0010
0001
,
1000
0000
0010
0100
0000
0001
0100
0000
0001
0010
0001
0000
1000
0010
1000
0000
,
2001
0000
3000
0000
1000
0010
0100
0001
2000
0000
3000
0000
0001
0010
0100
1000
,
0001
0000
0010
0100
0000
1000
0100
0000
0010
0001
1000
0001
0100
0000
0010
0000
,
0110
0000
0100
0001
0000
0001
0010
0000
0100
0000
1000
0010
0000
0010
0100
0000
,
0001
0010
0001
0010
0100
1000
0100
1000
0020
0000
0030
0000
0220
0000
0330
0000
,
2002
0000
0000
0000
3003
0000
0000
0000
0001
0000
0100
0000
1000
0000
0100
0001
,
0010
0000
0100
1000
0010
0000
0220
0000
0000
0000
0330
0000
0001
1000
0001
0000
,
2002
0000
3003
0000
1000
0000
0100
0000
0001
0000
0100
0000
0010
0001
0010
0000
,
0100
1000
0000
1000
0001
0000
0001
0100
0000
0100
0010
0000
1000
0001
0010
0000
,
1002
0000
0000
0000
1003
0100
1000
0000
0001
0000
0010
0000
1000
0000
0010
0001
,
0010
0000
0100
1000
0100
0000
0010
0001
0000
0001
0100
0000
0010
1000
0100
0010
,
0001
0000
1000
1002
0000
1003
0001
1000
,
0100
0010
0100
0010
0001
0000
1000
0010
0000
0010
0100
0000
0001
0010
0100
1000
,
0020
0000
0000
0000
0030
0000
0000
0000
0100
0000
1000
0000
0100
0000
0001
0100
,
0010
0000
1000
0100
0010
0000
2002
0000
0000
0000
3003
0000
0010
0000
0110
0000
,
2002
0000
3003
0000
0001
0100
0001
0000
1000
0000
0010
0100
0001
0000
1000
0000
,
0001
0010
0000
0010
0100
0000
0100
1000
0000
1000
0010
0000
0100
0001
1000
0100
,
0020
0000
0000
0000
0130
0000
1000
0000
0010
0000
0100
0000
0001
0010
0001
0000
,
1000
0100
0010
0000
0100
0000
1000
0001
0000
0001
0100
0010
1000
0100
0010
0001
,
0020
0000
0000
0000
0001
0000
0230
0000
1000
0000
0000
0000
0310
0001
1000
0010
,
0100
0000
0110
2002
0000
0000
3003
0000
,
1020
0000
0030
0000
0001
0100
0010
1000
0020
0000
0030
0000
1000
0100
0010
0001
,
0100
0000
0001
0010
0000
0100
0010
0000
0100
1000
0001
1000
0010
0000
0100
0000
,
1020
0000
0030
0000
1000
0100
0010
0001
0020
0000
0030
0000
0001
0100
0010
1000
,
0100
0000
1000
0010
0000
0100
0010
0000
0100
0001
1000
0000
0100
1000
0001
0000
,
0021
0000
0030
0000
0100
1000
0001
1000
0020
0000
0030
0000
0100
0001
1000
0001
,
0010
0000
0100
1000
0000
0001
1000
0000
0010
0100
0001
1000
0010
0000
0100
0000
,
0110
0000
0010
1000
0000
1000
0100
0000
0010
0000
0001
0100
0000
0100
0010
0000
,
1000
0001
1000
0010
0100
0001
1000
0001
0010
0000
0100
0000
0010
0100
1000
0000
,
2002
0000
0000
0000
0000
0000
3003
0110
,
2002
0000
3003
0000
0000
0000
0000
0110
,
2002
0000
3003
0000
2002
0000
3003
0110
,
1001
0000
0000
1001
0000
0000
0110
0000
2002
0000
3003
0000
0000
0000
0000
0000
,
1001
1000
0100
0010
,
0001
0101
0101
1000
,
0010
0000
1000
0100
0010
0001
0010
0000
,
0001
0000
1000
0000
0001
0100
0001
0100
,
0010
1000
0001
0010
,
0100
1100
1100
0001
,
1000
0010
0100
0001
0000
0001
0000
0001
,
1000
0000
0001
0010
0200
0000
0300
0000
,
1001
1000
0001
1000
,
0100
0011
0011
0001
,
1000
0000
0010
0100
0001
1000
0001
0000
,
0010
0000
0100
0000
1000
0010
1000
0010
,
0100
0001
0010
0001
,
1000
1010
1010
0001
,
0102
0000
0013
0000
0001
1000
0010
0000
,
1000
0001
1000
0001
0020
0000
0030
0000
,
1100
1001
0001
0101
,
0110
1010
1000
0100
,
1100
1001
0001
0011
,
0110
0000
1100
0000
0001
0000
1000
0100
,
0001
0100
1000
1100
,
1001
0101
0100
0010
,
2010
0000
0001
3001
,
2000
3200
0320
0032
0023
0000
0030
0000
,
0110
0000
0100
0000
1000
0000
0100
0001
,
0100
1000
0100
0000
0001
0000
0100
1000
,
0001
0000
0100
0000
1000
0000
0100
0001
,
0100
1000
0100
0000
0001
0000
1000
0100
,
0020
0031
0201
0310
,
1002
0013
2001
3010
,
1000
1100
0001
0101
,
0020
0030
2002
3003
,
2001
0000
3001
0000
1000
0100
0010
0001
,
2000
0000
3001
0000
1000
0100
0010
0001
,
0100
0001
1000
0010
0000
1000
0100
0010
,
0001
1000
0001
0010
0100
0000
1000
0001
,
2000
0000
3001
0000
1000
0010
0100
0001
,
2000
0000
3001
0000
1000
0010
0100
0001
,
0010
0100
0010
0001
0000
0100
0001
1000
,
0001
0100
0001
0010
0100
1000
0100
0000
,
1002
0000
1003
0000
0001
0010
0100
1000
,
0002
0000
1003
0000
0001
0010
0100
1000
,
0001
0100
0010
0100
0000
0010
1000
0001
,
1000
0100
0010
0001
1000
0000
0010
0100
,
0010
0000
1000
0100
0000
0010
0100
0000
,
1000
0001
0010
0001
0000
0100
0010
1000
,
0001
0000
1000
0000
,
0220
0330
2002
3003
,
0001
0100
0010
1000
0001
0100
0010
1000
,
0001
0010
0100
1000
0001
0010
0100
1000
,
0001
0100
0010
1000
0001
1000
0100
0010
,
0001
0100
0010
1000
0001
0000
0100
0010
,
1000
0001
1000
0100
0010
0001
0100
0010
,
1000
0001
1000
0010
0100
0001
0010
0100
,
0010
0000
0110
0000
1001
0000
0001
1000
,
0100
0010
0100
1000
0002
0000
0003
0000
,
1000
0100
1000
0010
0100
0001
0010
0001
,
1000
0010
1000
0100
0010
0001
0100
0001
,
1000
0100
0010
0001
0100
0010
1000
0100
,
0010
0001
0100
0010
1000
0100
0010
0001
,
0100
0010
1001
0100
,
1001
0000
0000
1000
0100
0010
0001
0000
0000
1000
0010
0100
,
0001
0010
2200
3300
,
1000
0010
0202
0303
,
2002
0000
0000
0000
,
0000
0000
0000
0000
,
0000
0000
0000
0000
,
0000
0000
0000
0000
,
3003
0000
0000
0000
;

//--------------- dance-single - forcednature ----------------
#NOTEDATA:;
#STEPSTYPE:dance-single;
#DESCRIPTION:forcednature;
#DIFFICULTY:Challenge;
#METER:18;
#RADARVALUES:0,0,0,0,0;
#CREDIT:forcednature;
#NOTES:
0000
0000
0000
0000
,
0000
0000
0000
0000
,
0000
0000
0000
0000
,
0000
0000
0000
0000
,
0000
0000
0000
0000
,
1002
0000
0003
0000
1000
0100
0010
0001
2000
0000
3000
0000
0001
0100
0010
1000
,
0001
0010
0100
0010
0000
0001
1000
0100
1000
0001
0100
0010
1000
0000
0001
0000
,
2001
0000
3000
0000
0001
0100
0010
1000
0002
0000
0003
0000
1000
0100
0010
0001
,
1000
0010
0100
0010
0000
1000
0001
0100
0010
1000
0100
1000
0001
0010
0100
0000
,
0120
0000
0030
0000
0010
0001
1000
0010
0200
0000
0300
0000
0010
1000
0001
0010
,
0100
1000
0001
1000
0000
0010
0100
0001
0010
0100
1000
0001
0100
0000
0110
0000
,
0010
1000
0100
1000
0000
0001
0010
0000
0001
0100
0010
1000
0000
0001
0010
0100
,
1000
0010
0100
0010
1000
0010
0100
0010
1000
0000
0100
0000
0001
0100
1000
0000
,
2002
0000
0000
0000
3003
0000
0000
0000
0001
0000
0010
0001
0010
0001
0010
0000
,
0100
1000
0100
0000
1000
0000
0010
1000
0010
0000
0100
0000
0001
1000
0001
0000
,
2002
0000
3003
0000
1000
0010
1000
0000
0010
0000
0100
0010
0100
0010
0100
0000
,
0001
0010
0000
0100
1000
0000
0001
0100
0000
1000
0100
0000
0010
1000
0001
0000
,
2002
0000
3003
0000
0001
0100
0001
0000
0010
0000
0001
0010
0001
0010
0001
0000
,
1000
0010
0100
0000
0001
0000
0010
0100
0001
0000
0100
0000
1000
0100
0010
0001
,
2000
0000
0000
0000
3010
0000
0001
0010
1000
0000
0100
0000
0010
0000
0001
0000
,
0100
0001
0010
0001
1000
0001
0010
0001
0100
0000
0110
0000
0010
1000
0001
0000
,
2002
0000
0000
0000
3003
0000
0000
0000
1000
0000
0010
1000
0010
1000
0010
0000
,
0100
0001
0100
0000
0001
0000
0010
0001
0010
0000
0100
0000
1000
0001
1000
0000
,
2002
0000
3003
0000
0001
0010
0001
0000
0100
0000
0010
0100
0010
0100
0010
0000
,
1000
0100
0000
0010
0001
0000
1000
0010
0000
0001
0010
0000
0100
0001
1000
0000
,
2002
0000
3003
0000
1000
0100
1000
0000
0010
0000
1000
0010
1000
0010
1000
0000
,
0001
0010
0100
0000
1000
0000
0010
0100
1000
0000
0100
0000
0001
0100
0010
1000
,
0002
0000
0000
0000
0013
0000
0100
0010
0001
0000
0100
0000
0010
1000
0001
0100
,
0010
0000
0100
0010
0100
0000
2002
0000
0000
0000
0000
0000
3003
0000
0000
0000
,
2010
0000
3000
0000
0001
0100
1000
0100
0020
0000
0030
0000
1000
0100
0001
0100
,
1000
0010
0100
0001
0000
0010
0100
0010
0001
0100
0010
1000
0100
0000
1100
0000
,
0012
0000
0003
0000
0001
0100
1000
0100
0020
0000
0030
0000
1000
0100
0001
0100
,
0010
0001
0100
0001
0000
0010
0100
1000
0010
0100
0001
0100
1000
0100
0001
0000
,
0102
0000
0003
0000
0001
0010
1000
0010
0200
0000
0300
0000
1000
0010
0001
0010
,
0100
0001
1000
0001
0000
0010
0100
1000
0010
0100
0001
1000
0100
0000
0110
0000
,
0010
0001
0100
0001
0000
0010
0100
0000
1000
0010
0100
0001
0000
0010
0100
1000
,
0001
0100
0010
0100
0001
0100
0010
0100
1000
0000
0100
0000
0001
0010
0100
0000
,
2002
0000
0000
0000
0000
0000
3003
0110
,
2002
0000
3003
0000
0000
0000
0000
0110
,
1001
0000
0000
0000
1001
0000
0000
0110
,
1001
0000
0000
0110
0000
0000
1001
1001
2002
0000
3003
0000
0000
0000
0000
0000
,
1100
1010
0110
0101
,
0001
1000
0100
1000
0200
0000
0301
0000
,
1100
0000
1000
0010
0100
0001
0010
0001
,
2000
0000
3020
0000
0031
0010
0001
0010
,
1000
1100
1001
0011
,
0001
0100
0010
1000
0020
0000
0001
0000
,
1030
0100
0100
1000
0000
0100
0010
0001
,
0100
0000
0000
0001
0010
0100
2000
0000
0000
3000
0000
0000
,
0101
0011
0110
1100
,
1000
0001
0100
0001
0200
0000
1300
0000
,
0101
0000
0001
0010
0100
1000
0010
1000
,
0002
0000
0023
0000
1030
0010
1000
0010
,
0001
0101
1001
1010
,
1000
0100
0010
0001
0020
0000
1000
0000
,
0032
0000
0100
0000
1003
1000
0200
0000
,
1300
0010
0100
0001
0020
0000
0030
0000
,
0100
1000
0100
1000
0001
1000
0100
0010
,
0001
1000
0010
1000
0001
0000
0010
0010
,
0100
1000
0100
1000
0001
1000
0100
0010
,
0001
0010
1000
0010
0002
0003
0001
0001
,
0100
0001
0100
0001
1000
0001
0100
0010
,
1000
0001
0010
0001
1000
0000
0010
0010
,
0200
0000
0000
0000
0301
0010
0100
0010
,
0001
0100
1000
0100
0002
0000
0003
0000
,
0010
1000
0010
0001
0100
0000
0010
0001
,
0010
1000
0100
0000
0010
0010
0001
0010
,
0100
0001
0100
1000
0010
0000
0100
1000
,
0100
0001
0010
0000
0100
0100
1000
0100
,
2100
3010
0102
0013
,
2100
3010
0102
0013
,
1100
1010
0011
0101
,
0001
0010
0100
1000
2020
0000
3030
0000
,
0010
0100
0010
1000
0100
0010
0001
1000
,
0010
0100
0010
1000
0100
0010
0001
1000
,
0010
0001
0010
0001
0010
1000
0100
0010
,
0001
0100
1000
0100
0002
0000
1003
1000
,
0010
0100
0010
1000
0100
0010
0001
1000
,
0010
0100
0010
1000
0100
0010
0001
1000
,
0100
0001
0100
1000
0000
0010
0100
0001
,
0010
0000
0000
0001
0000
0000
1000
0000
0000
0010
0000
0000
2001
0000
0000
0000
0000
0000
3001
0000
1000
0000
0001
0000
,
0010
0100
0010
0001
0100
0010
1000
0001
,
0010
0100
0010
0001
0100
0010
1000
0001
,
0010
1000
0010
1000
0010
0001
0100
0010
,
1000
0100
0001
0100
2000
0000
3001
0001
,
0010
0100
1000
0010
0100
0001
0010
0000
,
0100
1000
0001
1000
0100
0010
0001
1000
,
0020
0000
0000
0000
0100
0000
0000
1030
,
0001
0000
0000
0000
0000
0000
0001
0000
0010
0000
0100
0000
2000
0000
0000
0000
0000
0000
0000
0000
0000
3000
0000
0000
,
0001
0000
0000
0100
0000
0000
1000
0000
0000
0100
0000
0000
0001
0000
0010
0000
0100
0000
0010
0000
0100
0000
1000
0000
,
0001
0000
0000
0100
0000
0000
1000
0000
0000
0100
0000
0000
0001
0000
0010
0000
0100
0000
0010
0000
0100
0000
1000
0000
,
0001
0010
0100
0010
1000
0010
0001
0100
,
0010
1000
0100
0010
0001
1000
0010
1000
0001
0010
0100
1000
,
0001
0000
0000
0010
0000
0000
1000
0000
0000
0010
0000
0000
0001
0000
0100
0000
0010
0000
0100
0000
0010
0000
1000
0000
,
0001
0000
0000
0010
0000
0000
1000
0000
0000
0010
0000
0000
0001
0000
0100
0000
0010
0000
0100
0000
0010
0000
1000
0000
,
0100
0000
1100
0000
0110
0000
0010
0001
,
0011
0000
0000
0001
0010
0100
2000
0000
0000
0000
0000
0000
,
3001
0100
0010
0100
0001
1000
0100
0010
0001
0010
0100
1000
,
0010
0100
0001
0100
0010
1000
0001
0010
0001
1000
0100
0010
,
0001
1000
0010
1000
0001
0010
0100
1000
0001
0100
0001
1000
,
0010
0100
0001
0010
0100
1000
0010
0100
0001
0010
0100
1000
,
0010
0110
1001
0110
,
1001
0000
0000
0000
0001
1000
0001
1000
0100
0000
0000
0000
1000
0001
1000
0001
,
0010
0101
2020
3030
,
1100
1010
0202
0303
,
2002
0000
0000
0000
,
0000
0000
0000
0000
,
0000
0000
0000
0000
,
0003
0000
0000
0000
,
3000
0000
0000
0000
;

//--------------- dance-double - forcednature ----------------
#NOTEDATA:;
#STEPSTYPE:dance-double;
#DESCRIPTION:forcednature;
#DIFFICULTY:Easy;
#METER:9;
#RADARVALUES:0,0,0,0,0;
#CREDIT:forcednature;
#NOTES:
00000000
00000000
00000000
00000000
,
00000000
00000000
00000000
00000000
,
00000000
00000000
00000000
00000000
,
00000000
00000000
00000000
00000000
,
00000000
00000000
00000000
00000000
,
00011000
00000000
00011000
00000000
,
01000000
00010000
00100000
00000000
,
01100000
00000000
01100000
00000000
,
01000000
00010000
00001000
00000000
,
00011000
00000000
00011000
00000000
,
00010000
00000010
00001000
00000000
,
00000001
00001000
00000100
00000000
,
00000010
00000010
00000110
00000000
,
00001001
00000000
00001000
00000100
,
00010000
00001000
00100000
00000000
,
10010000
00000000
00010000
01000000
,
00001000
00010000
00000010
00000000
,
00001001
00000000
00000001
00000010
,
00000100
00010000
00001000
00000000
,
00100000
00001000
00011000
00000000
,
00000010
00010000
00011000
00000000
,
01000000
00010000
00100000
00010000
,
01000000
00001000
00011000
00000000
,
00000100
00001000
00000010
00001000
,
00000100
00010000
00011000
00000000
,
00100000
00010000
01000000
00001000
,
00010000
00001000
00011000
00000000
,
00000100
00001000
00000001
00000000
,
00000110
00000000
00000000
00002002
00000000
00000000
00003003
00000000
,
00000110
00000000
00001001
00000000
,
00000001
00000100
00001000
00010000
,
00011000
00000000
00011000
00000000
,
00001000
00010000
01000000
10000000
,
10010000
00000000
01100000
00000000
,
10000000
01000000
00010000
00001000
,
00100000
00010000
00100000
00001000
,
00010000
00000010
00000100
00000110
,
00002002
00000000
00000000
00000000
00000000
00003003
00000000
00000100
,
00000010
00000000
00000000
00000000
00000000
00000000
00000000
00000100
,
00000010
00000000
00000000
00000000
00000010
00000000
00000000
00000100
,
00000010
00000000
00000000
00000010
00000000
00000000
00000010
00000000
00000000
00000000
00000000
00000000
00000000
00000000
00000000
00000000
,
00000001
00000000
00000100
00000000
,
00000010
00000000
00001000
00000000
,
00000000
00000000
00000010
00000000
,
00010000
00000000
00001000
00000000
,
00100000
00000000
00010000
00000000
,
10000000
00000000
00100000
00000000
,
01000000
00100000
01000000
00000000
,
00100000
00000000
10010000
00000000
,
10000000
00000000
01000000
00000000
,
10000000
00000000
00010000
00000000
,
00000000
00000000
00100000
00000000
,
00001000
00000000
00010000
00000000
,
00000010
00000000
00001000
00000000
,
00000010
00000000
00000100
00000000
,
00000110
00000000
00001001
00000000
,
00000001
00001000
00000002
00000000
,
00000003
00000100
00000000
00000100
,
00000000
00000001
00000000
00000001
,
00000000
00000010
00000000
00000010
,
00000000
00000100
00000000
00000100
,
00000000
00010000
00000000
00010000
,
00000000
00001000
00000000
00001000
,
00200000
00000000
00300000
00000000
,
01000000
01000000
01000000
00000000
,
10000000
00000000
00010000
00000000
,
10000000
00010000
10000000
00000000
,
00010000
00000000
10000000
00000000
,
00010000
10000000
00010000
00000000
,
01000000
00000000
00001000
00000000
,
00010000
00000000
00000100
00000000
,
00000010
00000100
00000010
00000000
,
00000220
00000330
00002002
00003003
,
00000001
00000100
00000001
00000000
,
00001000
00000100
00001000
00000000
,
00000010
00000000
00010000
00000000
,
00001000
00000000
00000000
00000000
,
00010000
00001000
00010000
00000000
,
00001000
00010000
00001000
00000000
,
01000000
00000000
00010000
00000000
,
00100000
00000000
00000000
00000000
,
00010000
01000000
00010000
00000000
,
10000000
01000000
10000000
00000000
,
00100000
00000000
01000000
00000000
,
00010000
00000000
00000000
00000000
,
00100000
00000000
01000000
00000000
,
00010000
00000000
00001000
00000000
,
00011000
00000000
00011000
00000000
,
00000200
00000300
00000020
00000030
,
00000001
00000100
00000001
00000000
,
00000100
00000010
00000100
00000000
,
00000010
00001000
00000010
00000000
,
00010000
00000000
00001000
00000000
,
00100000
00010000
00100000
00000000
,
01000000
00100000
01000000
00000000
,
10000000
01000000
10000000
00000000
,
00100000
00000000
10010000
00000000
,
00010000
01000000
00010000
00000000
,
01000000
00001000
01000000
00000000
,
00001000
00010000
00001000
00000000
,
00010000
00000100
00010000
00000000
,
00000100
00000000
00001001
00000000
,
00000010
00000000
00001001
00000000
,
00001000
00000000
00000220
00000330
,
00000001
00000000
00000220
00000330
,
00002002
00000000
00000000
00000000
,
00000000
00000000
00000000
00000000
,
00000000
00000000
00000000
00000000
,
00000000
00000000
00000000
00000000
,
00003003
00000000
00000000
00000000
;

//--------------- dance-double - forcednature ----------------
#NOTEDATA:;
#STEPSTYPE:dance-double;
#DESCRIPTION:forcednature;
#DIFFICULTY:Medium;
#METER:13;
#RADARVALUES:0,0,0,0,0;
#CREDIT:forcednature;
#NOTES:
00000000
00000000
00000000
00000000
,
00000000
00000000
00000000
00000000
,
00000000
00000000
00000000
00000000
,
00000000
00000000
00000000
00000000
,
00000000
00000000
00000000
00000000
,
00011000
00000000
00010000
01000000
10000000
00000000
10000000
00010000
,
00100000
01000000
00010000
00001000
00000010
00000100
00001000
00000000
,
00001001
00000000
00000001
00000100
00001000
00000000
00001000
00000100
,
00000001
00000010
00000100
00010000
00001000
00100000
01000000
00000000
,
10010000
00000000
10000000
01000000
00010000
00000000
00010000
01000000
,
00100000
00001000
00010000
00000100
00001000
00000010
00000001
00000000
,
00000010
00000000
00000000
00001000
00000000
00000000
00000010
00000000
00010000
00000000
00000000
00001000
00000000
00000000
00010000
00000000
,
00000100
00000100
00000100
00000000
00000110
00000000
00001001
00000000
,
00001200
00000000
00000310
00000100
00001000
00000001
00000100
00001000
,
00000000
00011000
00000000
00101000
00000000
00100000
00010000
01000000
,
00200000
00000000
10300000
01000000
00010000
00001000
00000000
00011000
,
00000000
00101000
00000000
00110000
00000000
00010000
01000000
10000000
,
02000000
00000000
03100000
10000000
01000000
00100000
00000000
00110000
,
00000000
00101000
00000000
00011000
00000000
00010000
00000010
00001000
,
00000100
00000000
00000010
00002000
00000000
00003010
00000100
00001000
,
00000010
00000000
00000010
00000002
00000000
00000013
00001000
00000001
,
00001001
00000000
00000001
00000010
00000100
00010000
00001000
00011000
,
00000000
00010010
00000000
00001010
00000000
00001000
00000100
00000001
,
00000200
00000000
00000310
00000001
00000100
00001000
00000000
00011000
,
00000000
01001000
00000000
01010000
00000000
00010000
00100000
01000000
,
00020000
00000000
00031000
00100000
00010000
01000000
00000000
01100000
,
00000000
10100000
00000000
11000000
00000000
01000000
00010000
00001000
,
00000020
00000000
00000130
00001001
00000000
00000100
00001000
00010000
,
00200000
00000000
01300000
20020000
00000000
00000000
30030000
00000000
,
11000000
00000000
01000000
00010000
00011000
00000000
00001000
00000010
,
00000001
00000100
00001000
00000100
00000001
00000010
00001000
00000000
,
00011000
00000000
00010000
00100000
01100000
00000000
01000000
00001000
,
00010000
01000000
00100000
00010000
00001000
00000100
00000110
00000000
,
00000011
00000000
00000001
00000100
00001100
00000000
00001000
00010000
,
00000100
00000010
00001000
00010000
00001000
00100000
00010000
00010000
,
01000000
00000000
00000000
00001000
00000000
00000000
00100000
00000000
00010000
00000000
00000000
01000000
00000000
00000000
00001000
00000000
,
00010000
00010000
00001000
00001000
00000010
00000000
00000110
00000000
,
00002002
00000000
00000000
00000000
00000000
00003003
00000000
00000001
,
00001000
00000000
00000000
00000000
00000000
00000000
00000000
00001000
,
00010000
00000000
00000000
00000000
01100000
00000000
00000000
10000000
,
01000000
00000000
00000000
00010000
00000000
00000000
00001000
00000000
00022000
00000000
00033000
00000000
00000000
00000000
00000000
00000000
,
00010000
00001000
00000010
00000001
,
00000100
00000001
00000010
00000000
,
00000100
00010000
00001000
00000000
,
01000000
01000000
02000000
00000000
,
03100000
10000000
01000000
00010000
,
01000000
00100000
00001000
00000000
,
00010000
00010000
00010000
00000000
,
00011000
00000000
00000110
00000000
,
00000001
00000100
00001000
00000100
,
00000001
00000010
00001000
00000000
,
00010000
01000000
00100000
00000000
,
00010000
00010000
00020000
00000000
,
10030000
00100000
00010000
00100000
,
01000000
00001000
00010000
00000000
,
00011000
00000000
00011000
00000000
,
00010000
00001000
00000020
00000000
,
00000130
00001000
00000100
00000010
,
00000100
00001000
00000100
00010000
,
00001000
00010000
00001000
01000000
,
00010000
01000000
00200000
00000000
,
10300000
01000000
10000000
00010000
,
01000000
00010000
00100000
00000000
,
00022000
00000000
00033000
00000000
,
00000100
00000100
00002000
00000000
,
00003001
00000100
00001000
00000100
,
00000001
00000100
00001000
00010000
,
01000000
10000000
01000000
00010000
,
01000000
10000000
01000000
00000000
,
01100000
00000000
00101000
00000000
,
00010010
00000000
00000110
00000000
,
00000001
00000001
00001000
00001000
,
00000020
00000000
00000230
00000000
,
00000301
00000010
00000100
00010000
,
00001000
00100000
01000000
10000000
,
00100000
01000000
10000000
01000000
,
00010000
00100000
01000000
00000000
,
00010000
00001000
00000010
00000100
,
00010000
00001000
00000100
00000010
,
00001000
00000001
00000010
00000001
,
00000100
00001000
00011000
00000000
,
00010000
00100000
01000000
00001000
,
00010000
01000000
00100000
00001000
,
00010000
00000100
00001000
00000010
,
00010000
00001000
00000010
00000000
,
00000100
00000000
00000000
00010000
00000000
00000000
00001000
00000000
,
00100000
00000000
00000000
00010000
00000000
00000000
01000000
00000000
,
00100000
00000000
10010000
00000000
,
02200000
03300000
00022000
00033000
,
00001000
00000000
00010000
00000000
00001000
00010000
00001000
00000000
,
00010000
00000000
00000100
00000000
00001000
00000100
00001000
00000000
,
00000001
00000100
00001000
00000100
,
00000001
00000010
00001000
00010000
,
01000000
00000000
00100000
00000000
00010000
00100000
00010000
00000000
,
01000000
00000000
00100000
00000000
10000000
00100000
10000000
00000000
,
01000000
00010000
00001000
00000010
,
00000100
00000110
00002002
00003003
,
00000001
00000000
00000100
00000000
00000010
00001000
00000010
00000000
,
00001000
00000000
00000100
00000000
00000010
00000001
00000010
00000000
,
00000001
00000100
00001000
00010000
,
01000000
10000000
00100000
01000000
,
01100000
00000000
10010000
00000000
,
10000000
02000000
03010000
00002000
,
00003010
00000100
00000220
00000330
,
00010000
00001000
00022000
00033000
,
02200000
00000000
00000000
00000000
,
00000000
00000000
00000000
00000000
,
00000000
00000000
00000000
00000000
,
00000000
00000000
00000000
00000000
,
03300000
00000000
00000000
00000000
;

//--------------- dance-double - forcednature ----------------
#NOTEDATA:;
#STEPSTYPE:dance-double;
#DESCRIPTION:forcednature;
#DIFFICULTY:Hard;
#METER:16;
#RADARVALUES:0,0,0,0,0;
#CREDIT:forcednature;
#NOTES:
00000000
00000000
00000000
00000000
,
00000000
00000000
00000000
00000000
,
00000000
00000000
00000000
00000000
,
00000000
00000000
00000000
00000000
,
00000000
00000000
00000000
00000000
,
00001000
00000000
00010000
00000000
00100000
01000000
00010000
01000000
00100000
00000000
10000000
00000000
01000000
00100000
00010000
00100000
,
01000000
00000000
00100000
00001000
00000000
00010000
00001000
00000000
00000010
00000100
00000010
00000000
00000001
00000000
00001000
00000000
,
00000010
00000000
00000100
00000000
00001000
00010000
00000100
00010000
00001000
00000000
00000010
00000000
00001000
00010000
00000010
00010000
,
00001000
00000000
00100000
00010000
00000000
00010000
01000000
00000000
00001000
00100000
00001000
00000000
00100000
00010000
00100000
00000000
,
01000000
00000000
00010000
00000000
00001000
00100000
00010000
00100000
00001000
00000000
00010000
00000000
00001000
01000000
00010000
01000000
,
00001000
00000000
00100000
00001000
00000000
00010000
00001000
00000000
00000100
00000010
00000100
00000000
00000001
00000000
00000010
00000000
,
00000100
00000000
00000100
00010000
00000000
00010000
00001000
00000000
01000000
00000000
00010000
00100000
00000000
00010000
01000000
00000000
,
00100000
10000000
00010000
10000000
01000000
10000000
00010000
10000000
00200000
00000000
00000000
00000000
00320000
00000000
00000000
00000000
,
00031000
00000000
00010000
00000000
00000100
00000000
00001000
00000000
00000010
00000000
00000100
00000000
00001000
00000000
00000100
00000001
,
00000100
00000000
00000001
00000010
00000001
00000000
00001000
00000010
00001000
00000000
00000100
00000000
00010000
00000000
00001000
00000000
,
00100000
00000000
00010000
00000000
10000000
00100000
10000000
00000000
01000000
00000000
00010000
00000000
00001000
00000000
00000010
00000000
,
00000100
00001000
00000000
00001000
00000001
00000000
00000001
00000100
00000000
00000100
00000010
00000000
00001000
00000100
00010000
00000000
,
00011000
00000000
00001000
00000000
01000000
00000000
00010000
00000000
00100000
00000000
01000000
00000000
00010000
00000000
00001000
00100000
,
00001000
00000000
00100000
00010000
00100000
00000000
01000000
00100000
01000000
00000000
00010000
00000000
00000100
00000000
00001000
00000100
,
00000010
00000001
00001000
00001020
00000000
00000031
00000010
00001000
,
00000100
00000010
00000000
00000010
00001000
00000000
00001000
00010000
00000000
00010000
01000000
00000000
00100000
00000000
01100000
00000000
,
10000000
00000000
00010000
00000000
10000000
00000000
01000000
00000000
00010000
00000000
00001000
00000000
01000000
00000000
00010000
00100000
,
00010000
00000000
00100000
00001000
00100000
00000000
00001000
00010000
00001000
00000000
00000010
00000000
00000100
00000010
00000001
00000000
,
00001000
00000000
00000010
00000000
00000100
00000001
00000100
00000000
00000010
00000000
00001000
00000000
00100000
00000000
01000000
00000000
,
00010000
00100000
00000000
00100000
00001000
00000000
00001000
01000000
00000000
01000000
00010000
00000000
00100000
01000000
10000000
00000000
,
01000000
00000000
00010000
00000000
00001000
00000000
00000010
00000000
00000100
00000000
00010000
00000000
00001000
00000000
00000100
00000010
,
00000100
00000000
00000010
00001000
00000010
00000000
00010000
00001000
00010000
00000000
00100000
00000000
01000000
00010000
10000000
00010000
,
00100000
00000000
01000000
00000000
00010000
00000000
00002000
00000000
00000000
00000000
00003010
00000000
00000100
00001000
00000001
00001000
,
00000010
00000000
00000110
00002002
00000000
00000000
00003003
00000000
,
00000001
00000000
00000100
00000000
00000010
00001000
00000010
00010000
00001000
00000000
00000100
00000000
00001000
00000010
00010000
00001000
,
00010000
00000000
00000010
00001000
00000000
00000100
00010000
00000000
00001000
01000000
00001000
00000000
00010000
00000000
00100000
00000000
,
01000000
00000000
00001000
00000000
00100000
00010000
01000000
00010000
00100000
00000000
00001000
00000000
01000000
00010000
00100000
00010000
,
01000000
00000000
00100000
10000000
00000000
10000000
01000000
00000000
00100000
00010000
00100000
00000000
00001000
00010000
00001000
00000000
,
00000100
00000000
00000001
00000000
00000010
00000100
00001000
00000100
00010000
00000000
00001000
00000000
00000100
00000010
00001000
00000010
,
00010000
00000000
00001000
00000010
00000000
00000100
00000010
00000000
00000100
00001000
00000100
00000000
00010000
00000000
00001000
00000000
,
01000000
00000000
00001000
00010000
00000000
00001000
00100000
00000000
00010000
00100000
01000000
00100000
00000000
00010000
00100000
00001000
,
00010000
00001000
00010000
00000010
00001000
00000010
00000100
00000001
00001000
00000000
00001000
00000000
00000001
00000010
00000100
00000000
,
00002002
00000000
00000000
00000000
00000000
00000000
00000000
00000000
00000000
00000000
00000000
00003003
00000000
00000000
00000001
00000000
,
00001000
00000000
00000000
00000000
00000000
00000000
00000000
00010000
,
10000000
00000000
00000000
00000000
10010000
00000000
00000000
10000000
,
00010000
00000000
00000000
00001000
00000000
00000000
00000001
00000000
00000020
00000000
00000030
00000000
00000000
00000000
00000000
00000000
,
00000001
00000100
00001000
00010000
,
01000000
10000000
00100000
10000000
,
01000000
00000000
00010000
00000000
00001000
00100000
00010000
00000000
,
01000000
00000000
00010000
00000000
00100000
01000000
10000000
01000000
,
00100000
01000000
00010000
00000100
,
00001000
00000010
00000100
00000010
,
00001000
00000001
00000010
00000001
00000000
00000010
00000000
00000100
,
00001000
00000000
00000010
00010000
00002000
00000000
00000000
00000000
,
00103000
00010000
01000000
10000000
,
01000000
00001000
00100000
01000000
,
00010000
00000000
00000100
00000000
00001000
00000001
00000010
00000000
,
00000001
00000000
00000100
00000000
00000010
00001000
00000001
00001000
,
00000100
00000001
00000100
00010000
,
00001000
00100000
00010000
01000000
,
10000000
00000000
01000000
00000000
00010000
01000000
00001000
00000000
,
00100000
00001000
00010000
00001000
02000000
00000000
00000000
00000000
,
03010000
00100000
01000000
00010000
,
00000100
00001000
00000010
00000100
,
00001000
01000000
00010000
00100000
,
01000000
00000000
00010000
00000000
00000100
00000000
00001000
00000001
,
00000010
00000001
00000100
00001000
,
00010000
01000000
10000000
00100000
,
20010000
00000000
00100000
30100000
,
10000000
01000000
00100000
00010000
02000000
00000000
00000000
00000000
,
13000000
00000000
01000000
00000000
00001000
00000000
00010000
00000010
,
00001000
00000000
00000001
00000000
00000010
00000000
00000100
00010000
,
00001000
00000000
00000010
00000000
00000001
00000000
00000100
00001000
,
00010000
00100000
01000000
00000000
,
20020000
30030000
00022000
00033000
,
00002002
00003003
00022000
00033000
,
10000000
01000000
00010000
00001000
,
00000200
00000000
00000302
00000000
,
00000013
00000000
00000100
00000000
00001000
00000100
00010000
00001000
,
00010000
00000000
00000010
00000000
00001000
00000010
00000100
00000001
,
00000100
00000000
00001000
00010000
00000000
00001000
00100000
00000000
,
00010000
00100000
01000000
10000000
01000000
00000000
00010000
00000000
,
00001000
00000000
00100000
00000000
00001000
00010000
00000010
00001000
,
00000010
00000000
00010000
00000000
00001000
00100000
00010000
00100000
,
00001000
00010000
00001000
01000000
00000000
01000000
00010000
10000000
,
00010000
00100000
01000000
00010000
00002000
00000000
00003000
00000000
,
00010000
00000000
00000100
00000000
00001000
00000100
00001000
00000001
,
00000010
00000000
00000100
00000000
00001000
00000100
00010000
00001000
,
00010000
00000000
00001000
01000000
00000000
00010000
01000000
00000000
,
00100000
10000000
00010000
10000000
01000000
00000000
00100000
01000000
,
00100000
00000000
00010000
00100000
00000000
00001000
00010000
00000000
,
00000010
00001000
00000010
00000100
00000000
00000001
00000010
00000001
,
00002000
00003000
00020000
00030000
,
02200000
03300000
20020000
30030000
,
10000000
00010000
00100000
00010000
00100000
00001000
00010000
00000000
,
00000010
00001000
00000010
00000100
00000001
00000100
00000010
00000000
,
00001000
00000100
00010000
00000000
00001000
00010000
00000100
00000000
,
00001000
00000001
00001000
00000001
00000100
00000000
00000010
00000000
,
00001000
00000100
00010000
00001000
00010000
00000100
00001000
00000000
,
00000010
00010000
00001000
00010000
00001000
01000000
00010000
00000000
,
00110000
00000000
01100000
00000000
11000000
00000000
10000000
01000000
,
00010000
00000000
01000000
00010000
00002000
00000000
00003000
00000000
,
00000010
00000100
00000010
00000100
00001000
00000100
00001000
00000100
,
00010000
00001000
00010000
00001000
01000000
00010000
01000000
00010000
,
10000000
01000000
10000000
00010000
01000000
00010000
00100000
00001000
,
00010000
00001000
00010000
00000010
00001000
00000010
00000100
00000001
,
00000100
00000010
00001001
00000100
,
00001001
00000000
00000001
00000100
00001000
00000000
00000100
00001000
,
00010000
00100000
02200000
03300000
,
10000000
01000000
00020000
00030000
,
00022000
00000000
00000000
00000000
,
00000000
00000000
00000000
00000000
,
00000000
00000000
00000000
00000000
,
00000000
00000000
00000000
00000000
,
00033000
00000000
00000000
00000000
;

//--------------- dance-double - forcednature ----------------
#NOTEDATA:;
#STEPSTYPE:dance-double;
#DESCRIPTION:forcednature;
#DIFFICULTY:Challenge;
#METER:18;
#RADARVALUES:0,0,0,0,0;
#CREDIT:forcednature;
#NOTES:
00000000
00000000
00000000
00000000
,
00000000
00000000
00000000
00000000
,
00000000
00000000
00000000
00000000
,
00000000
00000000
00000000
00000000
,
00000000
00000000
00000000
00000000
,
00021000
00000000
00030000
00000000
00100000
10000000
01000000
00010000
00002000
00000000
00003000
00000000
00000010
00000001
00000100
00001000
,
00010000
00001000
00010000
00100000
00000000
01000000
00010000
10000000
01000000
00100000
00010000
01000000
00001000
00000000
00010000
00000000
,
00012000
00000000
00003000
00000000
00000010
00000001
00000100
00001000
00020000
00000000
00030000
00000000
00100000
10000000
01000000
00010000
,
00001000
00010000
00001000
00000010
00000000
00000100
00001000
00000001
00000100
00001000
00010000
00001000
01000000
00010000
00100000
00000000
,
00012000
00000000
00003000
00000000
00000100
00000001
00000010
00001000
00020000
00000000
00030000
00000000
01000000
10000000
00100000
00010000
,
00001000
00010000
00001000
00000100
00000000
00000001
00000010
00000100
00001000
00000010
00010000
00001000
00010000
00000000
00011000
00000000
,
00001000
00100000
00010000
00100000
00000000
01000000
10000000
00000000
00100000
01000000
00100000
10000000
00000000
01000000
00010000
00001000
,
00000010
00000100
00000010
00000001
00000010
00000100
00000010
00000001
00000100
00000000
00001000
00000000
00010000
00100000
10000000
00000000
,
20020000
00000000
00000000
00000000
30030000
00000000
00000000
00000000
00010000
00000000
00100000
00010000
00100000
01000000
00100000
00000000
,
00001000
00010000
00001000
00000000
00000010
00000000
00000100
00001000
00000001
00000000
00000100
00000000
00001000
00010000
00001000
00000000
,
00022000
00000000
00033000
00000000
00010000
00100000
00010000
00000000
00100000
00000000
10000000
00100000
01000000
00010000
10000000
00000000
,
01000000
00010000
00000000
00001000
00010000
00000000
00001000
00000010
00000000
00000001
00000100
00000000
00000010
00010000
00001000
00000000
,
00022000
00000000
00033000
00000000
00001000
00000100
00001000
00000000
00000100
00000000
00000001
00001000
00000010
00000100
00000001
00000000
,
00000010
00000100
00010000
00000000
00001000
00000000
00100000
01000000
10000000
00000000
00100000
00000000
01000000
00001000
00010000
00001000
,
00200000
00000000
00000000
00000000
01300000
00000000
00100000
00010000
01000000
00000000
00001000
00000000
00010000
00000000
00000010
00000000
,
00001000
00000100
00000010
00000100
00000001
00000100
00000010
00000100
00010000
00000000
00011000
00000000
00001000
00100000
01000000
00000000
,
20020000
00000000
00000000
00000000
30030000
00000000
00000000
00000000
10000000
00000000
00100000
10000000
01000000
10000000
00100000
00000000
,
01000000
00010000
01000000
00000000
00001000
00000000
01000000
00010000
00100000
00000000
00001000
00000000
00000010
00000100
00000010
00000000
,
00000220
00000000
00000330
00000000
00000100
00001000
00000001
00000000
00000100
00000000
00001000
00010000
00001000
00010000
00001000
00000000
,
01000000
00010000
00000000
00100000
01000000
00000000
10000000
00100000
00000000
00010000
00001000
00000000
00000100
00000001
00000010
00000000
,
00000220
00000000
00000330
00000000
00000100
00001000
00000100
00000000
00010000
00000000
00001000
00000010
00000001
00000010
00001000
00000000
,
00010000
00000100
00010000
00000000
00001000
00000000
00100000
00010000
01000000
00000000
00100000
00000000
10000000
01000000
00100000
00010000
,
02000000
00000000
00000000
00000000
03100000
00000000
01000000
00100000
00010000
00000000
00001000
00000000
00000100
00000010
00000100
00000001
,
00000010
00000000
00000100
00001000
00000010
00000000
00002020
00000000
00000000
00000000
00000000
00000000
00003030
00000000
00000000
00000000
,
00021000
00000000
00030000
00000000
00100000
10000000
01000000
00010000
00002000
00000000
00003000
00000000
00000010
00000001
00000100
00001000
,
00010000
00001000
00010000
00100000
00000000
10000000
01000000
00100000
00010000
01000000
10000000
01000000
00010000
00000000
01010000
00000000
,
00012000
00000000
00003000
00000000
00000100
00000001
00000010
00001000
00020000
00000000
00030000
00000000
01000000
10000000
00100000
00010000
,
00001000
00010000
00001000
00000100
00000000
00000001
00000010
00000100
00001000
00000010
00000100
00000010
00001000
00000100
00010000
00000000
,
00012000
00000000
00003000
00000000
00000010
00000001
00000100
00001000
00020000
00000000
00030000
00000000
00100000
10000000
01000000
00010000
,
00001000
00010000
00001000
00000010
00000000
00000100
00001000
00000001
00000100
00000010
00010000
00001000
01000000
00000000
01100000
00000000
,
00100000
10000000
01000000
10000000
00000000
01000000
00010000
00000000
00001000
00010000
00001000
00000010
00000000
00000001
00000100
00000010
,
00010000
00001000
00010000
00000100
00010000
00001000
00010000
00100000
10000000
00000000
00100000
00000000
01000000
00010000
00100000
00000000
,
02200000
00000000
00000000
00000000
00000000
00000000
03300000
00011000
,
00022000
00000000
00033000
00000000
00000000
00000000
00000000
00000110
,
00000110
00000000
00000000
00000000
00011000
00000000
00000000
01100000
,
00011000
00000000
00000000
00000110
00000000
00000000
00011000
00011000
00022000
00000000
00033000
00000000
00000000
00000000
00000000
00000000
,
01001000
01010000
00110000
01100000
,
01000000
10000000
01000000
00010000
02000000
00000000
03100000
00000000
,
00110000
00000000
00010000
00001000
00000100
00000010
00000100
00010000
,
00002000
00000000
00003020
00000000
00000031
00000100
00001000
00000100
,
00000001
00000011
00000110
00001100
,
00001000
00000010
00010000
00001000
00200000
00000000
01000000
00000000
,
00310000
01000000
01000000
10000000
00000000
01000000
00010000
00100000
,
00001000
00000000
00000000
00010000
00001000
00010000
00000020
00000000
00000000
00000030
00000000
00000000
,
00001010
00001100
00010010
00001010
,
00001000
00000100
00000001
00000100
00002000
00000000
00003010
00000000
,
00011000
00000000
00010000
00100000
10000000
00100000
01000000
00010000
,
00200000
00000000
02300000
00000000
13000000
01000000
00010000
01000000
,
10000000
00110000
00011000
00001010
,
00000010
00000100
00000001
00000010
00000200
00000000
00001000
00000000
,
00020300
00000000
00000010
00000000
00031000
00001000
00200000
00000000
,
01300000
10000000
00100000
01000000
00020000
00000000
00030000
00000000
,
00100000
01000000
00100000
01000000
10000000
01000000
00100000
00010000
,
01000000
00001000
00010000
00001000
00010000
00000000
00001000
00010000
,
00001000
00000010
00001000
00000010
00000001
00000010
00000100
00001000
,
00000001
00000100
00001000
00010000
00002000
00003000
00010000
00010000
,
00001000
00100000
00001000
00100000
00010000
01000000
00100000
10000000
,
01000000
00010000
00001000
00100000
00001000
00000000
00010000
00010000
,
00000200
00000000
00000000
00000000
00000310
00000001
00000100
00000001
,
00000010
00000100
00010000
00001000
00200000
00000000
00300000
00000000
,
00001000
00010000
00100000
10000000
00100000
00000000
00010000
00001000
,
00000010
00000001
00000010
00000000
00001000
00001000
00010000
00001000
,
00010000
01000000
10000000
01000000
00010000
00000000
00001000
00000100
,
00000001
00000100
00001000
00000000
00010000
00010000
00001000
00010000
,
00012000
00003010
00021000
00130000
,
00012000
00003100
00021000
01030000
,
01100000
00101000
00010100
00000110
,
00000010
00000001
00000100
00000010
00002002
00000000
00003003
00000000
,
00000001
00000100
00000010
00010000
00001000
00010000
00000100
00001000
,
00000010
00010000
00001000
00100000
00010000
01000000
00100000
10000000
,
01000000
00010000
01000000
00010000
00001000
00100000
00001000
00010000
,
00000100
00010000
00001000
00000100
00000002
00000000
00000013
00000010
,
00000001
00000100
00000010
00010000
00001000
00010000
00100000
01000000
,
00100000
10000000
01000000
00100000
01000000
00010000
00001000
00010000
,
00000010
00000100
00001000
00010000
00000000
00001000
00000100
00000001
,
00000010
00000000
00000000
00000100
00000000
00000000
00001000
00000000
00000000
00000010
00000000
00000000
00020000
00000000
00000000
00000000
00000000
00000000
00031000
00000000
00010000
00000000
00001000
00000000
,
00100000
00010000
01000000
00100000
10000000
01000000
00010000
00001000
,
00100000
00010000
10000000
00100000
01000000
00001000
00010000
00001000
,
00000010
00000100
00000010
00000100
00001000
00000001
00000100
00001000
,
00010000
00001000
00000100
00000001
00000020
00000000
00000130
00000100
,
00001000
00000010
00010000
00001000
01000000
00010000
00100000
00000000
,
01000000
10000000
00010000
10000000
01000000
00010000
00001000
00000000
,
00200000
00000000
00000000
00000000
01000000
00000000
00000000
00301000
,
00010000
00000000
00000000
00000000
00000000
00000000
00001000
00000000
00010000
00000000
00001000
00000000
00000020
00000000
00000000
00000000
00000000
00000000
00000000
00000000
00000000
00000030
00000000
00000000
,
00000001
00000100
00001000
00010000
00000010
00001000
00000100
00000010
,
00000001
00000100
00001000
00010000
00000010
00000100
00001000
00010000
,
00100000
01000000
00100000
10000000
01000000
00100000
01000000
00010000
,
00001000
00000000
00000000
00010000
00000000
00000000
01000000
00000000
00000000
10000000
00000000
00000000
00010000
00000000
00000000
00100000
00000000
00000000
00010000
00000000
01000000
00000000
00010000
00000000
,
10000000
01000000
00010000
00001000
00100000
00010000
01000000
00100000
,
10000000
01000000
00010000
00001000
00100000
01000000
00010000
00001000
,
00011000
00000000
00101000
00000000
00010010
00000000
00010000
00010000
,
00001000
00000000
00000000
00000000
00000000
00000000
00000010
00000000
00000100
00000000
00000010
00000000
00000002
00000000
00000000
00000000
00000000
00000000
00000000
00000000
00000000
00000003
00000000
00000000
,
00000100
00001000
00010000
00100000
01000000
00100000
00010000
00001000
,
00010000
00100000
00010000
00001000
00000100
00000010
00000100
00001000
,
00010000
01000000
10000000
00100000
10000000
01000000
00010000
00001000
,
00000100
00000000
00000000
00000001
00000000
00000000
00000010
00000000
00000000
00001000
00000000
00000000
00010000
00000000
00000000
00000100
00000000
00000000
00010000
00000000
00001000
00000000
00100000
00000000
,
00001000
00011000
01001000
00011000
,
00101000
00000000
00000000
00001000
00010000
00001000
00010000
00000000
00000000
01000000
00010000
00001000
,
00010000
00011000
00002020
00003030
,
00001100
00011000
00220000
00330000
,
02002000
00000000
00000000
00000000
,
00000000
00000000
00000000
00000000
,
00000000
00000000
00000000
00000000
,
03000000
00000000
00000000
00000000
,
00003000
00000000
00000000
00000000
;
