#VERSION:0.83;
#TITLE:FIRE VOLCANO;
#SUBTITLE:;
#ARTIST:SOUND HOLIC feat. Nana Takahashi;
#TITLETRANSLIT:;
#SUBTITLETRANSLIT:;
#ARTISTTRANSLIT:;
#GENRE:;
#CREDIT:;
#MUSIC:FIRE VOLCANO.ogg;
#BANNER:FIRE VOLCANO.png;
#BACKGROUND:FIRE VOLCANO-bg.png;
#CDTITLE:./CDTitles/DANCE aROUND.png;
#SAMPLESTART:45.037;
#SAMPLELENGTH:15.000;
#SELECTABLE:YES;
#OFFSET:1.382;
#BPMS:0.000=155.000;
#STOPS:211.500=1.161;
#TIMESIGNATURES:0.000=4=4,
208.000=5=4,
213.000=4=4
;
#BGCHANGES:0.000=../BGAs/19po.mp4=1.000=0=0=0=StretchNoLoop====,
99999.000=-nosongbg-=1.000=0=0=0=StretchNoLoop====
;
#FGCHANGES:;

//--------------- dance-single - forcednature ----------------
#NOTEDATA:;
#STEPSTYPE:dance-single;
#DESCRIPTION:forcednature;
#DIFFICULTY:Beginner;
#METER:1;
#RADARVALUES:0,0,0,0,0;
#CREDIT:forcednature;
#NOTES:
0000
0000
0000
0000
,
0000
0000
0000
0000
,
0000
0000
0000
0000
,
0000
0000
0000
0000
,
0000
0000
0000
0000
,
0001
0000
0000
0000
,
0000
0000
0000
0000
,
0000
0000
0000
0000
,
0000
0000
0000
0000
,
1000
0000
0000
0000
,
0000
0000
0000
0000
,
0000
0000
0000
0000
,
0000
0000
0000
0000
,
0010
0000
0000
0000
,
0000
0000
0000
0000
,
0000
0000
0000
0000
,
0000
0000
0000
0000
,
0100
0000
0000
0000
,
0000
0000
0000
0000
,
0000
0000
0000
0000
,
0000
0000
0000
0000
,
0001
0000
0000
0000
,
0000
0000
0000
0000
,
0000
0000
0000
0000
,
0000
0000
0000
0000
,
1000
0000
0000
0000
,
0000
0000
0000
0000
,
0000
0000
0000
0000
,
0000
0000
0000
0000
,
0000
0000
0000
0000
,
1001
0000
0000
0000
,
0000
0000
0000
0000
,
0001
0000
0000
0000
,
0000
0000
0000
0000
,
1001
0000
0000
0000
,
0000
0000
0000
0000
,
0010
0000
0000
0000
,
0000
0000
0000
0000
,
1001
0000
0000
0000
,
0000
0000
0000
0000
,
0000
0000
0000
0000
,
0000
0000
0000
0000
,
1000
0000
0000
0000
,
0000
0000
0000
0000
,
0000
0000
0000
0000
,
0000
0000
0000
0000
,
0100
0000
0000
0000
,
0000
0000
0000
0000
,
0000
0000
0000
0000
,
0000
0000
0000
0000
,
0010
0000
0000
0000
,
0000
0000
0000
0000
,
0000
0000
0000
0000
,
0000
0001
0000
0000
,
0000
0000
0000
0000
,
0000
1001
0000
0000
,
0000
0000
0000
0000
,
0000
1000
0000
0000
,
0000
0000
0000
0000
,
0000
0010
0000
0000
,
0000
0000
0000
0000
,
0000
0110
0000
0000
,
0000
0000
0000
0000
,
0000
0000
0000
0000
,
0000
0000
0000
0000
,
0000
0001
0000
0000
,
0000
0000
0000
0000
,
0000
1000
0000
0000
,
0000
0000
0000
0000
,
0000
0100
0000
0000
,
0000
0000
0000
0000
,
0000
0010
0000
0000
,
0000
0000
0000
0000
,
0000
0001
0000
0000
,
0000
1000
0000
0000
,
0000
0010
0000
0000
,
0000
1001
0000
0000
;

//--------------- dance-single - forcednature ----------------
#NOTEDATA:;
#STEPSTYPE:dance-single;
#DESCRIPTION:forcednature;
#DIFFICULTY:Easy;
#METER:4;
#RADARVALUES:0,0,0,0,0;
#CREDIT:forcednature;
#NOTES:
0000
0000
0000
0000
,
0000
0000
0000
0000
,
0000
0000
0000
0000
,
0000
0000
0000
0000
,
0000
0000
0000
0000
,
1000
0000
1000
0000
,
0001
0100
0001
0000
,
0010
0000
0010
0000
,
0001
0001
1000
0000
,
0100
0000
0100
0000
,
1000
0010
1000
0000
,
0001
0000
0001
0000
,
0010
0100
0000
0000
,
0110
0000
1000
0000
,
0010
0000
0000
0000
,
1000
0000
1000
0000
,
0001
0000
0100
0000
,
1001
0000
0000
0000
,
0001
0000
0001
0000
,
0100
0000
0010
0000
,
1000
0000
0000
0000
,
1001
0000
0000
0000
,
0001
0000
0000
0000
,
0010
0000
0010
0000
,
0100
0000
0100
0000
,
0010
0000
0000
0000
,
0001
0000
0000
0000
,
1000
0000
1000
0000
,
0001
0000
0000
0000
,
0100
0000
0010
0000
,
1000
1000
0100
0000
,
1000
0000
0000
0000
,
0001
0001
0010
0000
,
0001
0000
0000
0000
,
0100
0100
0010
0000
,
1000
0000
0000
0100
,
2000
0000
0000
3000
,
0010
0000
0100
0000
,
1001
0000
0000
0000
,
0001
0000
0001
0000
,
0010
0000
0000
0000
,
0100
0000
0010
0000
,
0001
0000
0000
0000
,
1000
0000
1000
0000
,
0010
0000
0100
0000
,
0000
0110
0000
0000
,
0001
0000
0000
0000
,
0001
0000
0010
0000
,
1000
0000
0000
0000
,
1000
0000
0010
0000
,
0001
0000
0000
0000
,
0100
0000
0100
0000
,
0020
0000
0000
0000
0000
0000
0000
0030
,
0000
1000
1000
0001
,
0000
0100
0000
0001
,
0000
1000
1000
0010
,
0000
1000
0000
0001
,
0000
0010
0010
0100
,
0000
1000
0000
0100
,
0000
0020
0000
0000
,
0030
0001
0000
1000
,
0000
1001
0000
0000
,
0000
0001
0000
0001
,
0000
0100
0000
0001
,
0000
2000
0000
3000
,
0000
0110
0000
0000
,
0000
1000
0000
0001
,
0000
1001
0000
0000
,
0000
0001
0000
1000
,
0000
1001
0000
0000
,
0000
0010
0000
0100
,
0000
0110
0000
0000
,
0000
1001
0000
0000
,
0000
1000
0000
1000
,
0000
0001
0000
0001
,
0000
0100
0000
0010
,
0000
1001
0000
0000
;

//--------------- dance-single - forcednature ----------------
#NOTEDATA:;
#STEPSTYPE:dance-single;
#DESCRIPTION:forcednature;
#DIFFICULTY:Medium;
#METER:9;
#RADARVALUES:0,0,0,0,0;
#CREDIT:forcednature;
#NOTES:
0000
0000
0000
0000
,
0000
0000
0000
0000
,
0000
0000
0000
0000
,
0000
0000
0000
0000
,
0000
0000
0000
0000
,
1000
0001
0100
0001
,
0010
0000
0000
0100
0000
0000
1000
0000
0000
0100
0000
0000
0010
0000
0000
0000
,
0001
1000
0001
0100
,
0000
0000
0010
0010
0000
1000
0010
0000
,
1000
0001
0100
0001
,
1000
0000
0000
0100
0000
0000
0010
0000
0000
0100
0000
0000
1000
0000
0000
0000
,
0001
0000
0010
0000
0100
0000
0100
0010
,
0000
0000
0001
1000
0000
2002
0000
0000
,
3003
0000
0001
0000
0100
0000
0010
0100
,
0010
0000
1000
0000
0100
0000
0010
0100
,
0010
0000
0001
0010
0000
0002
0000
2003
,
0000
3100
1000
0010
,
1001
0000
1000
0000
0010
0000
0100
0001
,
0000
0010
0000
0100
0000
1000
0001
1000
,
0001
0000
0100
0000
0010
1000
0000
1001
,
0000
0001
0010
0000
0100
0000
0110
0000
,
0000
1000
0001
0000
0100
0001
0000
0001
,
1000
0000
0100
1000
0000
0010
0000
0010
,
0000
1000
0100
0000
1000
0002
0000
0203
,
0000
0300
0002
0000
0103
0010
0000
1001
,
0000
0000
1000
0000
0100
1000
0000
0001
,
1000
0000
0010
0000
0100
0000
0001
0100
,
0001
0000
0010
0000
0001
0000
1000
0100
,
0000
1000
0001
1000
0001
0000
0010
0100
,
0000
0100
0010
0000
0110
0000
0001
0000
,
0101
1100
0202
0303
,
1000
0010
0100
0001
,
0011
1010
2002
3003
,
0001
0010
0100
1000
,
1010
1100
2002
3003
,
0001
0000
0100
0000
0010
0000
1000
0001
,
1000
0100
1000
0010
,
0110
0000
0100
0001
0100
0000
0010
0000
,
2002
3003
1000
0100
,
1000
0000
0000
0001
0000
0000
0100
0000
0000
0001
0000
0000
1000
0000
0000
0000
,
0010
0100
0001
0100
,
0010
0000
1000
0001
0000
0001
1000
0000
,
1100
0001
0010
0100
,
0010
0000
0000
0001
0000
0000
1000
0000
0000
0001
0000
0000
0010
0000
0000
0000
,
0100
0000
1000
0000
0001
0000
0100
0010
,
0000
0000
1000
0001
0000
2002
0000
3003
,
2000
0100
0020
3030
,
0001
0010
0100
0000
0010
0000
0000
0000
,
0002
0100
0020
0033
,
1000
0010
0100
0000
0010
0000
0000
0000
,
2000
0100
3002
0100
,
1003
0000
0001
0000
0010
0001
0010
0000
,
0100
0000
1000
0000
0010
0000
0010
0100
,
0000
0101
0011
2020
,
3030
0000
0100
0010
0001
0000
0100
0000
,
0010
1100
1010
0022
,
0033
0000
0001
1000
0100
0000
0010
0000
,
0001
0011
0101
2200
,
3300
0000
1000
0010
0100
0000
0010
0000
,
1000
1002
0100
0100
,
1003
0000
0001
0010
0001
0000
0010
0000
,
0100
0210
1000
0020
,
0330
0000
0001
1000
0001
0000
0100
0000
,
0010
0210
0001
0020
,
0330
0000
1000
0001
1000
0000
0100
0000
,
0010
0000
0001
0001
1000
0000
0001
0000
,
0100
0000
0000
0000
0010
0000
0000
1000
0000
0000
0001
0000
0000
1000
0000
0000
,
0010
0000
1000
1000
0001
0000
0010
0000
,
0001
0000
0100
0000
0010
1000
0000
1000
,
0010
0000
0110
0000
0001
0001
1000
0000
,
0100
0000
0000
0000
1000
0000
0000
0001
0000
0000
0010
0000
0000
0001
0000
0000
,
1000
0000
0110
0000
0001
0001
0100
0000
,
0100
0010
0000
0000
1000
0001
0000
2002
,
0000
0000
3003
0000
1000
0000
0000
0100
0000
0000
1000
0000
0000
0010
0000
0000
,
1001
0000
0000
0000
0001
0000
0000
0100
0000
0000
0001
0000
0000
0010
0000
0000
,
1001
0000
0000
0000
1000
0000
0000
0010
0000
0000
0100
0000
0000
0001
0000
0000
,
1001
0110
0000
0000
;

//--------------- dance-single - forcednature ----------------
#NOTEDATA:;
#STEPSTYPE:dance-single;
#DESCRIPTION:forcednature;
#DIFFICULTY:Hard;
#METER:14;
#RADARVALUES:0,0,0,0,0;
#CREDIT:forcednature;
#NOTES:
0000
0000
0000
0000
,
0000
0000
0000
0000
,
0000
0000
0000
0000
,
0000
0000
0000
0000
,
0000
0000
0000
0000
,
1000
0000
0100
0000
0010
0000
0100
0000
1000
0000
0000
0010
0100
0000
0000
0000
,
0001
0010
0000
0001
0010
0000
0100
0010
0000
0100
1000
0000
0001
0000
0000
0000
,
0100
0000
1000
0000
0100
0000
0001
0000
1000
0000
0000
0010
0100
0000
0000
0000
,
0002
0000
0000
0000
0013
0000
0001
0000
1000
0000
0100
0000
1000
0001
1000
0000
,
0001
0000
0100
0000
0010
0000
0100
0000
0001
0000
0000
0010
0100
0000
0000
0000
,
1000
0010
0000
1000
0010
0000
0100
0010
0000
0100
0001
0000
1000
0000
0000
0000
,
0001
0000
0001
0000
0010
0000
0001
0000
0100
0010
0100
0010
1000
0000
0001
0000
,
0000
0000
0011
0011
0000
2200
0000
3300
,
0001
0000
0100
0000
0010
0000
0100
0000
0001
0000
0000
1000
0000
0000
1010
0000
,
0000
1000
0100
0001
0100
1000
0000
1010
,
1010
0000
0110
0110
0000
0101
0000
0001
,
0010
0000
0100
0000
0110
0000
0000
0000
1001
0000
0000
1000
0010
1000
0010
0000
,
0000
0000
0100
0000
1000
0000
0100
0000
0001
0000
0000
0010
0000
0000
1001
0000
,
0000
1100
0000
0011
0000
0001
0100
0010
,
1000
0000
0000
0100
0010
0000
0100
0000
1000
0000
0001
0000
0100
0000
0110
0000
,
0000
0000
2000
0000
3200
0000
0320
0000
0032
0000
0000
0103
0010
0000
0010
0000
,
1000
0100
0100
1000
0010
0100
0000
0001
,
0010
1000
0010
0002
0000
0103
0010
1000
,
0000
0001
0010
0010
0100
0010
0000
0012
,
0000
0000
1000
0000
1000
0000
0000
0000
0103
0000
0000
0100
0010
0000
0110
0000
,
0000
0001
0100
0100
1000
0100
0000
0001
,
0010
0010
0001
0200
0000
0310
1000
0100
,
1001
0000
0000
0000
0001
0000
0010
0001
0010
0000
0100
0000
1000
0000
1020
0000
,
0000
0000
1030
0000
1000
0000
0010
0100
0010
0000
0100
0001
0100
0000
0001
0000
,
0000
0011
0010
0100
2100
0000
3010
0000
,
1000
0100
0000
0000
0001
0100
0000
0000
1001
0000
0000
0000
0001
0000
0010
0000
,
0100
0000
0001
0000
0100
1000
0100
0000
1000
0000
0000
0001
0010
0000
0000
0000
,
0001
0100
0000
0000
1000
0100
0000
0000
1001
0000
0000
0000
1000
0000
0010
0000
,
0100
0000
1000
0000
0100
0001
0100
0000
0001
0000
0000
0010
0100
0010
0100
0000
,
1000
0010
0000
0000
0001
0010
0000
0000
1001
0000
0000
0000
0001
0000
0100
0000
,
0010
0000
0001
0000
0010
1000
0010
0000
1000
0000
0000
0001
0100
0001
0100
0000
,
0010
0000
1000
0000
0100
0010
0000
0100
1000
0000
0001
0000
0010
0000
0001
0000
,
0100
0000
0100
0000
0010
0000
0010
0000
1000
0001
1000
0000
0100
1000
0100
0000
,
0010
0000
0001
0000
0100
0000
0001
0000
0010
0000
0000
0100
0010
0000
0100
0000
,
1000
0010
0000
1000
0010
0000
0100
0010
0000
1000
0001
0000
0100
0001
0000
0000
,
0010
0000
0010
0000
0001
0000
0010
0000
0100
0000
0000
1000
0001
0000
0100
0000
,
0020
0000
0000
0000
1030
0000
0100
0000
1000
0001
0000
0010
0001
0010
0100
0000
,
1000
0000
0010
0000
0100
0000
0010
0000
1000
0000
0000
0001
0100
0000
0001
0000
,
0010
0100
0000
0010
0100
0000
1000
0100
0000
0010
0001
0000
0100
0001
0000
0000
,
0010
0000
0010
0000
0100
0000
0010
0000
0100
1000
0100
1000
0001
0000
0100
0000
,
0000
0000
0010
0110
0000
1001
0000
0000
,
0012
0000
0100
0000
2000
0000
3003
0001
,
0010
0010
0001
0100
0010
0000
0110
0000
,
2010
0000
0100
0000
0002
0000
3003
1000
,
0010
0000
0010
0000
1000
0000
0100
0000
0010
0000
0000
0001
1000
0001
1000
0000
,
0100
0000
1100
0000
0011
0000
0001
0100
,
0010
0100
1000
0100
0101
0000
1000
0020
,
1000
0000
1000
0000
0100
0000
0130
0000
1000
0001
1000
0000
0001
0010
0001
0000
,
0000
0000
0000
0000
1000
0100
0000
0000
0001
0100
0000
0000
1001
0000
0000
0000
,
0001
0000
0010
0000
0100
0000
0001
0000
0100
1000
0100
0000
1000
0000
0000
0001
,
0010
0000
0000
0000
0001
0100
0000
0000
1000
0100
0000
0000
1001
0000
0000
0000
,
1000
0000
0010
0000
0100
0000
1000
0000
0100
0001
0100
0000
0001
0000
0000
0010
,
0100
0010
0100
0000
1000
0010
0000
0000
0001
0010
0000
0000
1001
0000
0000
0000
,
0001
0000
0100
0000
0010
0000
0001
0000
0010
1000
0010
0000
1000
0000
0000
0001
,
0100
0001
0100
0000
0010
0000
1000
0000
0100
0010
0000
0100
1000
0000
0001
0000
,
0010
0000
0001
0000
0100
0000
0100
0000
0010
0000
0010
0000
1000
0001
1000
0000
,
0100
1000
0100
0000
0020
0000
0000
0000
0032
0000
0000
0000
0203
0000
0000
0000
,
0301
0000
0010
0000
0100
0010
0100
0000
1000
0000
0001
0000
0001
0000
0000
0100
,
0010
0000
0010
0000
1000
0001
1000
0000
0001
0000
0000
0000
0011
0000
0000
0000
,
1000
0000
0100
0000
0001
0000
0100
0000
0100
0000
1000
0000
0001
0010
0001
0000
,
0200
0000
0000
0000
0310
0000
0010
0000
1000
0010
1000
0000
0001
0000
0000
0010
,
0100
0000
0010
0000
0001
0100
0000
0001
0100
0000
0010
1000
0000
0001
1000
0000
,
0010
0100
0000
0000
0001
0000
0001
0000
0010
0000
0001
0000
1000
0000
0000
0100
,
0010
0000
0200
0000
0000
0000
0310
0000
0001
1000
0001
0000
0100
0000
0000
0010
,
1000
0010
1000
0000
0001
0000
0001
0000
0010
0001
0010
0000
0100
0000
0000
1000
,
0100
0000
0010
0000
0001
1000
0000
0001
1000
0000
0010
0100
0000
0001
0010
0000
,
0100
1000
0000
0000
0010
0000
0010
0000
0100
0000
0010
0000
1000
0001
1000
0001
,
1000
0200
0000
0300
0010
0110
0000
2002
,
0000
0000
3003
0000
0001
0010
0000
0010
0001
0000
0100
0010
0000
0010
1000
0000
,
0100
1000
0000
0000
0010
1000
0000
1000
0010
0000
0100
0001
0000
0010
0001
0000
,
0100
0010
0100
0000
0010
1000
0000
1000
0100
0000
0010
0001
0000
0001
0100
0000
,
0001
1000
0001
1000
0010
0000
0000
0000
0000
0000
0000
0000
0000
0000
0000
0000
;

//--------------- dance-double - forcednature ----------------
#NOTEDATA:;
#STEPSTYPE:dance-double;
#DESCRIPTION:forcednature;
#DIFFICULTY:Easy;
#METER:4;
#RADARVALUES:0,0,0,0,0;
#CREDIT:forcednature;
#NOTES:
00000000
00000000
00000000
00000000
,
00000000
00000000
00000000
00000000
,
00000000
00000000
00000000
00000000
,
00000000
00000000
00000000
00000000
,
00000000
00000000
00000000
00000000
,
00001000
00000000
00001000
00000000
,
00010000
00000100
00010000
00000000
,
00001000
00000000
00001000
00000000
,
00100000
00100000
00010000
00000000
,
01000000
00000000
01000000
00000000
,
00100000
10000000
00100000
00000000
,
10000000
00000000
10000000
00000000
,
00010000
00100000
00000000
00000000
,
00011000
00000000
00000100
00000000
,
00001000
00000000
00000000
00000000
,
00000010
00000000
00000010
00000000
,
00000100
00000000
00000001
00000000
,
00001001
00000000
00000000
00000000
,
00001000
00000000
00001000
00000000
,
00000100
00000000
00010000
00000000
,
00001000
00000000
00000000
00000000
,
00011000
00000000
00000000
00000000
,
00100000
00000000
00000000
00000000
,
00010000
00000000
00010000
00000000
,
01000000
00000000
01000000
00000000
,
00100000
00000000
00000000
00000000
,
10000000
00000000
00000000
00000000
,
00010000
00000000
00010000
00000000
,
00100000
00000000
00000000
00000000
,
00001000
00000000
00010000
00000000
,
00000100
00000100
00001000
00000000
,
00000010
00000000
00000000
00000000
,
00000100
00000100
00000001
00000000
,
00000010
00000000
00000000
00000000
,
00000100
00000100
00010000
00000000
,
00001000
00000000
00000000
00100000
,
00020000
00000000
00000000
00030000
,
01000000
00000000
00100000
00000000
,
10010000
00000000
00000000
00000000
,
00010000
00000000
00010000
00000000
,
00100000
00000000
00000000
00000000
,
00001000
00000000
00010000
00000000
,
00001000
00000000
00000000
00000000
,
00010000
00000000
00010000
00000000
,
00000100
00000000
00001000
00000000
,
00000000
00000110
00000000
00000000
,
00000001
00000000
00000000
00000000
,
00000001
00000000
00000010
00000000
,
00000100
00000000
00000000
00000000
,
00001000
00000000
00000100
00000000
,
00010000
00000000
00000000
00000000
,
00001000
00000000
00001000
00000000
,
00020000
00000000
00000000
00000000
00000000
00000000
00000000
00030000
,
00000000
00001000
00001000
00100000
,
00000000
00010000
00000000
01000000
,
00000000
00010000
00010000
10000000
,
00000000
00100000
00000000
01000000
,
00000000
00010000
00010000
00100000
,
00000000
00001000
00000000
00010000
,
00000000
00000200
00000000
00000000
,
00000300
00001000
00000000
00000001
,
00000000
00001001
00000000
00000000
,
00000000
00001000
00000000
00001000
,
00000000
00000010
00000000
00010000
,
00000000
00002000
00000000
00003000
,
00000000
00011000
00000000
00000000
,
00000000
00100000
00000000
01000000
,
00000000
10010000
00000000
00000000
,
00000000
00010000
00000000
01000000
,
00000000
00011000
00000000
00000000
,
00000000
00000100
00000000
00001000
,
00000000
00001001
00000000
00000000
,
00000000
00000110
00000000
00000000
,
00000000
00000001
00000000
00000001
,
00000000
00000010
00000000
00000010
,
00000000
00000100
00000000
00001000
,
00000000
00001001
00000000
00000000
;

//--------------- dance-double - forcednature ----------------
#NOTEDATA:;
#STEPSTYPE:dance-double;
#DESCRIPTION:forcednature;
#DIFFICULTY:Medium;
#METER:9;
#RADARVALUES:0,0,0,0,0;
#CREDIT:forcednature;
#NOTES:
00000000
00000000
00000000
00000000
,
00000000
00000000
00000000
00000000
,
00000000
00000000
00000000
00000000
,
00000000
00000000
00000000
00000000
,
00000000
00000000
00000000
00000000
,
00001000
00010000
00000100
00010000
,
00001000
00000000
00000000
00100000
00000000
00000000
00010000
00000000
00000000
00100000
00000000
00000000
00001000
00000000
00000000
00000000
,
00010000
01000000
10000000
01000000
,
00000000
00000000
00100000
00100000
00000000
00010000
00100000
00000000
,
00001000
00010000
00000010
00001000
,
00000001
00000000
00000000
00000100
00000000
00000000
00001000
00000000
00000000
00000100
00000000
00000000
00000001
00000000
00000000
00000000
,
00000010
00000000
00000001
00000000
00000100
00000000
00000100
00000010
,
00000000
00000000
00001000
00000001
00000000
00002002
00000000
00000000
,
00003003
00000000
00001000
00000000
00000100
00000000
00010000
00001000
,
00010000
00000000
00001000
00000000
00100000
00000000
00010000
01000000
,
00010000
00000000
01000000
00100000
00000000
20000000
00000000
30020000
,
00000000
00130000
01000000
00100000
,
10010000
00000000
10000000
00000000
00100000
00000000
01000000
00010000
,
00000000
00100000
00000000
00001000
00000000
00010000
00001000
00010000
,
00001000
00000000
00010000
00000000
00000100
00001000
00000000
00001001
,
00000000
00000001
00000010
00000000
00000110
00000000
00001001
00000000
,
00000000
00000001
00000100
00000000
00000001
00001000
00000000
00001000
,
00000100
00000000
00010000
00001000
00000000
00100000
00000000
00100000
,
00000000
00010000
01000000
00000000
00010000
20000000
00000000
30200000
,
00000000
00300000
20000000
00000000
30100000
01000000
00000000
10010000
,
00000000
00000000
10000000
00000000
01000000
10000000
00000000
00010000
,
10000000
00000000
00100000
00000000
01000000
00000000
00010000
01000000
,
00010000
00000000
00100000
00000000
00001000
00000000
00010000
00000100
,
00000000
00010000
00001000
00010000
00001000
00000000
00010000
00000010
,
00000000
00000010
00001000
00000000
00000100
00000000
00000110
00000000
,
00001001
00001100
00000202
00000303
,
00001000
00000010
00010000
00001000
,
00011000
00101000
00220000
00330000
,
00010000
01000000
00100000
10000000
,
11000000
10100000
20020000
30030000
,
00010000
00000000
00100000
00000000
00001000
00000000
00010000
00001000
,
00010000
00000100
00001000
00000010
,
00000110
00000000
00000001
00000100
00000001
00000000
00000010
00000000
,
00002002
00003003
00001000
00000100
,
00000010
00000000
00000000
00001000
00000000
00000000
00010000
00000000
00000000
00001000
00000000
00000000
00010000
00000000
00000000
00000000
,
01000000
10000000
00100000
10000000
,
01000000
00000000
00010000
00001000
00000000
00001000
00010000
00000000
,
00011000
00000100
00001000
00000010
,
00000100
00000000
00000000
00001000
00000000
00000000
00010000
00000000
00000000
00001000
00000000
00000000
00010000
00000000
00000000
00000000
,
00100000
00000000
10000000
00000000
01000000
00000000
10000000
00010000
,
00000000
00000000
00100000
01000000
00000000
02200000
00000000
03300000
,
20000000
01000000
00200000
30300000
,
00010000
00100000
00001000
00000000
00010000
00000000
00000000
00000000
,
00000200
00001000
00000020
00000330
,
00000001
00001000
00000100
00000000
00010000
00000000
00000000
00000000
,
00002000
00100000
00023000
00000010
,
00031000
00000000
00010000
00000000
00001000
01000000
00001000
00000000
,
01000000
00000000
00010000
00000000
00100000
00000000
01000000
00100000
,
00000000
00110000
00101000
00020200
,
00030300
00000000
00000100
00001000
00000010
00000000
00000100
00000000
,
00000001
00000011
00001100
00000202
,
00000303
00000000
00001000
00000010
00010000
00000000
00001000
00000000
,
01000000
01010000
00110000
20200000
,
30300000
00000000
10000000
00010000
00100000
00000000
00001000
00000000
,
00010000
00020100
00001000
00001000
,
00030010
00000000
00010000
00001000
00010000
00000000
00001000
00000000
,
00100000
00120000
10000000
02000000
,
03030000
00000000
00001000
00010000
00001000
00000000
00010000
00000000
,
00000100
00002100
00000001
00000020
,
00003030
00000000
00000001
00001000
00000001
00000000
00000100
00000000
,
00001000
00000000
00010000
00010000
00001000
00000000
00010000
00000000
,
00100000
00000000
00000000
00000000
01000000
00000000
00000000
00010000
00000000
00000000
10000000
00000000
00000000
00010000
00000000
00000000
,
01000000
00000000
00100000
00100000
10000000
00000000
01000000
00000000
,
00010000
00000000
00001000
00000000
00000010
00000100
00000000
00000100
,
00000010
00000000
00001001
00000000
00000001
00000001
00000100
00000000
,
00001000
00000000
00000000
00000000
00010000
00000000
00000000
00100000
00000000
00000000
00010000
00000000
00000000
00100000
00000000
00000000
,
10000000
00000000
01100000
00000000
00010000
00010000
10000000
00000000
,
10000000
01000000
00000000
00000000
01000000
00010000
00000000
00022000
,
00000000
00000000
00033000
00000000
00000100
00000000
00000000
00001000
00000000
00000000
00000010
00000000
00000000
00000100
00000000
00000000
,
00001000
00000000
00000000
00000000
00010000
00000000
00000000
00100000
00000000
00000000
01000000
00000000
00000000
00010000
00000000
00000000
,
00100000
00000000
00000000
00000000
01000000
00000000
00000000
00010000
00000000
00000000
00001000
00000000
00000000
00000010
00000000
00000000
,
00000100
00001001
00000000
00000000
;

//--------------- dance-double - forcednature ----------------
#NOTEDATA:;
#STEPSTYPE:dance-double;
#DESCRIPTION:forcednature;
#DIFFICULTY:Hard;
#METER:14;
#RADARVALUES:0,0,0,0,0;
#CREDIT:forcednature;
#NOTES:
00000000
00000000
00000000
00000000
,
00000000
00000000
00000000
00000000
,
00000000
00000000
00000000
00000000
,
00000000
00000000
00000000
00000000
,
00000000
00000000
00000000
00000000
,
00001000
00000000
00010000
00000000
00010000
00000000
00001000
00000000
00100000
00000000
00000000
00010000
00000000
00000000
01000000
00000000
,
00100000
10000000
00000000
00100000
10000000
00000000
01000000
10000000
00000000
01000000
10000000
00000000
00010000
00000000
00000000
00000000
,
00100000
00000000
01000000
00000000
01000000
00000000
00100000
00000000
00001000
00000000
00000000
00010000
00000000
00000000
00000100
00000000
,
00000000
00000000
00001000
00000010
00000000
00000110
00000000
00000001
,
00000100
00000000
00000010
00000000
00001000
00000000
00000010
00000000
00000100
00000000
00000000
00001000
00000000
00000000
00010000
00000000
,
00100000
01000000
00000000
00100000
01000000
00000000
00010000
01000000
00000000
00010000
01000000
00000000
00100000
00000000
00000000
00000000
,
10000000
00000000
10000000
00000000
01000000
00000000
10000000
00000000
00100000
00000000
01000000
00100000
01000000
00000000
00010000
00000000
,
00000000
00000000
00100000
00001000
00000000
00022000
00000000
00033000
,
00000000
00000000
00000100
00000000
00001000
00000000
00000100
00000000
00000010
00000000
00000000
00000001
00000000
00000000
00000101
00000000
,
00000000
00001000
00000010
00000100
00001000
00010000
00000000
00001000
,
00000010
00000000
00001000
00010000
00000000
00011000
00000000
00100000
,
00010000
00000000
01000000
00000000
00100000
00000000
00000000
00000000
01100000
00000000
00000000
10000000
00010000
00000000
00200000
00000000
,
00000000
00000000
01300000
00000000
10000000
00000000
01000000
00000000
00010000
00000000
00000000
00001000
00000000
00000000
00000010
00000000
,
00000000
00000011
00000000
00000101
00000000
00001000
00000010
00000100
,
00000002
00000000
00000013
00001000
00010000
00001000
00100000
00020000
,
00000000
01030000
00100000
00010000
00001000
00000000
00022000
00000000
,
00033000
00010000
00100000
10000000
00100000
00010000
00000000
00001000
,
00000100
00001000
00010000
00002000
00000000
00003010
00000100
00001000
,
00000000
00000001
00000010
00001000
00000010
00000001
00000000
00000012
,
00000000
00000000
00001000
00000000
00000103
00000010
00000000
00000110
,
00000000
00001000
00000010
00010000
00001000
00010000
00000000
00100000
,
01000000
00010000
01000000
20000000
00000000
31000000
00010000
00100000
,
00000000
00001000
00020000
00000000
00031000
00000010
00000000
00000110
,
00000000
00000000
00000100
00000000
00001000
00000000
00000010
00000000
00000100
00000000
00000001
00000010
00000001
00000000
00000020
00000000
,
00000000
00001030
00010000
01000000
00100000
00000000
10010000
00000000
,
00010000
01000000
00000000
00000000
10000000
01000000
00000000
00000000
10010000
00000000
00000000
00000000
00010000
00000000
00100000
00000000
,
01000000
00000000
00010000
00000000
00001000
00000000
00010000
00000000
00000100
00000000
00000000
00001000
00000010
00000000
00000000
00000000
,
00001000
00000100
00000000
00000000
00000001
00000100
00000000
00000000
00001001
00000000
00000000
00000000
00001000
00000000
00000010
00000000
,
00000100
00000000
00001000
00000000
00010000
00000000
00001000
00000000
01000000
00000000
00000000
00010000
00100000
00000000
00000000
00000000
,
00010000
01000000
00000000
00000000
10000000
01000000
00000000
00000000
10010000
00000000
00000000
00000000
00010000
00000000
10000000
00000000
,
01000000
00000000
00010000
00000000
00001000
00000000
00100000
00000000
00001000
00000000
00000000
00010000
00000100
00000000
00002000
00000000
,
00000100
00000001
00000010
00013000
,
01000000
00000000
00100000
00000000
00100000
00000000
10000000
00000000
00100000
00000000
00000000
01000000
00010000
00000000
10000000
00000000
,
01000000
00000000
00010000
00000000
00010000
00000000
00001000
00000000
00010000
00000000
00000000
00000100
00000000
00000000
00001000
00000000
,
00000010
00000100
00000000
00000010
00000100
00000000
00000001
00000100
00000000
00000001
00000100
00000000
00000010
00001000
00000000
00000000
,
00000100
00000000
00000100
00000000
00010000
00000000
00001000
00000000
00100000
00000000
00000000
00010000
00000000
00000000
01000000
00000000
,
00000000
00000000
00100000
00000000
10000000
00000000
01000000
00000000
10000000
00000000
00000000
00010000
00100000
00000000
01000000
00000000
,
00100000
00000000
00001000
00000000
00001000
00000000
00100000
00000000
00010000
00000000
00000000
01000000
00000000
00000000
00001000
00000000
,
00010000
00000010
00000000
00010000
00000010
00000000
00001000
00000100
00000000
00001000
00000100
00000000
00000010
00000001
00000000
00000000
,
00000100
00000000
00000100
00000000
00000001
00000000
00000100
00000000
00001000
00000000
00000000
00010000
00000000
00000000
00011000
00000000
,
00000000
00000000
00100000
00010000
00000000
10010000
00000000
00000000
,
00020000
01000000
10000000
00100000
,
00031000
00000100
00000010
00000000
00000001
00000000
00000110
00000000
,
00002000
00000100
00000001
00000010
,
00013000
01000000
00100000
00000000
10000000
00000000
01100000
00000000
,
10010000
01001000
00011000
00010100
,
00000100
00001000
00000010
00001000
00000002
00000000
00000103
00001000
,
00010000
00000000
00001000
00000000
00010000
00000000
00100000
00000000
01000000
00000000
00010000
01000000
00010000
00000000
10000000
00000000
,
00000000
00000000
00000000
00000000
00010000
01000000
00000000
00000000
10000000
01000000
00000000
00000000
10010000
00000000
00000000
00000000
,
00010000
00000000
00100000
00000000
01000000
00000000
00010000
00000000
00001000
00000000
00000010
00000000
00000100
00000000
00000000
00001000
,
00000010
00000000
00000000
00000000
00001000
00000100
00000000
00000000
00000001
00000100
00000000
00000000
00001001
00000000
00000000
00000000
,
00001000
00000000
00000010
00000000
00000100
00000000
00001000
00000000
00010000
00000000
00100000
00000000
01000000
00000000
00000000
00010000
,
00100000
00000000
00000000
00000000
00010000
01000000
00000000
00000000
10000000
01000000
00000000
00000000
10010000
00000000
00000000
00000000
,
00010000
00000000
01000000
00000000
00100000
00000000
00010000
00000000
00001000
00000000
00010000
00000000
00000100
00000000
00000000
00001000
,
00000010
00000200
00000001
00000000
00000010
00000000
00001300
00010000
,
01000000
00000000
00100000
00000000
10000000
00000000
10000000
00000000
00010000
00000000
10000000
00000000
01000000
00000000
00000000
00100000
,
00010000
02000000
10000000
00000000
00100000
00000000
03010000
00000000
,
00001000
00010000
00000100
00001000
00000010
00000010
00001000
00000100
,
00000010
00000000
00000000
00000000
00000001
00001000
00000001
00000000
00000100
00000000
00000000
00000000
00001001
00000000
00000000
00000000
,
00000001
00000000
00000010
00000000
00001000
00000000
00010000
00000000
00010000
00000000
00001000
00000000
00100000
00010000
00100000
00000000
,
00020000
00000000
00000000
00000000
01030000
00000000
00100000
00000000
10000000
00100000
10000000
00000000
00010000
00000000
00000000
00100000
,
00000000
00000000
00001000
00000000
00010000
00001000
00000000
00010000
00001000
00000000
00010000
00000100
00000000
00010000
00000100
00000000
,
00001000
00000100
00000000
00000000
00000010
00000000
00000010
00000000
00000100
00000000
00001000
00000000
00000001
00000000
00000000
00000100
,
00000000
00000000
00001000
00000000
00000000
00000000
00010000
00000000
00100000
00000000
00010000
00000000
00001000
00000000
00000000
00010000
,
00001000
00000000
01000000
00000000
00010000
00000000
00010000
00000000
10000000
00010000
10000000
00000000
00100000
00000000
00000000
10000000
,
00000000
00000000
01000000
00000000
00100000
00010000
00000000
00100000
00010000
00000000
00100000
00001000
00000000
00100000
00001000
00000000
,
00010000
00001000
00000000
00000000
00010000
00000000
00010000
00000000
00000100
00000000
00001000
00000000
00000010
00000000
00000100
00000010
,
00000100
00000002
00000000
00000003
00000010
00000100
00000000
00002002
,
00000000
00000000
00003003
00000000
00000001
00000000
00000000
00000010
00000000
00000000
00001000
00000000
00000000
00010000
00000000
00000000
,
01000000
00000000
00000000
00000000
10000000
00000000
00000000
00100000
00000000
00000000
00010000
00000000
00000000
00001000
00000000
00000000
,
00000100
00000000
00000000
00000000
00000001
00000000
00000000
00000010
00000000
00000000
00001000
00000000
00000000
00010000
00000000
00000000
,
00100000
10010000
00000000
00000000
;
