#VERSION:0.83;
#TITLE:FAKE STYLE II;
#SUBTITLE:;
#ARTIST:FAKE TYPE.;
#TITLETRANSLIT:;
#SUBTITLETRANSLIT:;
#ARTISTTRANSLIT:;
#GENRE:DANCE MUSIC;
#CREDIT:;
#MUSIC:FAKE STYLE II.ogg;
#BANNER:FAKE STYLE II.png;
#BACKGROUND:FAKE STYLE II-bg.png;
#CDTITLE:./CDTitles/SDVX III GRAVITY WARS.png;
#SAMPLESTART:55.660;
#SAMPLELENGTH:15.000;
#SELECTABLE:YES;
#OFFSET:0.000;
#BPMS:0.000=125.000;
#STOPS:211.500=1.440;
#TIMESIGNATURES:0.000=4=4,
208.000=5=4,
213.000=4=4
;
#BGCHANGES:0.000=../BGAs/22bk.mp4=1.000=0=0=0=StretchNoLoop====,
99999.000=-nosongbg-=1.000=0=0=0=StretchNoLoop====
;
#FGCHANGES:;

//--------------- dance-single - forcednature ----------------
#NOTEDATA:;
#STEPSTYPE:dance-single;
#DESCRIPTION:forcednature;
#DIFFICULTY:Beginner;
#METER:1;
#RADARVALUES:0,0,0,0,0;
#CREDIT:forcednature;
#NOTES:
0000
0000
0000
0000
,
0000
0000
0000
0000
,
0000
0000
0000
0000
,
0000
0000
0000
0000
,
0000
0000
0000
0000
,
0001
0000
0000
0000
,
0000
0000
0000
0000
,
1000
0000
0000
0000
,
0000
0000
0000
0000
,
0010
0000
0000
0000
,
0000
0000
0000
0000
,
0000
0000
0000
0000
,
0000
0000
0000
0000
,
0100
0000
0000
0000
,
0000
0000
0000
0000
,
0001
0000
0000
0000
,
0000
0000
0000
0000
,
1000
0000
0000
0000
,
0000
0000
0000
0000
,
0001
0000
0000
0000
,
0000
0000
0000
0000
,
0010
0000
0000
0000
,
0000
0000
0000
0000
,
0100
0000
0000
0000
,
0000
0000
0000
0000
,
1000
0000
0000
0000
,
0000
0000
0000
0000
,
0100
0000
0000
0000
,
0000
0000
0000
0000
,
1001
0000
0000
0000
,
1000
0000
0000
0000
,
0010
0000
0000
0000
,
1000
0000
0000
0000
,
0001
0000
0000
0000
,
0010
0000
0000
0000
,
0100
0000
0000
0000
,
0010
0000
0000
0000
,
0001
0000
0000
0000
,
0000
0000
0000
0000
,
0100
0000
0000
0000
,
0000
0000
0000
0000
,
0010
0000
0000
0000
,
0000
0000
0000
0000
,
1000
0000
0000
0000
,
0000
0000
0000
0000
,
1001
0000
0000
0000
,
0001
0000
0000
0000
,
0010
0000
0000
0000
,
0001
0000
0000
0000
,
0100
0000
0000
0000
,
0010
0000
0000
0000
,
1000
0000
0000
0000
,
0100
0000
0000
0000
,
0000
1001
0000
0000
,
0000
1000
0000
0000
,
0000
0010
0000
0000
,
0000
1000
0000
0000
,
0000
0001
0000
0000
,
0000
0010
0000
0000
,
0000
0100
0000
0000
,
0000
0010
0000
0000
,
0000
0001
0000
0000
;

//--------------- dance-single - forcednature ----------------
#NOTEDATA:;
#STEPSTYPE:dance-single;
#DESCRIPTION:forcednature;
#DIFFICULTY:Easy;
#METER:5;
#RADARVALUES:0,0,0,0,0;
#CREDIT:forcednature;
#NOTES:
0000
0000
0000
0000
,
0000
0000
0000
0000
,
0000
0000
0000
0000
,
0000
0000
0000
0000
,
0000
0000
0000
0000
,
0001
1000
0000
1000
,
0100
1000
0000
1000
,
0010
0100
0000
0100
,
0001
0010
0001
1000
,
0200
0000
0300
0000
,
2000
0000
3000
0000
,
0020
0000
0030
0000
,
0200
0000
0300
0000
,
0001
0010
0000
0010
,
0001
0100
0000
0100
,
0001
1000
0000
1000
,
0010
0100
0000
0100
,
0001
0010
0100
0010
,
0001
1000
0100
1000
,
0001
0100
0010
0100
,
0001
1000
0010
1000
,
0001
0000
0010
0100
,
0010
0010
0001
0000
,
1000
0000
0010
0100
,
0010
0010
1000
0000
,
1001
0000
0001
0010
,
0100
1000
0010
0000
,
1000
0001
0100
0001
,
1000
0000
0010
0000
,
1001
0001
0010
0110
,
0000
0001
1000
0100
,
1000
0001
0001
1000
,
0010
0100
0110
0000
,
1001
0000
1000
0100
,
0110
0000
0001
1000
,
0010
0010
1000
0001
,
0100
0010
1000
0001
,
0010
0000
0010
0000
,
0100
0000
0010
0000
,
0001
0000
0010
0000
,
0100
0000
0010
0000
,
0001
0001
1000
0000
,
1000
1000
0010
0000
,
1000
1000
0001
1000
,
0200
0000
0310
0000
,
0110
0000
1000
0001
,
0100
0100
0001
1000
,
0010
0000
0110
0001
,
1000
1000
0100
1000
,
0001
0000
1001
0001
,
0010
0010
0001
0100
,
0010
0000
0110
1000
,
0100
0100
1000
0001
,
0000
1001
1000
0010
,
0110
0000
1000
0001
,
0100
0001
1000
1000
,
0001
0010
0100
0110
,
0000
1001
0000
0001
,
0100
0110
0000
1000
,
0001
0010
0010
0001
,
1000
0100
0010
0001
,
1000
0010
0000
0000
;

//--------------- dance-single - forcednature ----------------
#NOTEDATA:;
#STEPSTYPE:dance-single;
#DESCRIPTION:forcednature;
#DIFFICULTY:Medium;
#METER:9;
#RADARVALUES:0,0,0,0,0;
#CREDIT:forcednature;
#NOTES:
0000
0000
0000
0000
,
0000
0000
0000
0000
,
0000
0000
0000
0000
,
0000
0000
0000
0000
,
0000
0000
0000
0000
,
1000
0101
0001
0010
,
0001
1100
1000
0010
,
0100
0110
0001
1000
,
0100
0110
0001
0101
,
2000
0000
0000
3010
0000
0000
0000
0000
,
0002
0000
0000
0013
0000
0000
0000
0000
,
2000
0000
0000
3100
0000
0000
0000
1000
,
0002
0003
0000
0020
0030
0200
0310
0000
,
0110
0000
0001
0000
1000
0100
0001
0000
,
0100
0000
1000
0000
0010
0100
0001
0000
,
1000
0000
0010
0000
0001
0010
1000
0000
,
0001
0000
0100
0000
0010
1000
0100
0000
,
0001
0100
1000
0000
0001
0001
0010
0000
,
0001
1000
0010
1000
0000
0001
0100
0000
,
0001
0100
1000
0000
0100
0001
0001
0000
,
1000
0010
0100
0001
0000
0010
0001
0000
,
0012
0103
2010
3100
,
0110
0000
0010
0001
1000
0001
0010
0000
,
0100
1000
0010
0000
0100
0001
0010
0000
,
0100
1000
0001
1000
0100
0020
0000
0030
,
0001
1000
0010
0000
1000
0001
0100
0000
,
1000
0100
0001
0000
1000
0001
0010
0000
,
0110
0000
1000
0010
0100
0000
0110
0000
,
0001
0010
0001
0001
2000
0000
3000
0000
,
0010
0100
0001
0000
0011
0000
1100
0000
,
0001
1000
0010
0000
1000
0001
0010
0000
,
0100
0100
0010
0000
0100
0100
1000
0000
,
0001
0010
1000
0010
0001
1000
0001
0000
,
0100
0000
0010
1000
0000
0001
0010
0000
,
0110
0000
0000
1001
0000
0000
0000
0000
2000
0000
0000
0000
3002
0000
0000
0000
,
0103
0001
0100
0010
0000
1000
0010
0000
,
1000
0100
0001
0000
0100
1000
0001
0000
,
0011
0100
0100
0001
,
1010
0100
0100
1000
,
0011
0100
0100
0001
,
1010
0100
0100
1000
,
0001
0100
0001
0000
1000
0100
1000
0000
,
0001
0010
0100
0000
1000
0010
0100
0000
,
0001
1000
0010
1000
0001
0100
0010
0100
,
0001
1000
1000
0001
0020
0000
0030
0000
,
0110
0001
1000
0010
2002
0000
3003
0000
,
0110
1000
0001
0000
0010
0010
0100
0010
,
0002
0000
0000
0000
0000
0000
0003
0000
1000
0000
0000
1000
0000
0000
0010
0000
,
0200
0000
0301
1000
0001
0000
1001
0000
,
2100
3010
0102
0013
,
0001
0001
1000
0001
0010
0100
0010
0000
,
0110
0000
0100
1000
0002
0000
0203
0000
,
0310
1000
1000
0000
0002
0023
0230
1300
,
0000
0000
1000
0010
1000
0000
1100
0000
,
0011
0000
1000
0001
0100
0000
0001
1000
,
0100
0000
0010
0010
0100
0000
0010
0010
,
0001
0000
1000
0100
0001
0100
1000
0001
,
1000
0000
0010
0000
0100
0001
0000
1000
,
0100
0000
0000
0000
0110
0000
0000
1001
0000
0000
0000
0000
0002
0000
0000
0000
,
2003
0000
3010
1000
0010
0100
0000
0001
,
0100
0000
0001
0010
1000
0000
0010
0001
,
1000
0010
0000
0000
0000
0000
0000
0000
;

//--------------- dance-single - forcednature ----------------
#NOTEDATA:;
#STEPSTYPE:dance-single;
#DESCRIPTION:forcednature;
#DIFFICULTY:Hard;
#METER:14;
#RADARVALUES:0,0,0,0,0;
#CREDIT:forcednature;
#NOTES:
0000
0000
0000
0000
,
0000
0000
0000
0000
,
0000
0000
0000
0000
,
0000
0000
0000
0000
,
0000
0000
0000
0000
,
0001
0000
1000
0000
0100
0000
1000
0001
0010
0000
0100
0000
0110
0000
0000
0000
,
0001
0000
1000
0000
0010
0000
1000
0001
0100
0000
0010
0000
0110
0000
0000
0000
,
0001
0000
1000
0000
0100
0000
1000
0010
0100
0000
0001
0000
1001
0000
0000
0000
,
1000
0000
0001
0000
0100
0000
0001
0010
0100
0000
1000
0000
1001
0000
0000
0000
,
0001
0000
0000
0010
0000
0000
0011
0000
0000
0000
1000
0000
0100
0000
0000
0000
,
1000
0000
0000
0010
0000
0000
1010
0000
0000
0000
0001
0100
0000
0000
0000
0000
,
0110
0000
0000
0000
0000
0000
1010
0000
0000
0000
0001
0000
1000
0000
0001
1000
,
0001
0000
0010
0100
0000
0110
1001
0000
,
1000
0000
0100
1000
0000
1000
0010
0000
0100
0000
0001
0100
0000
0100
0001
0000
,
0010
0000
0001
0010
0001
0000
0001
0000
0000
0100
0010
0100
0010
0000
1000
0000
,
0100
0000
1000
0100
1000
0000
0010
0000
0100
0000
0001
0100
0001
0000
0010
0001
,
0000
0000
0010
0000
0110
0000
0000
0000
1000
0000
0001
1000
0000
0001
0000
0000
,
0101
1000
1100
0001
0011
1000
1010
0001
,
0010
0000
0001
0010
0001
0000
0100
0000
0010
0000
1000
0000
0100
0000
1100
0000
,
2200
0000
0000
0000
3300
0000
0001
0010
0001
0000
0010
0001
0100
0000
0010
0100
,
0010
0000
1000
0000
0100
1000
0000
1000
0001
0000
0100
0000
0110
0000
0000
0000
,
0010
1000
0100
1000
0010
0000
0000
0000
1000
0000
0001
0000
1001
0000
0010
0000
,
1001
0000
0000
0001
0010
0000
0100
0010
0100
0000
1000
0000
0010
0000
0110
0000
,
0001
0000
0100
0001
0100
0000
0010
0000
1000
1000
0001
0000
0010
0001
0010
0000
,
0100
0000
1000
0100
0010
0100
1000
0000
0010
0000
2002
0000
0000
0000
3003
0000
,
0001
0100
0000
0001
0100
0000
0010
0100
0010
0000
1000
0000
1100
0000
0001
0000
,
0010
0100
0000
0010
0100
0000
1000
0000
1010
0000
0000
0001
0100
0000
0010
0100
,
0010
1000
0000
1000
0010
0000
0100
0000
0001
1000
0001
0000
0010
0000
0100
0010
,
0200
0000
1000
1000
0310
0001
0200
0000
,
1300
0100
0001
0000
0010
0000
0001
0000
0011
0000
0110
0000
2200
0000
3300
0000
,
0001
0000
0100
0010
1000
0000
0100
0000
0010
0100
0000
0100
0010
0000
0001
0000
,
1000
1010
0110
0000
0001
0011
0110
0000
,
1000
0000
0100
1000
0001
0000
0001
0000
0010
0100
0010
0001
1000
0000
0010
0000
,
0210
0000
0302
0023
0030
1000
0001
0000
,
0101
0000
0000
1100
0000
0000
0010
0000
0010
0000
1000
0001
1000
0000
0100
0000
,
0110
0000
0000
0010
0001
0010
0000
0100
0000
1000
0010
0000
1000
0001
0000
0001
,
0100
0000
0010
0000
1000
0100
0000
1000
0001
0000
0011
0000
0010
0100
0000
1000
,
0010
0000
0000
0000
0110
0000
1000
0000
1010
0000
0000
0000
0001
0100
0001
0000
,
0101
0000
0000
0000
0110
0000
0001
0000
0011
0000
0000
0000
1000
0100
1000
0000
,
1010
0000
0000
0000
0110
0000
1000
0000
1100
0000
0000
0000
0001
0010
0100
0000
,
0011
0000
0000
0000
0110
0000
0001
0000
0101
0000
0000
0000
1000
0001
0100
0000
,
0010
0000
0100
0001
0010
0000
0100
0000
0010
0000
0100
1000
0010
0000
0100
0000
,
0110
0000
0000
0000
0001
1000
0100
0000
1000
0001
0100
0000
0000
0100
0010
0000
,
1000
0100
1100
0001
0101
1000
1010
0001
,
0010
0100
0010
0100
0010
0100
0010
0100
2000
0000
0000
0000
3002
0000
0003
0000
,
1001
0000
1000
0010
0000
0010
0100
0000
0101
0000
0001
0010
0000
1000
0010
0000
,
0001
1000
0001
1000
0100
0000
0010
0001
0100
0000
0101
0000
0110
0000
1010
0000
,
2002
0000
0000
0000
3003
0000
0010
0000
0110
0000
0000
0110
0000
0000
1000
0000
,
1010
0000
0010
0100
0000
0100
0001
0000
0010
0001
0100
0010
1000
0000
0100
0000
,
2001
0000
0000
3001
0010
0000
0100
0000
2001
0000
0000
0000
3020
0000
0000
0000
,
0130
1000
0000
1000
0100
0000
0001
0000
0010
0001
0010
0000
0011
0000
0001
1000
,
0020
0000
0000
0000
0000
0000
0000
0000
0000
0100
0000
0000
0200
0000
0000
0000
0000
0000
0330
0000
0000
0000
0000
0000
0001
0000
0000
0000
0010
0000
0000
0000
1000
0000
0000
0000
0010
0000
0000
0000
0001
0000
0000
0000
1000
0000
0000
0000
,
0001
0000
0001
0100
0010
0000
1000
0000
1100
0000
0002
0023
0230
0000
1300
0000
,
0000
0000
0000
0000
0001
0100
1000
0000
0100
0000
0001
0000
0011
0000
0110
0000
,
2200
0000
3300
0000
1000
0000
0100
0010
0001
0000
0100
0000
0010
0100
0000
0100
,
0010
1000
0001
0011
0110
0000
1000
1010
,
0110
0000
0000
0000
0001
0000
0100
0001
1000
0000
1000
0000
0010
0100
0010
1000
,
0001
0010
0210
0000
2300
3020
0030
0001
,
1000
0000
0000
0000
1100
0000
0000
0101
0000
0000
0010
0000
0010
0000
0001
1000
,
0001
0000
0100
0000
0110
0000
0000
0010
1000
0010
0000
0100
0000
0001
0010
0000
,
0001
1000
0100
1000
0100
0000
0010
0000
0001
0100
0001
1000
0010
0000
0110
0000
,
0100
0001
1000
0010
0000
0000
0000
0000
0000
0000
0000
0000
0000
0000
0000
0000
;

//--------------- dance-double - forcednature ----------------
#NOTEDATA:;
#STEPSTYPE:dance-double;
#DESCRIPTION:forcednature;
#DIFFICULTY:Easy;
#METER:5;
#RADARVALUES:0,0,0,0,0;
#CREDIT:forcednature;
#NOTES:
00000000
00000000
00000000
00000000
,
00000000
00000000
00000000
00000000
,
00000000
00000000
00000000
00000000
,
00000000
00000000
00000000
00000000
,
00000000
00000000
00000000
00000000
,
00010000
00001000
00000000
00001000
,
01000000
00001000
00000000
00001000
,
00010000
00000100
00000000
00000100
,
00001000
00000010
00000100
00000001
,
00002000
00000000
00003000
00000000
,
00000200
00000000
00000300
00000000
,
00020000
00000000
00030000
00000000
,
00002000
00000000
00003000
00000000
,
00010000
00001000
00000000
00001000
,
00100000
00010000
00000000
00010000
,
01000000
00100000
00000000
00100000
,
10000000
01000000
00000000
01000000
,
00100000
00010000
00100000
00001000
,
00010000
00001000
00010000
00000100
,
00001000
00000010
00000100
00000010
,
00000100
00000001
00001000
00000100
,
00001000
00000000
00000100
00010000
,
00001000
00001000
00010000
00000000
,
00001000
00000000
00100000
00010000
,
00100000
00100000
01000000
00000000
,
10010000
00000000
10000000
00100000
,
01000000
00010000
00100000
00000000
,
00001000
00010000
00000100
00010000
,
00001000
00000000
00010000
00000000
,
00011000
00010000
00001000
00011000
,
00000000
00000100
00001000
00000010
,
00000100
00000001
00000001
00000100
,
00000010
00000100
00000110
00000000
,
00001001
00000000
00001000
00000100
,
00000110
00000000
00000010
00000100
,
00001000
00001000
00000100
00010000
,
00001000
01000000
00010000
01000000
,
00100000
00000000
00100000
00000000
,
10000000
00000000
00100000
00000000
,
01000000
00000000
01000000
00000000
,
00010000
00000000
01000000
00000000
,
00001000
00001000
00010000
00000000
,
00010000
00010000
00001000
00000000
,
00001000
00010000
00001000
00010000
,
00002000
00000000
00013000
00000000
,
00011000
00000000
00000100
00001000
,
00000100
00000100
00000010
00000001
,
00001000
00000000
00001001
00000001
,
00000100
00000100
00000010
00001000
,
00000010
00000000
00011000
00010000
,
00001000
00001000
00010000
00001000
,
00100000
00000000
01100000
00010000
,
01000000
01000000
00010000
10000000
,
00000000
10010000
00010000
00100000
,
01100000
00000000
01000000
10000000
,
01000000
00100000
00001000
00001000
,
00010000
00000100
00010000
00011000
,
00000000
00000010
00001000
00000010
,
00000100
00000110
00000000
00000001
,
00000100
00000001
00000001
00001000
,
00000100
00010000
00001000
00100000
,
00010000
01000000
00000000
00000000
;

//--------------- dance-double - forcednature ----------------
#NOTEDATA:;
#STEPSTYPE:dance-double;
#DESCRIPTION:forcednature;
#DIFFICULTY:Medium;
#METER:9;
#RADARVALUES:0,0,0,0,0;
#CREDIT:forcednature;
#NOTES:
00000000
00000000
00000000
00000000
,
00000000
00000000
00000000
00000000
,
00000000
00000000
00000000
00000000
,
00000000
00000000
00000000
00000000
,
00000000
00000000
00000000
00000000
,
00001000
00011000
00100000
00010000
,
01000000
01100000
10000000
01000000
,
00100000
00011000
00000100
00001000
,
00000010
00011000
00000100
00011000
,
00200000
00000000
00000000
00310000
00000000
00000000
00000000
00000000
,
02000000
00000000
00000000
03010000
00000000
00000000
00000000
00000000
,
20000000
00000000
00000000
30010000
00000000
00000000
00000000
00100000
,
00002000
00003000
00000000
00020000
00030000
00020000
00031000
00000000
,
00011000
00000000
00000100
00000000
00001000
00000010
00000100
00000000
,
00001000
00000000
00000100
00000000
00000001
00001000
00000010
00000000
,
00010000
00000000
00001000
00000000
01000000
00010000
00100000
00000000
,
10000000
00000000
00100000
00000000
00010000
01000000
00001000
00000000
,
00010000
00010000
00001000
00000000
00001000
00001000
00010000
00000000
,
00000100
00001000
00000010
00001000
00000000
00000001
00000100
00000100
,
00000100
00000000
00000010
00000000
00001000
00000100
00000100
00000000
,
00010000
00001000
00100000
00001000
00000000
00010000
00000100
00000000
,
00021000
00030010
00012000
00103000
,
00101000
00000000
00100000
00010000
01000000
00010000
01000000
00000000
,
00100000
10000000
01000000
00000000
00100000
00001000
00010000
00000000
,
00000100
00001000
00000010
00001000
00000001
00000200
00000000
00000300
,
00000010
00001000
00000100
00000000
00010000
00001000
01000000
00000000
,
00010000
00100000
01000000
00000000
10000000
00010000
01000000
00000000
,
00011000
00000000
00000100
00001000
00000010
00000000
00000110
00000000
,
00000100
00000001
00000100
00000100
00000020
00000000
00000030
00000000
,
00001000
00000100
00000001
00000000
00000101
00000000
00001100
00000000
,
00001000
00000010
00010000
00000000
00001000
01000000
00010000
00000000
,
00100000
00100000
00010000
00000000
01000000
01000000
00010000
00000000
,
10000000
00100000
00010000
00000000
00001000
00010000
00001000
00000000
,
00011000
00000000
00000100
00001000
00000000
00000001
00000010
00000000
,
00000110
00000000
00000000
00001001
00000000
00000000
00000000
00000000
00000002
00000000
00000000
00000000
00002003
00000000
00000000
00000000
,
00003100
00010000
00001000
00010000
00000000
00001000
00100000
00000000
,
00010000
01000000
10000000
00000000
01000000
00010000
10000000
00000000
,
10100000
01000000
01000000
00010000
,
00110000
00001000
00001000
00010000
,
00011000
00000100
00000100
00001000
,
00001010
00000001
00000001
00000100
,
00000010
00001000
00000100
00000000
00000100
00010000
00001000
00000000
,
00001000
00100000
00010000
00000000
00010000
01000000
00100000
00000000
,
10000000
01000000
00100000
01000000
10000000
01000000
00010000
01000000
,
00100000
00100000
00001000
00010000
00000200
00000000
00000300
00000000
,
00000110
00001000
00000001
00000100
00002002
00000000
00003003
00000000
,
00001100
00010000
00001000
00100000
00010000
00010000
01000000
00100000
,
20000000
00000000
00000000
00000000
00000000
00000000
30000000
00000000
01000000
00000000
00000000
01000000
00000000
00000000
00010000
00000000
,
00002000
00000000
00103000
00001000
00010000
00000000
00011000
00000100
,
00002100
00003010
00000102
00000013
,
00001000
00001000
00000100
00010000
00001000
00100000
00001000
00000000
,
00011000
00000000
01000000
00010000
20000000
00000000
30200000
00000000
,
01300000
00010000
00010000
00000000
00200000
00302000
00023000
00030100
,
00000000
00000000
00010000
01000000
10000000
00000000
11000000
00000000
,
01010000
00000000
00010000
00100000
00001000
00000000
00010000
00000100
,
00001000
00000000
00000010
00000010
00001000
00000000
00000100
00000100
,
00001000
00000000
00000001
00000010
00001000
00000000
00010000
00001000
,
00010000
00000000
00011000
00000000
01000000
00010000
00000000
10000000
,
00100000
00000000
00000000
00000000
01100000
00000000
00000000
10010000
00000000
00000000
00000000
00000000
20000000
00000000
00000000
00000000
,
30020000
00000000
01030000
00001000
00010000
00001000
00000000
00010000
,
00000010
00000000
00001000
00000100
00000001
00000000
00000100
00001000
,
00000001
00000010
00000000
00000000
00000000
00000000
00000000
00000000
;

//--------------- dance-double - forcednature ----------------
#NOTEDATA:;
#STEPSTYPE:dance-double;
#DESCRIPTION:forcednature;
#DIFFICULTY:Hard;
#METER:14;
#RADARVALUES:0,0,0,0,0;
#CREDIT:forcednature;
#NOTES:
00000000
00000000
00000000
00000000
,
00000000
00000000
00000000
00000000
,
00000000
00000000
00000000
00000000
,
00000000
00000000
00000000
00000000
,
00000000
00000000
00000000
00000000
,
00011000
00000000
00000000
00000000
00001000
00000000
00010000
00000100
00001000
00000000
00000010
00000000
00001010
00000000
00000000
00000000
,
00000001
00000000
00000100
00000000
00000001
00000000
00000010
00000100
00001000
00000000
00000100
00000000
00001100
00000000
00000000
00000000
,
00010000
00000000
00001000
00000000
00100000
00000000
00010000
00100000
01000000
00000000
10000000
00000000
11000000
00000000
00000000
00000000
,
10000000
00000000
00100000
00000000
01000000
00000000
00010000
00100000
00001000
00000000
00010000
00000000
00011000
00000000
00000000
00000000
,
00000100
00000000
00000000
00001000
00000000
00000000
00001010
00000000
00000000
00000000
00010000
00000000
00001000
00000000
00000000
00000000
,
01000000
00000000
00000000
00010000
00000000
00000000
00110000
00000000
00000000
00000000
00001000
00010000
00000000
00000000
00000000
00000000
,
00010100
00000000
00000000
00000000
00000000
00000000
00101000
00000000
00000000
00000000
00010000
00000000
10000000
00000000
00010000
10000000
,
00010000
00000000
00100000
01000000
00000000
01100000
10010000
00000000
,
10000000
00000000
01000000
10000000
00000000
10000000
00100000
00000000
01000000
00000000
00010000
01000000
00000000
01000000
00010000
00000000
,
00100000
00000000
00001000
00100000
00001000
00000000
00010000
00000000
00000000
00001000
00010000
00001000
00010000
00000000
00000100
00000000
,
00001000
00000000
00000010
00001000
00000010
00000000
00000100
00000000
00000001
00000000
00000010
00000001
00000010
00000000
00000100
00000010
,
00000000
00000000
00000100
00000000
00000110
00000000
00000000
00000000
00000001
00000000
00001000
00000001
00000000
00001000
00000000
00000000
,
00000010
00000100
00001000
00010000
00100000
01000000
00100000
00010000
,
00001000
00000000
00010000
00001000
00010000
00000000
00001000
00000000
00100000
00000000
00010000
00000000
01000000
00000000
01100000
00000000
,
02200000
00000000
00000000
00000000
03300000
00000000
00010000
10000000
00010000
00000000
10000000
01000000
00100000
00000000
01000000
00100000
,
01000000
00000000
00100000
00000000
00001000
00010000
00000000
00010000
00001000
00000000
00010000
00000000
00011000
00000000
00000000
00000000
,
00000100
00001000
00000010
00001000
00000100
00000000
00000000
00000000
00010000
00000000
00001000
00000000
00011000
00000000
00100000
00000000
,
00011000
00000000
00000000
01000000
00010000
00000000
01000000
00100000
01000000
00000000
00100000
00000000
10000000
00000000
01100000
00000000
,
00010000
00000000
01000000
00010000
01000000
00000000
00001000
00000000
00010000
00010000
00001000
00000000
00010000
00000100
00010000
00000000
,
00000100
00000000
00001000
00000010
00000100
00000010
00001000
00000000
00000001
00000000
00002002
00000000
00000000
00000000
00003003
00000000
,
00001000
00000100
00000000
00001000
00000100
00000000
00010000
00001000
00010000
00000000
00001000
00000000
00011000
00000000
00100000
00000000
,
00010000
01000000
00000000
00010000
01000000
00000000
00100000
00000000
01100000
00000000
00000000
10000000
00010000
00000000
00100000
00010000
,
00100000
00001000
00000000
00001000
00010000
00000000
00000100
00000000
00010000
00001000
00010000
00000000
00000010
00000000
00001000
00000010
,
00002000
00000000
00003001
00000100
00001000
00010000
00200000
00000000
,
10300000
01000000
00010000
00000000
00001000
00000000
00100000
00000000
00110000
00000000
00011000
00000000
00002200
00000000
00003300
00000000
,
00000001
00000000
00000100
00000010
00001000
00000000
00000100
00000000
00010000
00001000
00000000
00001000
00010000
00000000
00001000
00000000
,
00100000
00010000
00100000
00000000
00011000
00000000
00000000
00000000
00000010
00001000
00000010
00000000
00011000
00000000
00000000
00000000
,
00000100
00000000
00001000
00000001
00000100
00000000
00000100
00000000
00001000
00010000
00001000
00010000
00100000
00000000
01000000
00000000
,
01200000
00000000
20300000
30020000
00030000
00110000
00101000
00000000
,
00010100
00000000
00000000
00001020
00000000
00000000
00000100
00000000
00000130
00000000
00000001
00001000
00000001
00000000
00000010
00000000
,
00000110
00000000
00001000
00000000
00000100
00010000
00000000
00010000
00001000
00100000
00010000
00000000
01000000
00010000
00000000
00010000
,
10000000
00100000
10000000
00000000
01000000
00100000
00000000
00100000
00010000
01000000
00001000
00000000
00011000
00000000
00010000
00000100
,
00000010
00000000
00000000
00000000
00000001
00000000
00000100
00000000
00001000
00000000
00010000
00001000
00000000
00001000
00010000
00000000
,
00100000
00000000
00000000
00000000
10000000
00000000
01000000
00000000
00010000
00000000
00001000
00010000
00001000
00000000
00001000
00000000
,
00000010
00000000
00000000
00000000
00000001
00000000
00000100
00000000
00001000
00000000
00010000
00001000
00000000
00001000
00010000
00000000
,
00100000
00000000
00000000
00000000
10000000
00000000
01000000
00000000
00010000
00000000
00001000
00010000
00001000
00000000
00000010
00000000
,
00000110
00000000
00000001
00000100
00001000
00000000
00001000
00000000
00010000
00000000
00001000
00010000
00100000
00000000
00100000
00000000
,
10010000
00000000
00000000
00000000
10000000
01000000
00100000
00000000
00010000
01000000
00100000
00000000
00000000
10000000
00010000
00000000
,
00100000
00001000
00011000
00000100
00001100
00000010
00000110
00000001
,
00000010
00000100
00000010
00000100
00000010
00000100
00000010
00000100
00020000
00000000
00000000
00000000
00032000
00000000
00003000
00000000
,
00011000
00000000
00100000
00010000
01000000
00000000
00100000
00000000
01100000
00000000
10000000
01000000
00000000
00010000
01000000
00000000
,
00100000
00010000
00100000
01000000
00010000
00000000
00001000
00010000
00001000
00000000
00011000
00000000
00010100
00000000
00001100
00000000
,
00002020
00000000
00000000
00000000
00003030
00000000
00000001
00000000
00000101
00000000
00000000
00000101
00000000
00000000
00001000
00000000
,
00001100
00000000
00010000
00001000
00000000
00001000
00100000
00000000
00010000
01000000
00100000
10000000
01000000
00000000
00010000
00000000
,
00012000
00000000
00000000
00003010
00000100
00000000
00000000
00000000
00021000
00000000
00000000
00000000
00230000
00000000
00000000
00000000
,
01300000
10000000
00000000
10000000
01000000
00000000
00010000
00000000
00100000
00001000
00010000
00000000
00011000
00000000
00001000
00010000
,
00000200
00000000
00000000
00000000
00000000
00000000
00000000
00000000
00000000
00000010
00000000
00000000
00000020
00000000
00000000
00000000
00000000
00000000
00000330
00000000
00000000
00000000
00000000
00000000
00000001
00000000
00000000
00000000
00000100
00000000
00000000
00000000
00001000
00000000
00000000
00000000
00010000
00000000
00000000
00000000
01000000
00000000
00000000
00000000
10000000
00000000
00000000
00000000
,
00100000
00000000
00100000
10000000
00010000
00000000
00100000
00000000
01100000
00000000
02000000
03020000
00032000
00000000
00003010
00000000
,
00000000
00000000
00000000
00000000
00000001
00000100
00001000
00000000
00010000
00000000
00000010
00000000
00001010
00000000
00011000
00000000
,
02020000
00000000
03030000
00000000
10000000
00000000
01000000
00100000
00010000
00000000
01000000
00000000
00001000
00010000
00000000
00010000
,
00001000
00000000
00010000
00000000
00000010
00001000
00000010
00000000
00011000
00000000
00000000
00000000
00100000
00010000
00100000
00000000
,
00011000
00000000
00000000
00000000
01000000
00000000
00010000
10000000
01000000
00000000
01000000
00000000
00010000
00001000
00010000
00001000
,
00000010
00000100
00000120
00000000
00000032
00002003
00003000
00001010
,
00010010
00000000
00000000
00000000
01001000
00000000
00000000
00210000
00000000
00000000
01000000
00000000
01300000
00000000
10000000
00010000
,
10000000
00000000
00100000
00000000
01100000
00000000
00010000
00000000
01000000
00001000
00000000
00001000
00010000
00000010
00001000
00000000
,
00000100
00001000
00000000
00001000
00000001
00000010
00000001
00000000
00000100
00000010
00000000
00000010
00001000
00000100
00010000
00000000
,
00011000
00000000
00001000
01000000
00000000
00000000
00000000
00000000
00000000
00000000
00000000
00000000
00000000
00000000
00000000
00000000
;
