#VERSION:0.83;
#TITLE:EXODUS SIGN;
#SUBTITLE:;
#ARTIST:Blacklolita;
#TITLETRANSLIT:;
#SUBTITLETRANSLIT:;
#ARTISTTRANSLIT:;
#GENRE:TEAROUT BREAKS;
#CREDIT:;
#MUSIC:EXODUS SIGN.ogg;
#BANNER:EXODUS SIGN.png;
#BACKGROUND:EXODUS SIGN-bg.png;
#CDTITLE:./CDTitles/bm IIDX 30 RESIDENT.png;
#SAMPLESTART:60.102;
#SAMPLELENGTH:15.000;
#SELECTABLE:YES;
#OFFSET:0.690;
#BPMS:0.000=150.000
,52.000=75.000
,53.500=150.000
,82.500=64.275
,84.000=150.000
,100.000=300.000
,101.500=60.000
,102.000=150.000
,145.000=300.000
,146.000=150.000
,146.500=75.000
,147.000=150.000
,175.000=75.000
,176.000=150.000
,238.000=75.000
,239.000=150.000
,255.000=300.000
,257.000=150.000
;
#STOPS:53.500=0.200
,114.000=0.400
,175.000=0.800
;
#TIMESIGNATURES:0.000=4=4,
52.000=2=4,
54.000=4=4,
82.000=2=4,
84.000=4=4,
112.000=3=4,
115.000=4=4,
175.000=1=4,
176.000=4=4,
236.000=3=4,
239.000=4=4,
255.000=5=4,
260.000=4=4
;
#DISPLAYBPM:150.000;
#BGCHANGES:3.000=EXODUS SIGN.mp4=1.000=0=0=0=StretchNoLoop====,
99999.000=-nosongbg-=1.000=0=0=0=StretchNoLoop====
;
#FGCHANGES:;

//--------------- dance-single - forcednature ----------------
#NOTEDATA:;
#STEPSTYPE:dance-single;
#DESCRIPTION:forcednature;
#DIFFICULTY:Beginner;
#METER:4;
#RADARVALUES:0,0,0,0,0;
#CREDIT:forcednature;
#NOTES:
0000
0000
0000
0000
,
0000
0000
0000
0000
,
0000
0000
0000
0000
,
0000
0000
0000
0000
,
0000
0000
0000
0000
,
0000
0000
0000
0000
,
0001
0000
1000
0000
,
0000
0000
1000
0000
,
0010
0000
0100
0000
,
0000
0000
0010
0000
,
2002
0000
0000
0000
,
0000
0000
3003
0000
,
1000
0001
1000
0001
,
0020
0000
0000
0030
0200
0000
0000
0000
,
0000
0000
0000
0000
,
0300
0000
1001
0000
,
1000
0000
0010
0000
,
1000
0000
1001
0000
,
0001
0000
0010
0000
,
0001
0000
1001
0000
,
1000
0000
0000
0000
0000
0020
0000
0000
,
0030
0000
0100
0000
,
0001
0000
0100
0000
,
0010
0000
1000
0000
,
0001
0000
0010
0000
,
2002
0000
3003
0000
,
0001
0000
0010
0000
,
0001
0000
0100
0000
,
0020
0000
0030
1000
,
1000
0001
0000
1000
,
0001
1000
0000
0001
,
0001
1000
0000
0001
,
1000
0001
0000
0100
,
0100
0010
0000
0100
,
0010
0100
0000
0001
,
0001
1000
0000
0200
,
0300
0020
0030
1001
,
0000
0100
0000
1001
,
0000
0010
0000
1001
,
0000
0100
0000
0020
,
0000
0030
0000
0001
,
0100
0001
0000
1000
,
0100
1000
0000
0010
,
0010
0100
0000
1001
,
1000
0000
0010
0000
,
1000
0000
0100
0000
,
0010
0000
0001
0001
,
0010
0000
0100
0000
,
1001
0000
0001
0000
,
0100
0000
0001
0000
,
0020
0000
0030
0100
,
0020
0000
0030
0100
,
1000
0000
0001
0000
,
0100
0000
0001
0000
,
1000
0000
1000
0000
,
0010
0000
1000
0000
,
0001
0000
0010
0000
,
0001
0000
0100
0000
,
0020
0000
0030
0100
,
0020
0000
0030
2002
,
0000
0000
0000
0000
,
0000
3003
0000
1000
,
1000
0010
0000
1000
,
1000
0010
0000
2002
,
0000
3003
0000
0000
,
0001
0100
0001
0100
,
0010
1000
0010
1000
,
0000
2002
0000
0000
0000
3003
0000
0000
,
0001
0010
0000
0010
,
0001
0100
0000
0100
,
0010
1000
0001
0100
,
0020
0000
0000
0030
;

//--------------- dance-single - forcednature ----------------
#NOTEDATA:;
#STEPSTYPE:dance-single;
#DESCRIPTION:forcednature;
#DIFFICULTY:Easy;
#METER:8;
#RADARVALUES:0,0,0,0,0;
#CREDIT:forcednature;
#NOTES:
0000
0000
0000
0000
,
0000
0000
0000
0000
,
0000
0000
0000
0000
,
0000
0000
0000
0000
,
0000
0000
0000
0000
,
0000
0000
0000
0000
,
1000
0001
0010
0001
,
0000
0100
0010
1000
,
0002
0003
0020
0030
,
0200
0300
2002
3003
,
1000
1000
0010
1000
,
0001
0001
0010
0001
,
1000
0010
0100
0001
,
2002
0000
0000
3003
0220
0000
0000
0000
,
0000
0000
0000
0000
,
0330
0000
0000
0000
0001
0000
1000
0001
,
1000
0010
1000
0001
,
1001
0000
0000
0000
1000
0000
0001
1000
,
0001
0010
0001
1000
,
1001
0000
0000
0000
0001
0000
1000
0100
,
1000
0000
0100
0000
0000
0220
0000
0000
,
0330
0010
0001
0000
,
0100
0001
0100
0000
0010
0000
0100
0000
,
0001
0000
0010
0100
0010
0000
0100
0000
,
1000
0001
1000
0000
0020
0000
0130
0000
,
2002
0000
3003
0001
,
0010
0001
0010
0000
0100
0000
0010
0000
,
0001
0000
1000
0001
1000
0000
0010
0000
,
0200
0001
0310
1010
,
1000
0010
1000
0000
0100
0000
0011
0000
,
0001
0010
0001
0000
0100
0000
1001
0000
,
1000
0100
1000
0000
0010
0000
1001
0000
,
0001
0100
0001
0000
0010
0000
0110
0000
,
1000
0100
1000
0000
0010
0000
0110
0000
,
0001
0100
0001
0000
0010
0000
0011
0000
,
1000
0010
1000
0000
0100
0000
0010
0000
,
0001
0000
0000
0000
2002
0000
0000
0000
0000
0000
3003
0000
1000
0000
0000
0010
,
0000
0000
1000
0000
1010
0000
0000
0000
0000
0000
0000
0000
0001
0000
0000
0010
,
0000
0000
0001
0000
0011
0000
0000
0000
0000
0000
0000
0000
1000
0000
0000
0100
,
0000
1000
1100
0000
0000
0000
0002
0000
,
0203
0000
0310
1000
0010
0000
1010
0000
,
1010
1100
1100
0011
,
0011
0000
0101
0000
0101
0000
0100
0010
,
0100
0000
0001
1000
0001
0000
1001
0000
,
2000
3000
0100
1000
,
0010
0100
0202
0303
,
0002
0000
0000
0000
1000
0000
0000
1000
0000
0000
1003
0000
0001
0000
1000
0000
,
0001
0110
2002
3003
,
0002
0003
0010
0001
,
0100
0000
0010
0100
0010
0000
0000
0000
,
1000
0000
1000
0100
0000
0100
0010
0000
,
0001
0000
0001
0010
0000
0010
0100
0000
,
2000
3010
0100
0001
,
0020
0031
0110
0000
,
2000
0000
0000
0000
0010
0000
0000
0010
0000
0000
3010
0000
1000
0000
0000
0000
,
1001
0110
2002
3003
,
1000
0010
1000
0100
,
0010
0000
0001
0010
0002
0000
0003
0000
,
1000
0000
1000
0010
0000
0010
0100
0000
,
0001
0000
0001
0010
0200
0300
2002
0000
,
0000
0000
0000
0000
,
0000
3003
0000
0002
,
0023
2030
3020
0032
,
0203
2300
3200
0302
,
0000
0000
0003
0000
1000
0000
1000
0010
,
0000
0010
0000
0000
0100
0000
0000
0100
0000
0000
0001
0000
0000
0010
0000
0000
,
0100
0000
0000
1000
0000
0000
0010
0000
0000
0010
0000
0000
0100
0000
0010
0000
,
0000
2002
0000
0000
0000
0000
3003
0000
,
1000
0100
1000
0000
0010
0000
0110
0000
,
0100
0001
0100
0000
0001
0000
1001
0000
,
0001
0010
0001
0000
1000
0000
1010
0000
,
0100
0000
0000
0100
0000
0000
0200
0000
0000
0000
0000
0000
0300
0000
0000
0000
;

//--------------- dance-single - forcednature ----------------
#NOTEDATA:;
#STEPSTYPE:dance-single;
#DESCRIPTION:forcednature;
#DIFFICULTY:Medium;
#METER:12;
#RADARVALUES:0,0,0,0,0;
#CREDIT:forcednature;
#NOTES:
0000
0000
0000
0000
,
0000
0000
0000
0000
,
0000
0000
0000
0000
,
0000
0000
0000
0000
,
0000
0000
0000
0000
,
0000
0000
0000
0000
,
1000
0000
0000
0001
0000
0000
0010
0000
0001
0000
0000
0100
0000
0000
0010
0000
,
0000
0000
1000
0000
0100
0000
0010
0000
0001
0000
0000
1000
0000
0000
0001
0000
,
0100
0000
0000
0010
1000
0000
0100
0010
,
0000
0001
0001
1000
0020
0000
0030
0000
,
0101
0000
0001
0100
0001
0100
1000
0100
,
0001
0000
0001
0010
0001
0010
1000
0010
,
0001
1000
0010
0100
0001
1000
0100
0010
,
0002
0000
0000
0003
2020
0000
0000
0000
,
0000
0030
0100
0100
,
0002
0000
3003
0000
0001
0010
0100
0010
,
0001
0100
0010
0000
1000
0100
0010
0001
,
0100
0000
0000
0000
1001
0000
0000
0000
0001
0000
0010
0000
0000
0010
0000
0000
,
0001
0000
0100
0000
0000
0100
0000
0000
0001
0000
0010
0000
0000
0010
0000
0000
,
0100
1000
0001
0000
1000
0010
0100
0010
,
1000
0100
0010
0000
0000
2002
0000
0000
,
3003
0000
0000
0000
0100
0100
0010
0000
,
1000
0010
0001
0010
1000
0001
1000
0000
,
0001
0000
0010
0000
0100
0000
0000
0010
0000
0000
0001
0000
0000
0100
0000
0000
,
0010
1000
0100
1000
0002
0000
0013
0000
,
2002
0000
3003
0000
,
1000
0010
0100
0010
0001
0010
0100
0010
,
1000
0000
0100
0000
0010
0000
0000
0001
0000
0000
0100
0000
0000
0010
0000
0000
,
1000
0000
0001
0000
0001
0000
0000
0000
2002
3003
0000
0000
1000
0000
1000
0000
,
0100
0001
0100
1000
0001
1000
0100
0001
,
0100
1000
0002
0000
0003
0000
0001
0001
,
0100
1000
0100
0001
1000
0001
0100
1000
,
0100
0001
1000
0020
0000
0030
1000
0100
,
0010
0100
1000
0010
0001
0010
1000
0100
,
0010
0001
0100
0020
0000
0030
0100
0001
,
0010
0100
0010
0001
0100
0010
2000
0000
,
0100
0000
0000
0000
0002
0000
0000
0000
0000
0000
3003
0000
0011
0000
0000
0011
,
0000
0000
1000
0000
2200
0000
0000
0000
3300
0000
0000
0000
1010
0000
0000
1010
,
0000
0000
0001
0000
0202
0000
0000
0000
0303
0000
0000
0000
0110
0000
0000
0110
,
0000
0010
2002
0000
3003
0000
0001
0100
,
0010
1000
0001
0010
0100
1000
0020
0000
,
1000
0100
0001
0230
,
1000
0000
0010
0000
0001
0000
0310
0100
,
0010
0100
0001
0010
0100
1000
1001
0000
,
0001
0000
0000
0001
0000
0000
0010
0000
0000
0000
0000
0000
0001
0000
0100
0000
0001
0000
0100
0000
0010
0000
0100
0000
,
0020
2030
3200
0300
,
0010
0000
0001
0000
0100
0000
0000
0100
0000
0000
0100
0000
0010
0000
1000
0000
,
1001
0110
2002
3003
,
1000
0000
0000
0010
0000
0000
1000
0000
0000
0000
0000
0000
0100
0000
1000
0000
0100
0000
1000
0000
0000
0000
0010
0000
,
0200
0000
0301
0010
0100
1000
0000
0000
,
0010
0001
0010
1000
0010
0001
0000
0010
,
1000
0100
0001
0100
1000
0002
0000
0000
,
0013
0000
0000
0010
0000
0000
0001
0000
0000
0000
0000
0000
0100
0000
0001
0000
0100
0000
0010
0000
0100
0000
0010
0000
,
0100
0000
0010
1000
0001
0020
0000
0030
,
0100
0000
1000
0000
0010
0000
0000
0010
0000
0000
0010
0000
0100
0000
0001
0000
,
1001
0110
2002
3003
,
1000
0000
0000
0010
0000
0000
0100
0000
0000
0000
0000
0000
0001
0000
0010
0000
0001
0000
0010
0000
0000
0000
0100
0000
,
0010
0001
1000
0001
0100
0020
0000
0030
,
1000
0100
0001
0100
1000
0001
0000
1000
,
0010
0000
0001
0000
0010
0000
1000
0000
0002
0000
0000
0000
0103
0000
0000
2002
,
0000
0000
0000
0000
,
0000
0000
0000
3003
0000
0000
0001
0000
0000
0010
0000
0000
0010
0000
0000
0000
0000
0000
0001
0000
0100
0000
0001
0000
,
0100
0010
0100
0010
1000
0001
0100
0000
0000
0001
0010
0001
,
0010
0100
0010
0100
1000
0001
0100
0000
0000
2002
0000
0000
,
0000
0000
0000
0000
3003
0000
0000
0000
1020
0000
0000
0000
0130
0000
0001
1000
,
0000
0001
1000
0000
0100
1000
0000
0100
1000
0000
0010
0100
0000
0010
0100
0000
,
0001
0010
0000
0001
0010
0000
0001
0100
0000
0001
0100
0000
0010
0000
1000
0000
,
0100
0020
0000
0000
0000
0000
0030
0000
,
0001
0000
0100
0000
1000
0000
0100
0001
0000
0100
0001
0000
0010
0000
0000
0000
,
1000
0000
0100
0000
0001
0000
0100
1000
0000
0100
1000
0000
0010
0000
0000
0000
,
0100
0000
0001
0000
0010
0000
0100
1000
0000
0100
1000
0000
0010
0000
0000
0000
,
1001
0000
0000
0110
0000
0000
2002
0000
0000
0000
0000
0000
3003
0000
0000
0000
;

//--------------- dance-single - forcednature ----------------
#NOTEDATA:;
#STEPSTYPE:dance-single;
#DESCRIPTION:forcednature;
#DIFFICULTY:Hard;
#METER:16;
#RADARVALUES:0,0,0,0,0;
#CREDIT:forcednature;
#NOTES:
0000
0000
0000
0000
,
0000
0000
0000
0000
,
0000
0000
0000
0000
,
0000
0000
0000
0000
,
0000
0000
0000
0000
,
0000
0000
0000
0000
,
1000
0100
1000
0100
0010
0001
0010
0001
1000
0000
0000
0010
0000
0000
0100
0000
,
0000
0000
0001
1000
0001
0010
0100
1000
0001
0000
0000
0100
0000
0000
0010
0000
,
1000
0000
0000
0000
0100
1000
0100
0010
0001
0000
0000
0100
0000
0000
0001
0000
,
0000
0000
0010
0001
1000
0001
0010
0001
0200
0000
0000
0000
0300
0000
0000
0000
,
1010
0000
1000
0100
0010
0000
0100
0010
0001
0000
0100
0010
1000
0000
0001
0000
,
1001
0000
0001
0010
0100
0000
0010
0100
1000
0000
0001
1000
0010
0000
0100
0000
,
0110
0000
0010
1000
0001
0000
0010
0100
1000
0000
0010
0100
0001
0000
1000
0100
,
0020
0000
0000
0130
2002
0000
0000
0000
,
0000
0000
0000
0000
0003
0000
0000
0000
0001
0000
0000
0001
0000
0000
3001
0000
,
1010
0000
0100
0000
0001
0000
0000
0000
1001
0000
1000
0000
0001
0010
0100
0010
,
0001
0000
0000
0000
0000
0000
1000
0000
0000
0000
0000
0000
0001
0000
0000
0000
0000
0000
0010
0000
0000
0100
0000
0000
1000
0000
0000
0000
0000
0000
0001
0000
0000
0000
0000
0000
1000
0000
0000
0000
0000
0000
0100
0000
0010
0000
0100
0000
,
0010
0000
0000
0000
0001
0000
0000
0000
1001
0000
1000
0010
0000
1000
0010
0000
,
0001
0000
0010
1000
0000
0010
1000
0000
0001
0000
0100
1000
0000
0100
1000
0000
,
0100
0000
0001
0000
0010
0000
0000
0000
1001
0000
0001
0000
1000
0100
0010
0100
,
1000
0000
0001
0000
1000
0000
0001
0010
0100
0000
0210
0000
0000
0000
0000
0000
,
1300
0000
0000
1010
0000
0000
0010
0100
0001
0000
0010
0000
0011
0000
0000
0000
,
0001
0000
0000
1000
0000
0000
0001
0000
0000
0010
0100
0010
0100
0000
0000
1000
0000
0000
0001
0000
0000
0100
0010
0100
,
0010
0000
1000
0000
0100
0010
0000
0001
0100
0000
0010
1000
0000
0100
0010
0000
,
0001
0100
0001
0100
0010
1000
0001
0100
0010
0000
1000
0100
0010
0000
0001
0000
,
0201
0000
0000
0000
1300
0100
0001
0000
,
0010
0000
0000
0001
0000
0000
0100
0000
0000
0010
0100
0010
0100
0000
0000
1000
0000
0000
0100
0000
0000
0001
1000
0001
,
1000
0000
0100
0000
0010
0100
0000
1000
0010
0000
0100
0001
0000
0010
0100
0000
,
1000
0001
0100
0001
0010
0001
0000
0100
0020
0030
0000
0000
1000
0100
1000
0100
,
0010
0000
0100
0001
0000
0100
1000
0000
0001
0000
0010
0000
0001
0100
0001
0100
,
0010
0000
0100
1000
0000
0100
0001
1000
0010
1000
0001
0000
0010
0001
0010
0001
,
0100
0000
0010
0100
0000
1000
0100
0000
0001
0000
1000
0000
0010
1000
0010
1000
,
0100
0000
0010
0100
0000
0001
0100
1000
0100
0000
0010
0000
0001
1000
0001
1000
,
0010
0000
0100
0010
1000
0010
0100
0000
0001
0010
0100
0000
1000
0001
1000
0001
,
0010
0000
0100
1000
0100
0010
0001
1000
0010
1000
0001
0010
0100
1000
0100
1000
,
0001
0000
0100
0010
1000
0010
0100
0000
0002
0000
0023
0000
0230
0000
2300
3002
,
0003
0200
0300
0000
2002
0000
0000
0000
0000
0000
3003
0000
1100
0000
0000
0011
,
0000
0000
0110
0000
1001
0000
0001
0100
0000
0001
0100
0000
0011
0000
0000
1100
,
0000
0000
0110
0000
1001
0000
1000
0000
0010
0100
0001
0000
1001
0000
0000
1100
,
0000
0000
0101
0000
0110
0000
0001
1000
0000
0010
1000
0000
0001
0010
0100
1000
,
0001
0100
0010
1000
0200
0000
0320
0000
0032
0000
2003
0000
3010
0000
0010
0100
,
0001
0000
0001
0010
0100
0000
0100
1000
0001
0000
0001
0100
0010
0000
1000
0100
,
0010
0000
0010
0001
1000
0000
1000
0010
0100
0000
0100
0001
0010
0000
0100
0000
,
0010
0000
0100
0000
1000
0001
0100
0010
1000
0001
0010
0100
1000
0000
0000
0000
,
0001
0000
0000
1000
0001
1000
0002
0000
0000
0003
0000
0000
0010
0000
0100
0000
1000
0000
0100
0000
0010
0000
0001
0000
,
0200
0000
0000
0000
0310
1000
0001
0000
0010
0000
0001
0000
0100
0000
0010
0000
,
1000
0200
0000
0000
0001
0000
0000
0001
0000
0000
0301
0000
0100
0000
1000
0000
,
1010
0000
0000
0000
0101
0000
0000
0000
1001
0000
0001
0010
0100
0010
0001
1000
,
0100
0000
0000
1000
0001
1000
0002
0000
0000
0003
0000
0000
0100
0000
1000
0000
0100
0000
0001
0000
0000
0000
0001
0000
,
0010
0000
0100
0000
0010
0001
1000
0000
0010
0000
1000
0000
0100
0000
0010
0000
,
0001
1000
0100
1000
0001
0000
1000
0001
0100
0001
1000
0000
0010
0100
0001
0000
,
1000
0001
0010
0001
1000
0000
0001
1000
0010
0000
0100
0001
0100
0001
0010
0100
,
1000
0000
0000
0010
0100
0010
0200
0000
0000
0300
0000
0000
0001
0000
0010
0000
0100
0000
0001
0000
0100
0000
1000
0000
,
0010
0000
0100
0000
0001
0100
0010
0000
1000
0000
0001
0000
0010
0000
0100
0000
,
1000
0010
1000
0010
0100
0001
1000
0001
0000
0001
0100
0010
1000
0000
0100
0000
,
0110
0000
1000
0000
1010
0000
0001
0000
0011
0000
1000
0010
1000
0001
0010
0001
,
1000
0000
0000
0001
1000
0001
2000
0000
0000
3000
0000
0000
0010
0000
0100
0000
1000
0000
0100
0000
0000
0000
0001
0000
,
0010
0000
0100
0000
0010
0001
1000
0000
0010
0000
0100
0000
0001
0000
0010
0000
,
0100
1000
0010
1000
0100
0000
0010
0001
0100
0001
0010
0000
0100
1000
0001
0000
,
0100
0010
1000
0010
0100
0000
0001
0010
0100
0000
0000
0000
1001
0000
0000
2002
,
0000
0000
0000
0000
,
0000
0000
0000
0000
0000
0000
3003
0000
0000
0000
0000
0000
0001
0000
0000
0000
0000
0000
0100
0000
0000
0010
0000
0000
0100
0000
0000
0010
0000
0000
1000
0000
0000
0001
0000
0000
0010
0000
0000
0000
0100
0000
0000
0000
1000
0000
0000
0000
,
0010
0100
0001
0010
1000
0010
0001
0000
1000
0010
0100
0001
,
0010
0100
1000
0001
0100
1000
0100
0000
0001
0020
0000
0000
,
0000
0000
0000
0000
0030
0000
0000
0000
0100
0010
0000
0100
1000
0000
0010
0100
,
0001
0100
0010
0000
1000
0100
0010
0100
1000
0000
0001
0010
0100
1000
0001
0000
,
1000
0010
0100
0001
0010
0000
0100
1000
0001
0100
0001
1000
0100
1000
0001
0100
,
0010
0220
0000
0000
0000
0000
0330
0000
,
0100
0001
0100
0001
0010
0000
0100
1000
0000
0010
0100
0001
1000
0000
0010
0000
,
1000
0100
1000
0100
0010
0000
0001
0100
0000
0010
1000
0001
0010
0000
0100
0000
,
1000
0001
1000
0001
0100
0010
0100
0010
1000
0001
0010
0001
1000
0010
1000
0001
,
0100
0000
0000
0110
0000
0000
2002
0000
0000
0000
0000
0000
3003
0000
0000
0000
;

//--------------- dance-single - forcednature ----------------
#NOTEDATA:;
#STEPSTYPE:dance-single;
#DESCRIPTION:forcednature;
#DIFFICULTY:Challenge;
#METER:17;
#RADARVALUES:0,0,0,0,0;
#CREDIT:forcednature;
#NOTES:
0000
0000
0000
0000
,
0000
0000
0000
0000
,
0000
0000
0000
0000
,
0000
0000
0000
0000
,
0000
0000
0000
0000
,
0000
0000
0000
0000
,
0001
0100
0010
0000
1000
0100
0010
0000
0002
0000
0000
0203
0000
0000
2300
0000
,
3000
0000
0100
0001
0100
0010
1000
0100
0020
0000
0000
0032
0000
0000
0203
0000
,
0320
0000
1030
0200
0000
0010
0000
2300
,
0000
0000
3001
0100
0001
1000
0100
1000
0020
0000
0000
0000
0030
0000
0000
0000
,
1000
0100
1000
0100
0010
1000
0010
0100
1000
0001
0010
0100
1000
0010
0100
0000
,
0001
0010
0001
0010
0100
0001
0100
0010
0001
1000
0010
0100
0001
0010
0100
0000
,
1000
0010
1000
0010
0001
0010
0001
0010
1000
0100
0010
0001
0100
0010
1000
0001
,
0020
0000
0000
0000
0130
0000
1000
0100
0000
1000
0100
1000
0010
0000
0000
0000
2002
0000
0000
0000
0000
0000
0000
0000
0000
0000
0000
0000
0000
0000
0000
0000
,
3000
0000
0000
0000
0000
0000
0000
0000
0013
0001
0000
0001
0000
0100
0010
0000
,
1001
0000
1000
0010
0100
0010
0100
0000
0001
0000
0010
0000
1000
0010
0001
0010
,
0100
0000
0000
1000
0000
0000
0010
0000
0000
0000
0000
0000
0001
0000
0000
0010
0000
0000
1000
0000
0000
0010
0100
0001
,
2000
0000
0000
0000
3010
0000
0000
0000
1001
0000
0001
0010
0000
0100
0010
0000
,
1001
0000
1000
0010
0000
0100
0010
0000
1001
0000
0001
0100
0000
1000
0100
0000
,
0110
0000
1010
0000
1010
0000
0000
0000
1001
0000
1000
0000
0001
0100
1000
0100
,
0001
0000
0010
0000
0100
0000
1000
0010
0100
0000
2002
0000
0000
0000
3000
0000
,
0013
0000
0000
0000
0000
0000
0000
0000
0000
0010
0000
0000
0000
0000
0000
0000
0000
0000
0010
0000
0100
0000
1000
0000
0010
0000
0000
0000
0000
0000
0100
0000
0000
0000
0000
0000
0101
0000
0000
0000
0000
0000
0000
0000
0000
0000
0000
0000
,
0011
0000
0000
0010
0000
0000
0001
0000
0000
1000
0010
0100
0001
0000
0000
0010
0000
0000
0010
0000
0000
0001
0100
0010
,
1000
0000
0100
0000
0010
1000
0000
0010
0001
0000
0100
1000
0000
0100
0001
0000
,
0010
0000
0000
0001
0000
0000
0010
0000
0001
0000
0010
0000
0100
0000
0000
1000
0000
0000
0010
0000
0000
1000
0000
0000
0002
0000
0000
0000
0000
0000
0000
0000
0000
0000
0000
0000
0203
0000
0000
0000
0000
0000
0301
0000
0000
0010
0000
0000
,
2000
0000
0000
0000
3001
0100
0110
0000
,
1100
0000
0000
0001
0000
0000
0100
0000
0000
0010
1000
0100
0010
0000
0000
0001
0000
0000
0100
0000
0000
0010
0100
0001
,
0010
0000
0100
0000
0001
0100
0000
1000
0010
0000
0001
1000
0000
0100
0001
0000
,
0010
0000
0000
0100
0000
0000
0010
0000
0100
0000
0010
0000
0001
0000
0000
1000
0000
0000
0000
0000
0000
1000
0000
0000
0020
0000
0000
0030
0000
0000
0000
0000
0000
0000
0000
0000
0001
0000
0000
0000
0000
0000
0010
0000
0000
0000
0000
0000
,
1000
0100
0000
0100
0000
0001
0100
0000
1000
0000
0010
0000
0001
0000
0010
0000
,
1000
0100
0000
0100
0000
0010
0001
0100
0001
0010
0001
1000
0100
0000
0001
0000
,
0100
1000
0000
1000
0000
0010
0100
0000
0001
0000
0010
0000
0100
0000
0001
0000
,
0100
1000
0000
1000
0000
0010
0100
1000
0100
0010
0100
0001
0010
0000
0100
0000
,
0010
0001
0010
0001
0000
0100
0001
0000
0010
0001
0010
0000
0100
0000
1000
0000
,
0010
1000
0010
1000
0000
0100
0010
0001
0100
0010
1000
0100
0001
0000
0100
0000
,
1000
0010
1000
0010
0000
0001
0010
0000
2000
0000
3200
0000
0302
0000
2003
3020
,
0000
0032
0000
0203
0320
0000
0000
0000
0000
0000
0030
0000
1001
0000
1000
1100
,
0000
0001
0101
0000
0010
0000
1000
0010
0000
0001
0010
0000
1001
0000
0001
0101
,
0000
1000
1100
0000
0010
0000
0110
0000
1000
0000
0001
0000
1001
0000
0100
0110
,
0000
0010
1001
0000
1000
0000
0001
0100
0000
0010
1000
0000
0001
0010
0100
1000
,
0001
0010
1000
0010
0002
0000
0203
0000
0320
0000
2030
0000
3100
0010
0100
0010
,
0001
0100
0001
0100
0010
1000
0010
1000
0001
0010
0100
1000
0001
0100
1000
0100
,
0001
1000
0010
1000
0001
0010
1000
0010
0001
1000
0100
1000
0010
0100
0001
0100
,
0010
0100
1000
0100
0001
0010
0100
1000
0010
0100
0010
0100
1001
0000
0000
0000
,
1000
0000
0000
1000
0100
0010
0002
0000
0000
0003
0000
0000
0100
0000
1000
0000
0001
0000
0010
0000
1000
0000
0001
0000
,
0010
0000
0100
0000
0010
0001
0100
0000
0010
0000
2000
0000
0100
0000
3001
0000
,
1020
0000
0000
0000
0001
0000
0000
1000
0000
0000
0031
0000
0110
0000
1010
0000
,
0101
0000
0000
0000
0110
0000
0000
0000
1001
0000
0001
0010
0100
1000
0100
0010
,
0001
0000
0000
0000
0000
0000
0000
0000
0000
0000
0000
0000
0000
0000
0000
0000
0000
0000
0000
0000
0000
0000
0000
0000
0001
0000
0000
0000
0000
0000
0000
0000
0100
0000
0000
0000
0000
0000
0000
0000
0010
0000
0000
0000
0000
0000
0000
0000
1000
0000
0000
0000
0000
0000
0000
0000
0000
0000
0000
0000
0000
0000
0000
0000
0200
0000
0000
0300
0000
0000
0000
0000
0000
0000
0000
0000
0000
0000
0000
0000
0200
0000
0000
0300
0000
0000
0000
0000
0000
0000
0000
0000
0000
0000
0000
0000
0001
0000
0000
0000
0000
0000
0000
0000
0000
0000
0000
0000
0000
0000
0000
0000
0010
0000
0000
0000
0000
0000
0000
0000
0001
0000
0000
0000
0000
0000
0000
0000
0010
0000
0000
0000
0000
0000
0000
0000
0000
0000
0000
0000
0000
0000
0000
0000
0100
0000
0000
0000
0000
0000
0000
0000
0000
0000
0000
0000
0000
0000
0000
0000
0000
0000
0000
0000
0000
0000
0000
0000
0000
0000
0000
0000
0000
0000
0000
0000
1000
0000
0000
0000
0000
0000
0000
0000
0000
0000
0000
0000
0000
0000
0000
0000
,
0010
0000
0100
0000
1000
0100
0010
0000
0100
0000
0002
0000
0010
0000
1003
0000
,
0001
0100
1000
0100
0001
0000
0001
0010
1000
0010
0001
0000
0100
0000
0010
0000
,
1000
0100
0001
0100
1000
0000
1000
0010
0001
0000
0010
0100
0001
1000
0010
0100
,
0001
0000
0000
0001
1000
0100
0020
0000
0000
0030
0000
0000
0100
0000
1000
0000
0010
0000
0100
0000
1000
0000
0001
0000
,
0010
0000
1000
0000
0010
0100
0001
0000
0010
0000
0200
0000
1000
0000
0310
0000
,
0001
0100
0010
0100
0001
0010
0100
0010
0000
1000
0010
0001
0010
0000
0011
0000
,
1001
0000
0100
0000
0110
0000
0010
0000
1001
0000
1000
0010
0100
1000
0100
0001
,
1000
0000
0000
1000
0100
1000
0010
0000
0100
0000
0001
0000
0010
0000
0100
0010
0001
0000
0010
0000
0000
0000
0100
0000
,
1000
0000
0010
0000
0001
0010
1000
0000
0100
0000
0020
0000
0001
0000
0130
0000
,
1000
0100
0001
0100
1000
0000
1000
0010
0001
0010
1000
0000
0100
0010
0001
1000
,
0001
0100
1000
0100
0001
0000
0001
0010
2000
0000
3000
0000
0110
0000
0000
2002
,
0000
0000
0000
0000
,
0000
0000
0000
0000
0000
0000
3003
0000
0000
0000
0000
0000
0110
0000
0000
0000
0000
0000
0001
0000
0000
0100
0000
0000
0010
0000
0000
1000
0000
0000
0100
0000
0000
0010
0000
0000
0001
0000
0000
0000
0100
0000
0000
0000
0100
0000
0000
0000
,
1000
0010
0001
0010
1000
0001
0101
0000
0010
1000
0100
0100
,
0001
0000
0010
0000
1000
0000
0010
0000
0001
0000
1000
0000
1100
0000
0000
0100
1000
0100
0020
0000
0000
0000
0000
0000
,
0000
0000
0000
0000
0000
0000
0000
0000
1030
0010
0000
0001
0010
0000
0100
1000
,
0010
1000
0100
0010
0001
0100
0010
0100
0001
0010
0100
1000
0010
0100
0001
0010
,
0100
1000
0100
0001
0100
1000
0010
0100
0001
0010
1000
0010
0001
0100
0010
1000
,
0010
2002
0000
0000
0000
0000
3003
0000
,
1000
0010
1000
0010
0001
0000
0010
1000
0000
0100
1000
0001
0010
0000
0110
0000
,
0001
0010
0001
0010
1000
0000
0010
0001
0000
0100
0001
1000
0010
0000
0110
0000
,
0100
0001
0100
0001
0010
0100
0010
0100
1000
0010
0100
0001
1000
0100
0001
0100
,
1001
0000
0000
0110
0000
0000
1001
0000
0000
0100
0100
0010
0100
0000
0000
0000
;

//--------------- dance-double - forcednature ----------------
#NOTEDATA:;
#STEPSTYPE:dance-double;
#DESCRIPTION:forcednature;
#DIFFICULTY:Easy;
#METER:8;
#RADARVALUES:0,0,0,0,0;
#CREDIT:forcednature;
#NOTES:
00000000
00000000
00000000
00000000
,
00000000
00000000
00000000
00000000
,
00000000
00000000
00000000
00000000
,
00000000
00000000
00000000
00000000
,
00000000
00000000
00000000
00000000
,
00000000
00000000
00000000
00000000
,
00001000
00010000
00001000
00010000
,
00000000
00000100
00001000
00000001
,
00000020
00000030
00000002
00000003
,
00000200
00000300
00002002
00003003
,
00001000
00001000
00000010
00010000
,
00001000
00001000
00100000
00010000
,
10000000
00100000
01000000
00010000
,
20020000
00000000
00000000
30030000
02200000
00000000
00000000
00000000
,
00000000
00000000
00000000
00000000
,
03300000
00000000
00000000
00000000
00010000
00000000
10000000
00010000
,
10000000
01000000
00100000
00001000
,
00011000
00000000
00000000
00000000
00010000
00000000
00001000
00010000
,
00001000
00010000
00000100
00001000
,
00001001
00000000
00000000
00000000
00000001
00000000
00000100
00000001
,
00000100
00000000
00000010
00000000
00000000
00000220
00000000
00000000
,
00000330
00001000
00000010
00000000
,
00010000
00001000
00010000
00000000
00001000
00000000
00100000
00000000
,
00010000
00000000
00100000
00010000
00100000
00000000
01000000
00000000
,
10000000
00010000
10000000
00000000
00200000
00000000
01300000
00000000
,
20020000
00000000
30030000
00010000
,
00100000
00010000
00100000
00000000
00001000
00000000
00010000
00000000
,
00000100
00000000
00001000
00000100
00001000
00000000
00000010
00000000
,
00000200
00000001
00000310
00000110
,
00000100
00000010
00000100
00000000
00000001
00000000
00000011
00000000
,
00000010
00000100
00000010
00000000
00000100
00000000
00010100
00000000
,
00010000
00001000
00010000
00000000
00001000
00000000
00101000
00000000
,
00100000
00010000
00100000
00000000
00010000
00000000
01010000
00000000
,
01000000
00100000
01000000
00000000
00100000
00000000
10100000
00000000
,
10000000
00010000
10000000
00000000
01000000
00000000
01100000
00000000
,
00100000
00010000
00100000
00000000
00001000
00000000
00010000
00000000
,
00001000
00000000
00000000
00000000
00022000
00000000
00000000
00000000
00000000
00000000
00033000
00000000
00000100
00000000
00000000
00000100
,
00000000
00000000
00001000
00000000
00000010
00000000
00000000
00000000
00000000
00000000
00000000
00000000
00010000
00000000
00000000
00010000
,
00000000
00000000
00001000
00000000
00100000
00000000
00000000
00000000
00000000
00000000
00000000
00000000
00010000
00000000
00000000
00010000
,
00000000
01000000
00100000
00000000
00000000
00000000
20000000
00000000
,
32000000
00000000
03100000
00010000
00100000
00000000
00110000
00000000
,
00110000
00101000
00101000
00011000
,
00011000
00000000
00010100
00000000
00010100
00000000
00000100
00001000
,
00000100
00000000
00001000
00000010
00001000
00000000
00001001
00000000
,
00000002
00000003
00000100
00000001
,
00000010
00000100
00000220
00000330
,
00002000
00000000
00000000
00000000
00000001
00000000
00000000
00000001
00000000
00000000
00003001
00000000
00001000
00000000
00000001
00000000
,
00001000
00001010
00020020
00030030
,
00020000
00030000
00001000
00100000
,
00010000
00000000
01000000
00010000
01000000
00000000
00000000
00000000
,
00100000
00000000
00100000
10000000
00000000
10000000
01000000
00000000
,
00100000
00000000
00100000
00001000
00000000
00001000
00010000
00000000
,
00000020
00001030
00000001
00000010
,
00000200
00010300
00011000
00000000
,
00200000
00000000
00000000
00000000
00010000
00000000
00000000
00010000
00000000
00000000
00310000
00000000
00100000
00000000
00000000
00000000
,
10010000
01100000
20020000
30030000
,
10000000
00100000
10000000
01000000
,
00010000
00000000
00001000
00010000
00002000
00000000
00003000
00000000
,
00010000
00000000
00010000
00000100
00000000
00000100
00001000
00000000
,
00000010
00000000
00000010
00000100
00000002
00000003
00002002
00000000
,
00000000
00000000
00000000
00000000
,
00000000
00003003
00000000
00002000
,
00003002
00000203
00002300
00023000
,
02030000
23000000
30020000
00230000
,
00000000
00000000
00300000
00000000
01000000
00000000
10000000
01000000
,
00000000
01000000
00000000
00000000
00010000
00000000
00000000
00010000
00000000
00000000
00001000
00000000
00000000
00010000
00000000
00000000
,
00001000
00000000
00000000
00000010
00000000
00000000
00000001
00000000
00000000
00000001
00000000
00000000
00000100
00000000
00000010
00000000
,
00000000
00002002
00000000
00000000
00000000
00000000
00003003
00000000
,
00000001
00000100
00000001
00000000
00000010
00000000
00001000
00000000
,
00010000
00001000
00010000
00000000
01000000
00000000
10000000
00000000
,
00100000
10000000
00100000
00000000
01000000
00000000
00001000
00000000
,
00010000
00000000
00000000
00001000
00000000
00000000
00022000
00000000
00000000
00000000
00000000
00000000
00033000
00000000
00000000
00000000
;

//--------------- dance-double - forcednature ----------------
#NOTEDATA:;
#STEPSTYPE:dance-double;
#DESCRIPTION:forcednature;
#DIFFICULTY:Medium;
#METER:12;
#RADARVALUES:0,0,0,0,0;
#CREDIT:forcednature;
#NOTES:
00000000
00000000
00000000
00000000
,
00000000
00000000
00000000
00000000
,
00000000
00000000
00000000
00000000
,
00000000
00000000
00000000
00000000
,
00000000
00000000
00000000
00000000
,
00000000
00000000
00000000
00000000
,
00001000
00000000
00000000
00010000
00000000
00000000
00001000
00000000
00010000
00000000
00000000
00100000
00000000
00000000
00010000
00000000
,
00000000
00000000
00100000
00000000
10000000
00000000
01000000
00000000
00100000
00000000
00000000
00010000
00000000
00000000
01000000
00000000
,
00002000
00000000
00000000
00013000
00000100
00000000
00001000
00000010
,
00000000
00000100
00000100
00000001
00000020
00000000
00000030
00000000
,
00001001
00000000
00000001
00000100
00000001
00000100
00001000
00010000
,
00001000
00000000
00010000
00100000
00010000
00100000
10000000
00100000
,
01000000
00010000
01000000
00010000
00100000
00001000
00010000
00000010
,
00002000
00000000
00000000
00003000
00000202
00000000
00000000
00000000
,
00000000
00000300
00000010
00000010
,
00002000
00000000
00003003
00000000
00000001
00000010
00000100
00000010
,
00000001
00000100
00001000
00000000
00010000
00001000
00010000
00100000
,
10000000
00000000
00000000
00000000
10010000
00000000
00000000
00000000
00010000
00000000
00100000
00000000
00000000
00100000
00000000
00000000
,
00010000
00000000
01000000
00000000
00000000
01000000
00000000
00000000
00001000
00000000
00010000
00000000
00000000
00010000
00000000
00000000
,
00000010
00001000
00000001
00000000
00000010
00000100
00001000
00000010
,
00010000
00001000
00010000
00000000
00000000
00022000
00000000
00000000
,
00033000
00000000
00000000
00000000
00010000
00010000
00001000
00000000
,
00010000
00100000
10000000
00100000
00010000
00001000
00010000
00000000
,
00000010
00000000
00000100
00000000
00001000
00000000
00000000
00000100
00000000
00000000
00000001
00000000
00000000
00000010
00000000
00000000
,
00000100
00010000
00001000
00100000
02000000
00000000
03100000
00000000
,
20020000
00000000
30030000
00000000
,
10000000
00100000
01000000
00100000
00010000
00100000
10000000
00100000
,
01000000
00000000
01000000
00000000
00010000
00000000
00000000
00100000
00000000
00000000
00001000
00000000
00000000
00010000
00000000
00000000
,
00000010
00000000
00001000
00000000
00000010
00000000
00000000
00000000
00002002
00003003
00000000
00000000
00000001
00000000
00000100
00000000
,
00001000
00000100
00000001
00000100
00001000
00000000
00010000
00100000
,
10000000
00100000
02000000
00000000
03010000
00000000
10000000
01000000
,
00010000
01000000
10000000
01000000
00010000
00000000
00001000
00000010
,
00000001
00000010
00000100
00002000
00000000
00003000
00000001
00000010
,
00001000
00000010
00000001
00000010
00001000
00000000
00010000
00100000
,
10000000
00100000
01000000
00020000
00000000
00030000
10000000
00100000
,
00010000
00100000
10000000
00100000
00010000
00000000
00002000
00000000
,
00000010
00000000
00000000
00000000
00020000
00000000
00000000
00000000
00000000
00000000
00033000
00000000
00011000
00000000
00000000
00001000
,
00000000
00000000
00000010
00000000
00000220
00000000
00000000
00000000
00000330
00000000
00000000
00000000
00000110
00000000
00000000
00000100
,
00000000
00000000
00010000
00000000
00022000
00000000
00000000
00000000
00033000
00000000
00000000
00000000
00011000
00000000
00000000
00010000
,
00000000
00100000
02200000
00000000
03300000
00000000
01000000
00010000
,
00100000
01000000
10000000
01000000
00010000
00001000
00200000
00000000
,
01000000
00010000
00001000
00320000
,
01000000
00000000
10000000
00000000
00130000
00000000
00001000
00010000
,
00001000
00010000
00000010
00000100
00000001
00000010
00000110
00000000
,
00000001
00000000
00000000
00000001
00000000
00000000
00001000
00000000
00000000
00000000
00000000
00000000
00000100
00000000
00010000
00000000
00000100
00000000
00010000
00000000
00001000
00000000
00010000
00000000
,
00002000
00203000
00320000
00030000
,
01000000
00000000
00100000
00000000
10000000
00000000
00000000
10000000
00000000
00000000
10000000
00000000
01000000
00000000
00010000
00000000
,
00001000
00101000
00022000
00033000
,
01000000
00000000
00000000
00010000
00000000
00000000
01000000
00000000
00000000
00000000
00000000
00000000
00100000
00000000
10000000
00000000
00100000
00000000
10000000
00000000
00000000
00000000
10000000
00000000
,
02000000
00000000
03100000
00010000
00100000
01000000
00000000
00000000
,
00100000
00001000
00010000
00001000
00010000
00000100
00000000
00001000
,
00000010
00001000
00000001
00000010
00000100
00002000
00000000
00000000
,
00003001
00000000
00000000
00000001
00000000
00000000
00000100
00000000
00000000
00000000
00000000
00000000
00000010
00000000
00010000
00000000
00000010
00000000
00010000
00000000
00001000
00000000
00010000
00000000
,
00001000
00000000
00100000
00010000
01000000
00200000
00000000
00300000
,
10000000
00000000
01000000
00000000
00010000
00000000
00000000
00010000
00000000
00000000
00010000
00000000
00001000
00000000
00100000
00000000
,
00001000
00011000
00020200
00030300
,
00000100
00000000
00000000
00001000
00000000
00000000
00000010
00000000
00000000
00000000
00000000
00000000
00000100
00000000
00000001
00000000
00000100
00000000
00000001
00000000
00000000
00000000
00000001
00000000
,
00000010
00000100
00001000
00000100
00010000
00002000
00000000
00003000
,
01000000
00010000
00100000
00010000
01000000
00001000
00000000
00010000
,
00000100
00000000
00001000
00000000
00000010
00000000
00001000
00000000
00000002
00000000
00000000
00000000
00000013
00000000
00000000
00000220
,
00000000
00000000
00000000
00000000
,
00000000
00000000
00000000
00000330
00000000
00000000
00000100
00000000
00000000
00010000
00000000
00000000
00010000
00000000
00000000
00000000
00000000
00000000
00001000
00000000
00100000
00000000
00001000
00000000
,
00100000
00010000
00100000
00010000
01000000
00010000
10000000
00000000
00000000
01000000
00100000
01000000
,
00100000
00010000
00100000
00010000
01000000
00001000
00010000
00000000
00000000
00022000
00000000
00000000
,
00000000
00000000
00000000
00000000
00033000
00000000
00000000
00000000
00010020
00000000
00000000
00000000
00001030
00000000
00000010
00000100
,
00000000
00000010
00000100
00000000
00001000
00010000
00000000
00001000
00010000
00000000
00100000
01000000
00000000
00100000
01000000
00000000
,
00010000
10000000
00000000
00010000
10000000
00000000
01000000
10000000
00000000
01000000
10000000
00000000
00100000
00000000
01000000
00000000
,
00001000
00020000
00000000
00000000
00000000
00000000
00030000
00000000
,
00001000
00000000
00000010
00000000
00000001
00000000
00000010
00000100
00000000
00000010
00000100
00000000
00001000
00000000
00000000
00000000
,
00000001
00000000
00000100
00000000
00001000
00000000
00010000
00001000
00000000
00010000
00001000
00000000
00100000
00000000
00000000
00000000
,
00010000
00000000
01000000
00000000
00100000
00000000
10000000
01000000
00000000
10000000
01000000
00000000
00100000
00000000
00000000
00000000
,
10010000
00000000
00000000
01100000
00000000
00000000
20020000
00000000
00000000
00000000
00000000
00000000
30030000
00000000
00000000
00000000
;

//--------------- dance-double - forcednature ----------------
#NOTEDATA:;
#STEPSTYPE:dance-double;
#DESCRIPTION:forcednature;
#DIFFICULTY:Hard;
#METER:16;
#RADARVALUES:0,0,0,0,0;
#CREDIT:forcednature;
#NOTES:
00000000
00000000
00000000
00000000
,
00000000
00000000
00000000
00000000
,
00000000
00000000
00000000
00000000
,
00000000
00000000
00000000
00000000
,
00000000
00000000
00000000
00000000
,
00000000
00000000
00000000
00000000
,
00001000
00010000
00001000
00010000
00000100
00001000
00000100
00001000
00000010
00000000
00000000
00000100
00000000
00000000
00001000
00000000
,
00000000
00000000
00000100
00000001
00000100
00000010
00001000
00000100
00010000
00000000
00000000
00001000
00000000
00000000
00100000
00000000
,
00020000
00000000
00000000
00000000
01030000
00100000
10000000
00100000
01000000
00000000
00000000
00010000
00000000
00000000
00100000
00000000
,
00000000
00000000
00001000
00010000
00001000
00010000
00000100
00001000
00000020
00000000
00000000
00000000
00000030
00000000
00000000
00000000
,
00000110
00000000
00000100
00000001
00000010
00000000
00000100
00001000
00000010
00000000
00010000
00001000
00100000
00000000
00010000
00000000
,
10010000
00000000
10000000
01000000
00100000
00000000
01000000
00100000
00010000
00000000
01000000
00001000
00010000
00000000
00001000
00000000
,
00011000
00000000
00010000
00000100
00001000
00000000
00000010
00000100
00000001
00000000
00000010
00000100
00001000
00000000
00000010
00010000
,
00002000
00000000
00000000
00103000
20020000
00000000
00000000
00000000
,
00000000
00000000
00000000
00000000
00030000
00000000
00000000
00000000
00100000
00000000
00000000
00100000
00000000
00000000
30100000
00000000
,
10100000
00000000
01000000
00000000
00010000
00000000
00000000
00000000
00110000
00000000
00001000
00000000
00010000
00000100
00001000
00000100
,
00010000
00000000
00000000
00000000
00000000
00000000
00001000
00000000
00000000
00000000
00000000
00000000
00000010
00000000
00000000
00000000
00000000
00000000
00000001
00000000
00000000
00000010
00000000
00000000
00000100
00000000
00000000
00000000
00000000
00000000
00001000
00000000
00000000
00000000
00000000
00000000
00000010
00000000
00000000
00000000
00000000
00000000
00000100
00000000
00000010
00000000
00000100
00000000
,
00000010
00000000
00000000
00000000
00001000
00000000
00000000
00000000
00001001
00000000
00000001
00000010
00000000
00000001
00000010
00000000
,
00001000
00000000
00010000
00001000
00000000
00010000
00001000
00000000
00010000
00000000
00100000
10000000
00000000
00100000
10000000
00000000
,
01000000
00000000
00010000
00000000
01000000
00000000
00000000
00000000
10010000
00000000
00010000
00000000
10000000
01000000
00100000
01000000
,
10000000
00000000
00010000
00000000
01000000
00000000
00001000
00010000
00000010
00000000
00000210
00000000
00000000
00000000
00000000
00000000
,
00000301
00000000
00000000
00001001
00000000
00000000
00001000
00000100
00000010
00000000
00000001
00000000
00000101
00000000
00000000
00000000
,
00001000
00000000
00000000
00000010
00000000
00000000
00000100
00000000
00000000
00001000
00010000
00001000
00010000
00000000
00000000
00000100
00000000
00000000
00000010
00000000
00000000
00001000
00010000
00001000
,
00010000
00000000
01000000
00000000
00100000
00010000
00000000
01000000
00100000
00000000
10000000
01000000
00000000
00010000
00001000
00000000
,
00000010
00000100
00000010
00000100
00001000
00000001
00000100
00000010
00001000
00000000
00000100
00010000
00001000
00000000
00100000
00000000
,
00210000
00000000
00000000
00000000
10300000
00100000
00001000
00000000
,
00010000
00000000
00000000
00000100
00000000
00000000
00000010
00000000
00000000
00001000
00010000
00001000
00010000
00000000
00000000
00000010
00000000
00000000
00000100
00000000
00000000
00001000
00010000
00001000
,
00010000
00000000
00100000
00000000
01000000
00010000
00000000
00100000
01000000
00000000
10000000
00100000
00000000
01000000
00001000
00000000
,
00010000
00000010
00001000
00000010
00010000
00000010
00000000
00001000
00000200
00000300
00000000
00000000
00000010
00000001
00000010
00000001
,
00000100
00000000
00000001
00000010
00000000
00000100
00001000
00000000
00000001
00000000
00000100
00000000
00001000
00010000
00001000
00010000
,
00000010
00000000
00001000
00000010
00000000
00010000
00001000
00100000
00001000
00010000
00001000
00000000
01000000
00010000
01000000
00010000
,
00100000
00000000
01000000
10000000
00000000
01000000
00010000
00000000
00001000
00000000
00100000
00000000
00010000
01000000
00010000
01000000
,
00001000
00000000
00010000
00000010
00000000
00001000
00000100
00000010
00000100
00000000
00000010
00000000
00000001
00001000
00000001
00001000
,
00000010
00000000
00000100
00000001
00001000
00000001
00000100
00000000
00001000
00010000
00001000
00000000
00010000
00100000
00010000
00100000
,
10000000
00000000
01000000
10000000
01000000
00100000
00010000
01000000
00010000
00000000
00100000
00000000
00001000
00010000
00001000
00010000
,
00000010
00000000
00001000
00000100
00000010
00000100
00001000
00000000
00000002
00000000
00000203
00000000
00002300
00000000
00023000
00230000
,
00300000
20000000
30000000
00000000
20020000
00000000
00000000
00000000
00000000
00000000
30030000
00000000
11000000
00000000
00000000
00110000
,
00000000
00000000
01100000
00000000
00110000
00000000
00010000
01000000
00000000
00010000
01000000
00000000
01010000
00000000
00000000
00011000
,
00000000
00000000
00001010
00000000
00011000
00000000
00010000
00000000
00000100
00001000
00000010
00000000
00000110
00000000
00000000
00000101
,
00000000
00000000
00001010
00000000
00001100
00000000
00000100
00010000
00000000
00001000
00010000
00000000
00001000
00100000
00010000
00100000
,
00001000
00010000
00001000
01000000
00020000
00000000
00230000
00000000
02300000
00000000
23000000
00000000
30100000
00000000
00100000
01000000
,
00010000
00000000
00010000
00100000
00001000
00000000
00001000
00010000
00000010
00000000
00000010
00001000
00000100
00000000
00000010
00000001
,
00001000
00000000
00001000
00000010
00010000
00000000
00010000
00001000
01000000
00000000
01000000
00010000
00100000
00000000
01000000
00000000
,
00100000
00000000
01000000
00000000
10000000
01000000
00100000
00010000
00100000
00001000
00010000
00000100
00000010
00000000
00000000
00000000
,
00000001
00000000
00000000
00001000
00000001
00001000
00000002
00000000
00000000
00000003
00000000
00000000
00000100
00000000
00001000
00000000
00010000
00000000
00001000
00000000
00010000
00000000
00100000
00000000
,
20000000
00000000
00000000
00000000
31000000
00100000
00010000
00000000
01000000
00000000
00001000
00000000
00010000
00000000
00000010
00000000
,
00000100
00000002
00000000
00000000
00000010
00000000
00000000
00001000
00000000
00000000
00000013
00000000
00000001
00000000
00000100
00000000
,
00000110
00000000
00000000
00000000
00011000
00000000
00000000
00000000
01100000
00000000
00010000
00000000
10000000
01000000
10000000
00010000
,
00100000
00000000
00000000
00010000
10000000
00010000
20000000
00000000
00000000
30000000
00000000
00000000
01000000
00000000
00010000
00000000
00001000
00000000
00010000
00000000
00000000
00000000
00010000
00000000
,
00001000
00000000
00000010
00000000
00000100
00000010
00000001
00000000
00000100
00000000
00000010
00000000
00000100
00000000
00001000
00000000
,
00010000
00001000
00100000
00001000
00010000
00000000
00001000
00010000
00000010
00010000
00001000
00000000
01000000
00000000
00001000
00000000
,
00010000
00001000
01000000
00001000
00010000
00000000
00000100
00010000
00001000
00000000
00100000
00010000
00100000
00010000
00100000
01000000
,
10000000
00000000
00000000
00100000
01000000
00100000
02000000
00000000
00000000
03000000
00000000
00000000
00100000
00000000
00010000
00000000
00001000
00000000
00010000
00000000
00001000
00000000
00000100
00000000
,
00000010
00000000
00000100
00000000
00000001
00001000
00000100
00000000
00000010
00000000
00000001
00000000
00000100
00000000
00001000
00000000
,
00010000
00001000
00010000
00001000
01000000
00000000
00010000
00100000
00000000
01000000
00100000
01000000
10000000
00000000
00100000
00000000
,
01100000
00000000
00010000
00000000
01010000
00000000
00001000
00000000
00011000
00000000
00010000
00000000
00000100
00001000
00000100
00000010
,
00000001
00000000
00000000
00001000
00000001
00001000
00000002
00000000
00000000
00000003
00000000
00000000
00000100
00000000
00001000
00000000
00010000
00000000
00001000
00000000
00000000
00000000
00001000
00000000
,
00010000
00000000
00100000
00000000
10000000
00100000
01000000
00000000
00010000
00000000
00100000
00000000
01000000
00000000
10000000
00000000
,
01000000
00010000
00001000
00010000
00001000
00000000
00000100
00001000
00010000
00001000
00010000
00000000
00100000
00000000
10000000
00000000
,
01000000
00010000
00001000
00010000
00001000
00000000
00000100
00001000
00010000
00000000
00000000
00000000
00011000
00000000
00000000
00022000
,
00000000
00000000
00000000
00000000
,
00000000
00000000
00000000
00000000
00000000
00000000
00033000
00000000
00000000
00000000
00000000
00000000
00001000
00000000
00000000
00000000
00000000
00000000
00000010
00000000
00000000
00000100
00000000
00000000
00000010
00000000
00000000
00000000
00000000
00000000
00000001
00000000
00000000
00000000
00000000
00000000
00000100
00000000
00000000
00000000
00001000
00000000
00000000
00000000
00010000
00000000
00000000
00000000
,
00001000
00010000
00100000
10000000
00100000
01000000
00010000
00000000
10000000
01000000
00010000
00001000
,
00010000
00001000
00000010
00000001
00000010
00000100
00001000
00000000
00000001
00000200
00000000
00000000
,
00000000
00000000
00000000
00000000
00000300
00000000
00000000
00000000
00001000
00000100
00000000
00000001
00000100
00000000
00000010
00001000
,
00000000
00000010
00001000
00000000
00010000
01000000
00000000
00010000
00100000
00000000
01000000
10000000
00000000
00100000
01000000
00000000
,
00001000
00010000
00000000
00001000
00000010
00000000
00000001
00000010
00000000
00000100
00001000
00000100
00010000
00001000
01000000
00010000
,
00100000
02200000
00000000
00000000
00000000
00000000
03300000
00000000
,
01000000
10000000
01000000
10000000
00100000
00000000
01000000
00010000
00000000
00100000
00001000
00010000
00001000
00000000
00010000
00000000
,
00000010
00001000
00000010
00001000
00000100
00000000
00000010
00000001
00000000
00000100
00000001
00000100
00000010
00000000
00010000
00000000
,
00001000
00010000
00001000
00010000
00001000
00100000
00010000
00100000
01000000
10000000
01000000
10000000
00010000
01000000
00001000
00010000
,
00001000
00000000
00000000
00011000
00000000
00000000
00022000
00000000
00000000
00000000
00000000
00000000
00033000
00000000
00000000
00000000
;

//--------------- dance-double - forcednature ----------------
#NOTEDATA:;
#STEPSTYPE:dance-double;
#DESCRIPTION:forcednature;
#DIFFICULTY:Challenge;
#METER:17;
#RADARVALUES:0,0,0,0,0;
#CREDIT:forcednature;
#NOTES:
00000000
00000000
00000000
00000000
,
00000000
00000000
00000000
00000000
,
00000000
00000000
00000000
00000000
,
00000000
00000000
00000000
00000000
,
00000000
00000000
00000000
00000000
,
00000000
00000000
00000000
00000000
,
00002000
00000000
00000000
00023000
00000000
00000000
00230000
00000000
00320000
00000000
00000000
00032000
00000000
00000000
00003020
00000000
,
00000030
00000000
00000001
00000100
00000010
00000100
00001000
00010000
00200000
00000000
00000000
20300000
00000000
00000000
32000000
00000000
,
03200000
00000000
00301000
00020000
00000000
00000010
00000000
00030200
,
00000000
00000000
00000310
00000001
00000010
00001000
00010000
00001000
00200000
00000000
00000000
00000000
00300000
00000000
00000000
00000000
,
01000000
10000000
01000000
10000000
00100000
10000000
01000000
00100000
00010000
01000000
00001000
00010000
00000010
00010000
00001000
00000000
,
00000010
00000100
00000010
00000100
00010000
00001000
01000000
00100000
01000000
00010000
00100000
01000000
10000000
00100000
01000000
00000000
,
10000000
01000000
10000000
01000000
00010000
00100000
00010000
00100000
00001000
00010000
00000010
00000100
00001000
00010000
00000100
00000010
,
00000002
00000000
00000000
00000000
00000103
00000000
00001000
00000100
00000000
00000010
00000100
00001000
00010000
00000000
00000000
00000000
00022000
00000000
00000000
00000000
00000000
00000000
00000000
00000000
00000000
00000000
00000000
00000000
00000000
00000000
00000000
00000000
,
00003000
00000000
00000000
00000000
00000000
00000000
00000000
00000000
00130000
10000000
00000000
10000000
00000000
01000000
00100000
00000000
,
10010000
00000000
00010000
00100000
01000000
10000000
01000000
00000000
00010000
00000000
00001000
00000000
00000010
00001000
00010000
00001000
,
00000010
00000000
00000000
00000001
00000000
00000000
00000010
00000000
00000000
00000000
00000000
00000000
00000100
00000000
00000000
00010000
00000000
00000000
00001000
00000000
00000000
01000000
00010000
01000000
,
00200000
00000000
00000000
00000000
10300000
00000000
00000000
00000000
10010000
00000000
00010000
10000000
00000000
00100000
00010000
00000000
,
00011000
00000000
00001000
00010000
00000000
00000010
00001000
00000000
00001001
00000000
00001000
00000001
00000000
00000010
00001000
00000000
,
00011000
00000000
00010100
00000000
00101000
00000000
00000000
00000000
10010000
00000000
00010000
00000000
10000000
00100000
00010000
00100000
,
10000000
00000000
01000000
00000000
00010000
00000000
00001000
00000010
00000001
00000000
00002002
00000000
00000000
00000000
00000003
00000000
,
00003010
00000000
00000000
00000000
00000000
00000000
00000000
00000000
00000000
00000010
00000000
00000000
00000000
00000000
00000000
00000000
00000000
00000000
00000010
00000000
00000100
00000000
00001000
00000000
00010000
00000000
00000000
00000000
00000000
00000000
00001000
00000000
00000000
00000000
00000000
00000000
00011000
00000000
00000000
00000000
00000000
00000000
00000000
00000000
00000000
00000000
00000000
00000000
,
00101000
00000000
00000000
00100000
00000000
00000000
00010000
00000000
00000000
10000000
00100000
01000000
00010000
00000000
00000000
00100000
00000000
00000000
00100000
00000000
00000000
00001000
00010000
00000100
,
00001000
00000000
00000010
00000000
00000001
00000010
00000000
00001000
00010000
00000000
01000000
10000000
00000000
01000000
00010000
00000000
,
00100000
00000000
00000000
00010000
00000000
00000000
00100000
00000000
00010000
00000000
00100000
00000000
01000000
00000000
00000000
10000000
00000000
00000000
00100000
00000000
00000000
10000000
00000000
00000000
00020000
00000000
00000000
00000000
00000000
00000000
00000000
00000000
00000000
00000000
00000000
00000000
00032000
00000000
00000000
00000000
00000000
00000000
00003001
00000000
00000000
00000010
00000000
00000000
,
00000200
00000000
00000000
00000000
00001300
00000010
00011000
00000000
,
01010000
00000000
00000000
00001000
00000000
00000000
00010000
00000000
00000000
00100000
01000000
00100000
10000000
00000000
00000000
01000000
00000000
00000000
00100000
00000000
00000000
01000000
00010000
00001000
,
00010000
00000000
00000010
00000000
00000100
00001000
00000000
00010000
00100000
00000000
10000000
01000000
00000000
00010000
00001000
00000000
,
00000010
00000000
00000000
00000100
00000000
00000000
00000010
00000000
00000001
00000000
00001000
00000000
00000001
00000000
00000000
00000100
00000000
00000000
00000000
00000000
00000000
00000100
00000000
00000000
00002000
00000000
00000000
00003000
00000000
00000000
00000000
00000000
00000000
00000000
00000000
00000000
00010000
00000000
00000000
00000000
00000000
00000000
00100000
00000000
00000000
00000000
00000000
00000000
,
10000000
01000000
00000000
00010000
00000000
00000000
01000000
00000000
10000000
00000000
00100000
00000000
00010000
00000000
00001000
00000000
,
00000100
00000001
00000000
00000010
00000000
00000000
00000100
00001000
00000010
00000100
00001000
00010000
00001000
00000000
00000100
00000000
,
00000001
00000010
00000000
00001000
00000000
00000000
00000010
00000000
00000001
00000000
00000100
00000000
00001000
00000000
00010000
00000000
,
01000000
10000000
00000000
00100000
00000000
00000000
01000000
00010000
00100000
01000000
00010000
00001000
00100000
00000000
01000000
00000000
,
00100000
00010000
00000000
00001000
00000000
00010000
00100000
00000000
00001000
00010000
00001000
00000000
00000010
00000000
00000100
00000000
,
00001000
00000010
00000000
00000100
00000000
00000000
00001000
00010000
00000100
00010000
00001000
00010000
00000100
00000000
00000010
00000000
,
00001000
00000010
00000000
00001000
00000000
00010000
00001000
00000000
00020000
00000000
02030000
00000000
23000000
00000000
30200000
00320000
,
00000000
00032000
00000000
00003020
00000032
00000000
00000000
00000000
00000000
00000000
00000003
00000000
00000101
00000000
00000000
00001010
,
00000000
00000000
01010000
00000000
10100000
00000000
10000000
01000000
00000000
00010000
01000000
00000000
11000000
00000000
00000000
00110000
,
00000000
00000000
00001100
00000000
00000012
00000000
00000000
00000000
00000103
00000000
00000010
00000000
00000101
00000000
00000000
00001010
,
00000000
00000000
01010000
00000000
10100000
00000000
10000000
01000000
00000000
00010000
01000000
00000000
10000000
00100000
01000000
00100000
,
00010000
00001000
00010000
00000100
00002000
00000000
00003020
00000000
00000230
00000000
00000302
00000000
00000013
00000100
00000010
00000100
,
00001000
00000010
00001000
00000010
00010000
00001000
00010000
00001000
00100000
00010000
00100000
00010000
10000000
01000000
00100000
00010000
,
01000000
00001000
00010000
00001000
00100000
00010000
00100000
00001000
00010000
00000010
00001000
00000010
00000100
00000001
00000010
00000001
,
00001000
00000001
00000010
00000001
00000100
00000010
00001000
00000100
00010000
00001000
01000000
00010000
00100000
00000000
00000000
00000000
,
01000000
00000000
00000000
10000000
01000000
10000000
00200000
00000000
00000000
00300000
00000000
00000000
10000000
00000000
01000000
00000000
00010000
00000000
00001000
00000000
00000100
00000000
00000001
00000000
,
00000010
00000000
00000100
00000000
00000010
00000001
00000100
00000000
00001000
00000000
00020000
00000000
00000000
00000000
00130000
00000000
,
20000000
00000000
00000000
00000000
01000000
00000000
00000000
00010000
00000000
00000000
30100000
00000000
01100000
00000000
01001000
00000000
,
00011000
00000000
00000000
00000000
00000110
00000000
00000000
00000000
00011000
00000000
00010000
00001000
00000010
00000100
00000010
00000001
,
00001000
00000000
00000000
00000000
00000000
00000000
00000000
00000000
00000000
00000000
00000000
00000000
00000000
00000000
00000000
00000000
00000000
00000000
00000000
00000000
00000000
00000000
00000000
00000000
00000100
00000000
00000000
00000000
00000000
00000000
00000000
00000000
00001000
00000000
00000000
00000000
00000000
00000000
00000000
00000000
00000001
00000000
00000000
00000000
00000000
00000000
00000000
00000000
00001000
00000000
00000000
00000000
00000000
00000000
00000000
00000000
00000000
00000000
00000000
00000000
00000000
00000000
00000000
00000000
00000200
00000000
00000000
00000300
00000000
00000000
00000000
00000000
00000000
00000000
00000000
00000000
00000000
00000000
00000000
00000000
00000200
00000000
00000000
00000300
00000000
00000000
00000000
00000000
00000000
00000000
00000000
00000000
00000000
00000000
00000000
00000000
00000001
00000000
00000000
00000000
00000000
00000000
00000000
00000000
00000000
00000000
00000000
00000000
00000000
00000000
00000000
00000000
00000010
00000000
00000000
00000000
00000000
00000000
00000000
00000000
00000001
00000000
00000000
00000000
00000000
00000000
00000000
00000000
00000010
00000000
00000000
00000000
00000000
00000000
00000000
00000000
00000000
00000000
00000000
00000000
00000000
00000000
00000000
00000000
00001000
00000000
00000000
00000000
00000000
00000000
00000000
00000000
00000000
00000000
00000000
00000000
00000000
00000000
00000000
00000000
00000000
00000000
00000000
00000000
00000000
00000000
00000000
00000000
00000000
00000000
00000000
00000000
00000000
00000000
00000000
00000000
00001000
00000000
00000000
00000000
00000000
00000000
00000000
00000000
00000000
00000000
00000000
00000000
00000000
00000000
00000000
00000000
,
00010000
00000000
00100000
00000000
10000000
00100000
00010000
00000000
00001000
00000000
02000000
00000000
00000000
00000000
03100000
00000000
,
10000000
01000000
00100000
01000000
00010000
00000000
00001000
00000010
00000100
00000010
00000001
00000000
00002000
00000000
00000000
00000000
,
00003001
00000100
00000010
00000100
00001000
00000000
00010000
00100000
01000000
00000000
00100000
10000000
00010000
00100000
00010000
10000000
,
01000000
00000000
00000000
10000000
01000000
10000000
00200000
00000000
00000000
00300000
00000000
00000000
10000000
00000000
01000000
00000000
00010000
00000000
00001000
00000000
00000100
00000000
00000001
00000000
,
00000010
00000000
00000100
00000000
00000010
00000001
00000100
00000000
00001000
00000000
00020000
00000000
00000000
00000000
00130000
00000000
,
10000000
01000000
00010000
00000000
00001000
00000000
00010000
00100000
00000000
00010000
00001000
00000010
00001000
00000000
00001010
00000000
,
00000011
00000000
00000001
00000000
00000101
00000000
00001000
00000000
00001100
00000000
00000001
00000010
00000100
00001000
00000010
00000100
,
00000001
00000000
00000000
00000010
00000001
00000100
00000001
00000000
00000010
00000000
00001000
00000000
00010000
00000000
00000100
00001000
00000100
00000000
00010000
00000000
00000000
00000000
00001000
00000000
,
00100000
00000000
01000000
00000000
00010000
01000000
10000000
00000000
00100000
00000000
02000000
00000000
00000000
00000000
03010000
00000000
,
10000000
00100000
01000000
00100000
00010000
00000000
00001000
00000100
00000010
00000100
00000001
00000000
00001000
00000001
00000100
00000000
,
00000001
00000010
00000100
00000010
00001000
00000000
00010000
01000000
20000000
00000000
30000000
00000000
01100000
00000000
00000000
20020000
,
00000000
00000000
00000000
00000000
,
00000000
00000000
00000000
00000000
00000000
00000000
30030000
00000000
00000000
00000000
00000000
00000000
00010000
00000000
00000000
00000000
00000000
00000000
10000000
00000000
00000000
01000000
00000000
00000000
00100000
00000000
00000000
01000000
00000000
00000000
10000000
00000000
00000000
01000000
00000000
00000000
00010000
00000000
00000000
00000000
00001000
00000000
00000000
00000000
00001000
00000000
00000000
00000000
,
00100000
00010000
00100000
00001000
00010000
00000100
00000010
00000000
00000001
00000100
00000010
00000010
,
00000100
00000000
00001000
00000000
00010000
00000000
00100000
00000000
00010000
00000000
00100000
00000000
10000000
00000000
00000000
01000000
10000000
01000000
00200000
00000000
00000000
00000000
00000000
00000000
,
00000000
00000000
00000000
00000000
00000000
00000000
00000000
00000000
00310000
00001000
00000000
00010000
00001000
00000000
00000010
00000100
,
00000000
00001000
00000010
00000000
00000100
00000001
00000000
00000010
00001000
00000000
00010000
00100000
00000000
10000000
01000000
00000000
,
00100000
00010000
00100000
00010000
01000000
00100000
00010000
00001000
01000000
00010000
01000000
00010000
00100000
00001000
00010000
00000010
,
00001000
00002002
00000000
00000000
00000000
00000000
00003003
00000000
,
00000001
00000100
00000001
00000100
00001000
00000000
00010000
00001000
00000000
00010000
00100000
10000000
00100000
00000000
01100000
00000000
,
10000000
01000000
10000000
01000000
00010000
00000000
00001000
00010000
00000000
00001000
00000010
00000001
00000010
00000000
00000110
00000000
,
00000001
00000100
00000001
00000100
00001000
00010000
00001000
00010000
00100000
01000000
00010000
00100000
01000000
10000000
00010000
01000000
,
00100000
00000000
00000000
01001000
00000000
00000000
00010010
00000000
00000000
00010000
00001000
00010000
00000100
00000000
00000000
00000000
;
