#VERSION:0.83;
#TITLE:Do Back Burn;
#SUBTITLE:;
#ARTIST:PRASTIK DANCEFLOOR;
#TITLETRANSLIT:;
#SUBTITLETRANSLIT:;
#ARTISTTRANSLIT:;
#GENRE:ELECTRO;
#CREDIT:;
#MUSIC:Do Back Burn.ogg;
#BANNER:Do Back Burn.png;
#BACKGROUND:Do Back Burn-bg.png;
#CDTITLE:./CDTitles/bm IIDX 17 SIRIUS.png;
#SAMPLESTART:70.926;
#SAMPLELENGTH:15.000;
#SELECTABLE:YES;
#OFFSET:1.418;
#BPMS:0.000=136.000;
#STOPS:;
#TIMESIGNATURES:0.000=4=4;
#BGCHANGES:0.000=Do Back Burn.mp4=1.000=0=0=0=StretchNoLoop====,
99999.000=-nosongbg-=1.000=0=0=0=StretchNoLoop====
;
#FGCHANGES:;

//--------------- dance-single - forcednature ----------------
#NOTEDATA:;
#STEPSTYPE:dance-single;
#DESCRIPTION:forcednature;
#DIFFICULTY:Beginner;
#METER:2;
#RADARVALUES:0,0,0,0,0;
#CREDIT:forcednature;
#NOTES:
0000
0000
0000
0000
,
0000
0000
0000
0000
,
0000
0000
0000
0000
,
0000
0000
0000
0000
,
0000
0000
0000
0000
,
0001
0000
0000
0000
,
0000
0000
0000
0000
,
1000
0000
0000
0000
,
0000
0000
0000
0000
,
0010
0000
0000
0000
,
0000
0000
0000
0000
,
0000
0000
0000
0000
,
0000
0000
0000
0000
,
0100
0000
0000
0000
,
0000
0000
0000
0000
,
0000
0000
0000
0000
,
0000
0000
0000
0000
,
0001
0000
0000
0000
,
0000
0000
0000
0000
,
0000
0000
0000
0000
,
0000
0000
0000
0000
,
1000
0000
0000
0000
,
0000
0000
0000
0000
,
0000
0000
0000
0000
,
0000
0000
0000
0000
,
0100
0000
0000
0000
,
0000
0000
0000
0000
,
0000
0000
0000
0000
,
0000
0000
0000
0000
,
0010
0000
0000
0000
,
0000
0000
0000
0000
,
0000
0000
0000
0000
,
0000
0000
0000
0000
,
0001
0000
0000
0000
,
0000
0000
0000
0000
,
1000
0000
0000
0000
,
0000
0000
0000
0000
,
0010
0000
0000
0000
,
0000
0000
0000
0000
,
0100
0000
0000
0000
,
0000
0000
0000
0000
,
0001
0000
0000
0000
,
1000
0000
1000
0000
,
0001
0000
0000
0000
,
0010
0000
0010
0000
,
0001
0000
0000
0000
,
1000
0000
1000
0000
,
0001
0000
0000
0000
,
0100
0000
0100
0000
,
0010
0000
0000
0000
,
1000
0001
1000
0001
,
0000
0000
0000
0000
,
0001
1000
0001
1000
,
0000
0000
0000
0000
,
0010
0100
0010
0100
,
0000
0000
0000
0000
,
0100
0010
0100
0010
;

//--------------- dance-single - forcednature ----------------
#NOTEDATA:;
#STEPSTYPE:dance-single;
#DESCRIPTION:forcednature;
#DIFFICULTY:Easy;
#METER:4;
#RADARVALUES:0,0,0,0,0;
#CREDIT:forcednature;
#NOTES:
0000
0000
0000
0000
,
0000
0000
0000
0000
,
0000
0000
0000
0000
,
0000
0000
0000
0000
,
0000
0000
0000
0000
,
0000
1000
0000
1000
,
0001
0001
0001
0001
,
0000
0010
0000
0010
,
0001
0000
0100
0010
,
0110
0000
0000
0001
,
0000
0001
0000
0100
,
0000
0010
0000
0010
,
0000
1000
0000
0100
,
0000
1000
0000
1000
,
0000
0001
0000
0010
,
0000
0100
0000
0100
,
0000
0010
0010
0001
,
0000
0100
0000
0100
,
0000
0010
0000
1000
,
0000
0100
0000
0100
,
0000
1000
0000
0001
,
0000
0010
0000
0010
,
0000
0001
0000
1000
,
0000
0010
0000
0010
,
0000
0100
0000
0100
,
0001
0000
0000
0001
,
0000
0001
0000
0001
,
1000
0000
0000
1000
,
0000
1000
0000
1000
,
0100
0000
0000
0010
,
0000
0010
0000
0100
,
0010
0000
0000
0000
,
0110
0000
0000
0000
,
1000
0001
1000
0000
,
0001
0000
0001
0000
,
0100
0000
0100
0000
,
0010
0000
1000
0000
,
0001
1000
0001
0000
,
0010
0000
0010
0000
,
0100
0000
0100
0000
,
1000
0001
1000
0000
,
1001
0000
0000
0000
,
0001
0010
0100
0010
,
0001
0000
0000
0000
,
1000
0010
0100
0010
,
1000
0000
0000
0000
,
0001
1000
0100
1000
,
0001
0000
0000
0000
,
1000
0001
0100
0001
,
1000
0000
0000
0000
,
0100
0100
0100
0100
,
1000
0000
0000
0000
,
0010
0010
0010
0010
,
1000
0000
0000
0000
,
0001
1000
0010
0100
,
0001
0000
0000
0000
,
1000
0001
0010
0100
,
1000
0000
0000
0000
;

//--------------- dance-single - forcednature ----------------
#NOTEDATA:;
#STEPSTYPE:dance-single;
#DESCRIPTION:forcednature;
#DIFFICULTY:Medium;
#METER:7;
#RADARVALUES:0,0,0,0,0;
#CREDIT:forcednature;
#NOTES:
0000
0000
0000
0000
,
0000
0000
0000
0000
,
0000
0000
0000
0000
,
0000
0000
0000
0000
,
0000
0000
0000
0000
,
1000
0100
0000
0100
,
1000
0001
1000
0001
,
0010
0001
0000
0001
,
0100
0000
0010
1000
,
1001
0001
0010
0100
,
0010
0001
2000
3002
,
0103
0010
0100
0001
,
0100
0010
2000
3002
,
1003
0100
0010
0100
,
1000
0100
2000
3002
,
0013
0100
0010
0001
,
0000
0100
0100
0001
,
1000
0010
0100
0010
,
1000
0010
0200
0302
,
1003
0100
0010
0100
,
1000
0100
0020
0032
,
1003
0001
0100
0001
,
1000
0001
0200
0320
,
1030
0001
0010
0001
,
1000
0100
0100
0010
,
0110
0001
0000
0001
,
0000
1000
0000
1000
,
0010
0100
0000
0100
,
0000
0001
0000
0001
,
0010
0100
0000
0100
,
0000
1000
0000
1000
,
0010
0000
0000
0000
0100
0000
0000
0000
0000
0000
0000
0000
0010
0000
0000
0220
,
0000
0000
0330
1001
,
1000
0001
1000
0001
,
0010
0100
0010
0100
,
1000
0010
0001
0010
,
1000
0010
0001
0010
,
1000
0001
1000
0001
,
0100
0010
0100
0010
,
1000
0100
0001
0100
,
1000
0000
1000
0000
0001
0000
0010
0100
,
0010
0001
0100
0010
,
2000
3002
2003
3002
,
0103
0010
1000
0100
,
2000
3002
2003
3002
,
0013
0001
0100
0010
,
2000
3002
2003
3002
,
0103
0010
1000
0100
,
2000
3002
2003
3001
,
1001
1000
0000
1000
,
0020
0230
0320
0230
,
0301
1000
0000
1000
,
0200
0320
0230
0320
,
0031
1001
0000
1001
,
0000
0110
0000
0110
,
0000
1100
0000
1100
,
0000
0000
0101
0000
0000
0000
0001
1000
,
0001
0000
0000
0000
;

//--------------- dance-single - forcednature ----------------
#NOTEDATA:;
#STEPSTYPE:dance-single;
#DESCRIPTION:forcednature;
#DIFFICULTY:Hard;
#METER:11;
#RADARVALUES:0,0,0,0,0;
#CREDIT:forcednature;
#NOTES:
0000
0000
0000
0000
,
0000
0000
0000
0000
,
0000
0000
0000
0000
,
0000
0000
0000
0000
,
0000
0000
0000
0000
,
0001
0100
1000
0000
0100
0001
1000
0000
,
1010
0011
1010
0001
,
1000
0100
0001
0000
0100
1000
0001
0000
,
0010
0000
0000
0000
0000
0000
0000
0000
0000
0100
0000
0000
0000
0000
0000
0000
0000
0000
0000
0000
0000
0000
0000
0000
1000
0000
0000
0000
0001
0000
0000
0000
1000
0000
0000
0000
0001
0000
0000
0000
0000
0000
0000
0000
0000
0000
0000
0000
,
1000
0010
0100
0001
0000
0010
0100
1000
,
0000
0010
0100
0001
0000
1000
0100
0001
,
0000
0100
1000
0010
0000
0100
0001
0010
,
0000
0100
1000
0010
0000
0001
0010
1000
,
0000
0001
0010
0100
0000
1000
0010
0100
,
0000
0001
0010
0100
0000
0001
0100
1000
,
0000
0010
0100
0001
0000
0010
0100
1000
,
0000
0000
0010
0000
0010
0000
0100
0000
0000
0010
0000
0000
0100
0000
0001
0000
,
0000
1000
0100
0001
0000
0100
1000
0001
,
0000
1000
0100
0001
0000
1100
0000
1010
,
0000
0001
0100
1000
0000
0100
0001
1000
,
0000
0001
0100
1000
0000
0101
0000
0011
,
0000
1000
0010
0100
0000
0001
0010
0100
,
0000
1000
0010
0100
0000
0110
0000
1001
,
0000
0001
0010
0100
0000
1000
0010
0100
,
0000
0000
0001
0000
0001
0000
1000
0000
0000
0001
0000
0000
0010
0000
0000
0000
,
0110
0000
0000
0000
1000
0000
0001
0000
0000
0100
0000
0000
0001
0000
0000
0000
,
0010
0000
0000
0000
0001
0000
1000
0000
0000
0100
0000
0000
1000
0000
0000
0000
,
0010
0000
0000
0000
1000
0000
0001
0000
0000
0100
0000
0000
1000
0000
0000
0000
,
0100
0000
0000
0000
0001
0000
1000
0000
0000
0010
0000
0000
0100
0000
0000
0000
,
0001
0000
0000
0000
0010
0000
1000
0000
0000
0010
0000
0000
0001
0000
0000
0000
,
1000
0000
0000
0000
0100
0000
1000
0000
0000
0010
0000
0000
0100
0000
0000
0000
,
0001
0000
0000
0000
0010
0000
0100
0000
0000
1000
0000
0000
0010
0000
0000
2002
,
0000
0000
0000
3003
,
1000
0000
0000
1000
0001
0000
0000
0001
1000
0000
0000
1000
0001
0000
0000
0000
,
0100
0000
0000
0100
0010
0000
0000
0010
0100
0000
0000
0100
0010
0000
0000
0000
,
1000
0000
0000
1000
0100
0000
0000
0100
0010
0000
0000
0010
0001
0000
0000
0001
,
0010
0000
0000
0010
0100
0000
0000
0100
1000
0000
0000
1000
0001
0000
0000
0000
,
0100
0000
0000
0100
0010
0000
0000
0010
0100
0000
0000
0100
0010
0000
0000
0000
,
1000
0000
0000
1000
0001
0000
0000
0001
1000
0000
0000
1000
0001
0000
0000
0000
,
0010
0000
0000
0010
0001
0000
0000
0001
0100
0000
0000
0100
0010
0000
0000
0010
,
1000
0000
0001
0000
0001
0000
1000
0000
0000
0001
0000
0000
0200
0000
0000
0000
,
0301
1000
0100
1000
0001
0010
1000
0000
,
0011
0101
1100
0101
,
1000
0001
0100
0001
1000
0010
0001
0000
,
1010
1100
0101
1100
,
0001
0010
0100
0001
0100
1000
0001
0000
,
0101
0011
1010
0011
,
1000
0010
0100
1000
0100
0001
1000
0000
,
1100
1010
0011
1010
,
0001
0010
0001
1000
0010
0100
0001
0000
,
1000
0000
0000
1000
0100
0000
0000
0100
0001
0000
0000
0001
0100
0000
0000
0000
,
1000
0010
1000
0001
0010
0100
1000
0000
,
0001
0000
0000
0001
0100
0000
0000
0100
1000
0000
0000
1000
0200
0000
0000
0000
,
0300
0001
1000
0010
0010
1000
0001
0000
,
2000
3200
0302
0203
,
0300
1000
0001
0010
0010
0001
1000
0000
,
0002
0000
0203
0000
2300
0000
3100
0100
,
0010
0000
0000
0000
;

//--------------- dance-single - forcednature ----------------
#NOTEDATA:;
#STEPSTYPE:dance-single;
#DESCRIPTION:forcednature;
#DIFFICULTY:Challenge;
#METER:15;
#RADARVALUES:0,0,0,0,0;
#CREDIT:forcednature;
#NOTES:
0000
0000
0000
0000
,
0000
0000
0000
0000
,
0000
0000
0000
0000
,
0000
0000
0000
0000
,
0000
0000
0000
0000
,
1000
0000
0100
0000
1000
0000
0010
0000
0010
0000
0000
0100
0001
0100
0000
0000
,
0011
0000
1010
0000
0011
0000
1000
0001
,
0000
0000
0100
0000
0001
0000
0010
0000
0010
0000
0000
0100
1000
0100
0000
0000
,
1000
0000
0000
0010
0000
0000
0100
0000
0000
0010
0000
0000
0000
0000
0000
0000
0000
0000
0200
0000
0000
0000
0000
0000
0301
0000
0000
0000
0010
0000
0000
0000
0100
0000
0000
0000
1000
0000
0000
0000
0000
0000
0010
0000
0000
0000
0000
0000
,
1001
0000
0100
0000
0001
0000
0010
0001
0010
0000
0100
0000
1000
0000
0010
1000
,
0010
0000
0100
0000
0001
0000
0010
0001
0010
0000
0200
0000
1000
0000
2300
0000
,
3010
0000
1000
0000
0100
0000
0010
0001
1000
0000
0001
0000
0100
0000
0010
1000
,
0001
0000
1000
0000
0100
0000
0010
0001
1000
0000
0020
0000
0100
0000
0230
0000
,
0001
0000
0310
0000
1000
0000
0001
0010
0100
0000
0010
0000
0001
0000
1000
0010
,
0100
0000
0010
0000
1000
0000
0001
0010
0100
0000
0020
0000
0001
0000
0032
0000
,
0100
0000
1003
0000
0010
0000
0100
0001
0010
0000
0001
0000
0010
0000
0100
1000
,
0010
0000
0100
0000
0100
0000
0001
0100
0000
0001
0010
0000
0100
0010
0100
0010
,
0000
0000
0100
0000
1000
0000
0010
0100
0001
0000
0010
0000
0001
0000
0100
0010
,
1000
0000
0100
0000
1000
0000
0010
0100
0001
0000
0020
0000
0001
0000
0230
0000
,
1000
0000
0310
0000
0001
0000
0100
0001
1000
0000
0010
0000
1000
0000
0100
1000
,
0001
0000
0010
0000
0001
0000
0100
0001
1000
0000
0020
0000
1000
0000
0230
0000
,
0001
0000
0310
0000
1000
0000
0100
1000
0010
0000
0100
0000
0001
0000
0010
0001
,
0100
0000
0010
0000
1000
0000
0100
1000
0010
0000
2000
0000
0100
0000
3002
0000
,
0010
0000
1003
0000
0010
0000
0100
0001
0010
0000
0001
0000
0100
0000
0010
1000
,
0100
0000
0010
0000
0010
0000
0100
0010
0000
0001
0010
0000
0001
0100
0001
0100
,
0010
0000
0000
0000
1000
0000
0100
1000
0000
0010
0000
0000
0100
0010
0100
0001
,
0000
0010
0000
0000
0100
0010
0100
1000
0000
0001
0000
0000
0010
0001
1000
0001
,
1000
0100
0000
0000
1000
0000
0010
0100
0000
0001
0000
0000
0010
0001
0010
0100
,
0000
1000
0000
0000
0010
1000
0010
0100
0000
0001
0000
0000
0010
0001
1000
0001
,
1000
0100
0000
0000
1000
0000
0010
0100
0000
0001
0000
0000
0010
0001
0010
0100
,
0000
1000
0000
0000
0001
0100
0001
1000
0000
0010
0000
0000
0100
0001
0100
0001
,
1000
0010
0000
0000
1000
0000
0100
0010
0000
0100
0000
0000
1000
0010
1000
0002
,
0000
0000
0000
0000
0000
0000
0000
0000
0000
0003
0000
0000
0001
1000
0001
1000
,
0010
0000
1000
0100
0010
0000
0001
0100
0010
0000
1000
0100
0010
0000
0001
0000
,
1000
0000
0010
0100
0001
0000
0010
0100
1000
0000
0010
0100
0001
0000
0010
0000
,
0001
0000
1000
0100
0001
0000
0100
1000
0001
0000
0001
0100
1000
0000
0100
0001
,
1000
0000
1000
0100
0001
0000
0100
1000
0001
0000
0001
0100
0010
0000
1000
0000
,
0001
0000
0010
0001
0100
0000
0010
1000
0100
0000
0010
0001
0100
0000
0010
0000
,
1000
0000
0001
0100
1000
0000
0100
0001
1000
0000
0001
0100
1000
0000
0100
0000
,
0001
0000
0001
0010
0100
0000
0100
1000
0010
0000
1000
0010
0100
0000
0100
0001
,
0010
0000
0100
0010
0100
0000
0010
0001
0000
0001
0100
0000
0010
1000
0010
1000
,
0000
0000
0001
0010
0000
0100
0010
0000
0001
0100
0000
0010
0000
0010
1000
0000
,
1200
0301
1200
0301
1200
0301
1200
0301
,
0100
0000
1000
0010
0000
0100
0010
0000
1000
0001
0000
0010
0000
0010
0001
0000
,
0201
0000
1300
0000
0201
0000
1300
0000
0201
0000
1300
0000
0100
0010
0100
0001
,
0000
0000
1000
0010
0000
0100
0010
0000
1000
0001
0000
0010
0000
0010
0100
0000
,
0021
1030
0021
1030
0021
1030
0021
1030
,
0000
0000
0010
0001
0000
0100
0001
0000
1000
0010
0000
0100
0000
0100
0001
0000
,
1000
0100
1000
0000
0010
0100
0010
0100
0000
0001
0010
0000
0001
1000
0001
1000
,
0100
0000
0010
0000
0110
0000
1000
0000
0010
0100
0000
0100
0001
0010
0001
0000
,
1000
0200
0001
0000
1300
0200
0001
0000
1300
0200
0001
0000
1300
0200
0001
0000
,
1300
0000
0010
0000
0110
0000
0001
0000
0010
0100
0000
0100
1000
0010
1000
0000
,
0001
0200
1000
0000
0301
0200
1000
0000
0301
0200
1000
0000
0301
0100
0010
1000
,
0001
0000
0010
0000
0100
0010
0100
0000
1000
0000
0010
0000
0100
0010
0100
0000
,
0010
2000
0100
0000
3010
2000
0100
0000
3010
2000
0100
0000
3010
2000
0100
0000
,
3010
0000
0100
0000
0001
0010
0001
0000
0100
0000
0010
1000
0010
1000
0100
0000
,
0010
0002
0100
0000
0013
0002
0100
0000
0013
0002
0100
0003
0010
0001
0010
0001
,
1000
0000
0000
0000
;

//--------------- dance-double - forcednature ----------------
#NOTEDATA:;
#STEPSTYPE:dance-double;
#DESCRIPTION:forcednature;
#DIFFICULTY:Easy;
#METER:4;
#RADARVALUES:0,0,0,0,0;
#CREDIT:forcednature;
#NOTES:
00000000
00000000
00000000
00000000
,
00000000
00000000
00000000
00000000
,
00000000
00000000
00000000
00000000
,
00000000
00000000
00000000
00000000
,
00000000
00000000
00000000
00000000
,
00000000
00001000
00000000
00001000
,
00010000
00010000
00010000
00010000
,
00000000
00000010
00000000
00000010
,
00001000
00000000
00000100
00000000
,
00000110
00000000
00000000
00000001
,
00000000
00000001
00000000
00000100
,
00000000
00001000
00000000
00001000
,
00000000
00010000
00000000
00100000
,
00000000
10000000
00000000
10000000
,
00000000
01000000
00000000
00100000
,
00000000
01000000
00000000
01000000
,
00000000
10000000
10000000
00100000
,
00000000
01000000
00000000
01000000
,
00000000
00010000
00000000
00100000
,
00000000
00001000
00000000
00001000
,
00000000
00010000
00000000
00000100
,
00000000
00001000
00000000
00001000
,
00000000
00000001
00000000
00000010
,
00000000
00000001
00000000
00000001
,
00000000
00000100
00000000
00000100
,
00001000
00000000
00000000
00001000
,
00000000
00010000
00000000
00010000
,
00001000
00000000
00000000
00100000
,
00000000
00100000
00000000
00010000
,
00100000
00000000
00000000
01000000
,
00000000
01000000
00000000
10000000
,
01000000
00000000
00000000
00000000
,
01100000
00000000
00000000
00000000
,
00010000
00100000
00010000
00000000
,
00100000
00000000
00100000
00000000
,
00001000
00000000
00001000
00000000
,
00010000
00000000
00001000
00000000
,
00010000
00000100
00010000
00000000
,
00000100
00000000
00000100
00000000
,
00001000
00000000
00001000
00000000
,
00000010
00001000
00000010
00000000
,
00001001
00000000
00000000
00000000
,
00000001
00000010
00000100
00000010
,
00000001
00000000
00000000
00000000
,
00001000
00000100
00010000
00001000
,
00010000
00000000
00000000
00000000
,
00001000
00100000
00010000
00100000
,
00001000
00000000
00000000
00000000
,
01000000
00010000
10000000
00010000
,
00100000
00000000
00000000
00000000
,
01000000
01000000
01000000
01000000
,
00100000
00000000
00000000
00000000
,
00001000
00001000
00001000
00001000
,
00010000
00000000
00000000
00000000
,
00000010
00001000
00000001
00000100
,
00000010
00000000
00000000
00000000
,
00001000
00000100
00010000
00001000
,
00100000
00000000
00000000
00000000
;

//--------------- dance-double - forcednature ----------------
#NOTEDATA:;
#STEPSTYPE:dance-double;
#DESCRIPTION:forcednature;
#DIFFICULTY:Medium;
#METER:7;
#RADARVALUES:0,0,0,0,0;
#CREDIT:forcednature;
#NOTES:
00000000
00000000
00000000
00000000
,
00000000
00000000
00000000
00000000
,
00000000
00000000
00000000
00000000
,
00000000
00000000
00000000
00000000
,
00000000
00000000
00000000
00000000
,
00001000
00010000
00000000
00000010
,
00001000
00000001
00001000
00000001
,
00000010
00000100
00000000
00010000
,
00001000
00000000
00100000
00000000
,
10010000
00000000
00010000
00100000
,
01000000
00100000
00020000
20030000
,
31000000
00000000
00100000
00001000
,
00010000
00000100
00002000
00003002
,
00000103
00000000
00000010
00010000
,
00001000
01000000
00020000
20030000
,
30100000
00000000
01000000
00001000
,
00000000
00010000
00010000
00001000
,
00010000
00000000
00000100
00001000
,
00000010
00000100
00000002
00002003
,
00003010
00000000
00000100
00001000
,
00010000
00100000
20000000
30020000
,
00130000
00000000
01000000
10000000
,
01000000
00010000
00002000
00023000
,
00030100
00000000
00001000
00000010
,
00000100
00000001
00000001
00000010
,
00000110
00001000
00000000
00001000
,
00000000
00000100
00000000
00000100
,
00010000
00001000
00000000
00001000
,
00000000
00100000
00000000
00100000
,
00010000
01000000
00000000
01000000
,
00000000
00100000
00000000
00100000
,
10000000
00000000
00000000
00000000
01000000
00000000
00000000
00000000
00000000
00000000
00000000
00000000
00100000
00000000
00000000
02200000
,
00000000
00000000
03300000
00010000
,
01000000
01000000
00001000
00010000
,
00000100
00000100
00010000
00001000
,
00100000
00010000
00100000
00001000
,
00010000
00000010
00001000
00000010
,
00000100
00000100
00001000
00010000
,
01000000
01000000
00010000
00001000
,
00100000
00010000
00100000
00001000
,
00010000
00010000
00000010
00001000
,
00000001
00000010
00000100
00000010
,
00000002
00002003
00003002
00002003
,
00003100
00010000
00001000
00100000
,
00020000
20030000
30020000
20030000
,
30100000
01000000
00010000
00100000
,
00002000
00023000
00032000
00023000
,
00030100
00001000
00000010
00000100
,
00000002
00002003
00003002
00001003
,
00001001
00001000
00000000
00001000
,
00000200
00020300
00030200
00020300
,
00031000
00100000
00000000
00100000
,
00020000
02030000
03020000
02030000
,
03100000
10010000
00000000
10010000
,
00000000
01100000
00000000
01100000
,
00000000
00011000
00000000
00011000
,
00000000
00000000
00000110
00000000
00000000
00000000
00001000
00000001
,
00001000
00000000
00000000
00000000
;

//--------------- dance-double - forcednature ----------------
#NOTEDATA:;
#STEPSTYPE:dance-double;
#DESCRIPTION:forcednature;
#DIFFICULTY:Hard;
#METER:11;
#RADARVALUES:0,0,0,0,0;
#CREDIT:forcednature;
#NOTES:
00000000
00000000
00000000
00000000
,
00000000
00000000
00000000
00000000
,
00000000
00000000
00000000
00000000
,
00000000
00000000
00000000
00000000
,
00000000
00000000
00000000
00000000
,
00001000
00010000
00000010
00000000
00001000
00000001
00000100
00000000
,
00001010
00000000
00001100
00000000
00001010
00000000
00010000
00001000
,
00100000
00010000
01000000
00000000
00100000
10000000
01000000
00000000
,
00010000
00000000
00000000
00000000
00000000
00000000
00000000
00000000
00000000
00001000
00000000
00000000
00000000
00000000
00000000
00000000
00000000
00000000
00000000
00000000
00000000
00000000
00000000
00000000
00000010
00000000
00000000
00000000
00000100
00000000
00000000
00000000
00000010
00000000
00000000
00000000
00000100
00000000
00000000
00000000
00000000
00000000
00000000
00000000
00000000
00000000
00000000
00000000
,
00000110
00000000
00000010
00000001
00000000
00000100
00001000
00010000
,
00000000
01000000
00010000
00001000
00000000
00200000
00300000
00020000
,
00030000
10000000
00100000
00010000
00000000
00001000
00010000
00000010
,
00000000
00000100
00000001
00000010
00000000
00002000
00003000
00020000
,
00030000
01000000
10000000
00100000
00000000
01000000
00001000
00010000
,
00000000
00000010
00001000
00000001
00000000
00000200
00000300
00002000
,
00003000
00010000
00100000
10000000
00000000
01000000
10000000
00100000
,
00000000
00000000
00010000
00000000
00010000
00000000
00001000
00000000
00000000
00010000
00000000
00000000
00001000
00000000
00000010
00000000
,
00000000
00000001
00000100
00001000
00000000
00010000
00001000
00000100
,
00000000
00000001
00000010
00001000
00000000
00011000
00000000
00101000
,
00000000
00100000
00010000
01000000
00000000
00100000
10000000
01000000
,
00000000
00010000
00001000
00000010
00000000
00000110
00000000
00010100
,
00000000
00010000
00001000
00000010
00000000
00001000
00010000
00100000
,
00000000
01000000
00010000
10000000
00000000
11000000
00000000
10100000
,
00000000
00100000
01000000
00001000
00000000
00010000
00000010
00000100
,
00000000
00000000
00000001
00000000
00000001
00000000
00001000
00000000
00000000
00000001
00000000
00000000
00000010
00000000
00001000
00000000
,
00010000
00000000
00000000
00000000
00001000
00000000
00100000
00000000
00000000
00010000
00000000
00000000
00010000
00000000
00000000
00000000
,
01000000
00000000
00000000
00000000
00100000
00000000
10000000
00000000
00000000
01000000
00000000
00000000
01000000
00000000
00000000
00000000
,
00010000
00000000
00000000
00000000
00001000
00000000
00010000
00000000
00000000
00010000
00000000
00000000
00000100
00000000
00000000
00000000
,
00001000
00000000
00000000
00000000
00000010
00000000
00000100
00000000
00000000
00000100
00000000
00000000
00000001
00000000
00000000
00000000
,
00000010
00000000
00000000
00000000
00001000
00000000
00010000
00000000
00000000
00001000
00000000
00000000
00010000
00000000
00000000
00000000
,
01000000
00000000
00000000
00000000
10000000
00000000
00100000
00000000
00000000
01000000
00000000
00000000
00100000
00000000
00000000
00000000
,
00010000
00000000
00000000
00000000
00001000
00000000
00010000
00000000
00000000
00001000
00000000
00000000
00000100
00000000
00000000
00000220
,
00000000
00000000
00000000
00000330
,
00000001
00000000
00000000
00000001
00000100
00000000
00000000
00000100
00001000
00000000
00000000
00001000
00010000
00000000
00000000
00000000
,
00100000
00000000
00000000
00100000
10000000
00000000
00000000
10000000
00100000
00000000
00000000
00100000
10000000
00000000
00000000
00000000
,
01000000
00000000
00000000
01000000
00010000
00000000
00000000
00010000
00001000
00000000
00000000
00001000
00000010
00000000
00000000
00000010
,
00000001
00000000
00000000
00000001
00000100
00000000
00000000
00000100
00001000
00000000
00000000
00001000
00010000
00000000
00000000
00000000
,
00100000
00000000
00000000
00100000
10000000
00000000
00000000
10000000
00100000
00000000
00000000
00100000
10000000
00000000
00000000
00000000
,
01000000
00000000
00000000
01000000
00010000
00000000
00000000
00010000
00001000
00000000
00000000
00001000
00000010
00000000
00000000
00000000
,
00000100
00000000
00000000
00000100
00010000
00000000
00000000
00010000
00001000
00000000
00000000
00001000
00000010
00000000
00000000
00000010
,
00000001
00000000
00001000
00000000
00001000
00000000
00000001
00000000
00000000
00000100
00000000
00000000
00002000
00000000
00000000
00000000
,
00013000
00100000
10000000
01000000
10000000
00010000
00100000
00000000
,
00110000
00011000
00001100
00000110
,
00000001
00000010
00000001
00000100
00001000
00000100
00000001
00000000
,
00001010
00011000
01010000
01100000
,
10000000
01000000
00010000
01000000
10000000
00100000
00010000
00000000
,
00011000
00010100
00001010
00000110
,
00000001
00000100
00001000
00000100
00000001
00000010
00001000
00000000
,
00011000
00101000
00110000
01010000
,
10000000
00100000
01000000
00001000
00010000
00000010
00000100
00000000
,
00001000
00000000
00000000
00001000
00000100
00000000
00000000
00000100
00000001
00000000
00000000
00000001
00000010
00000000
00000000
00000000
,
00000001
00000100
00000010
00010000
00001000
01000000
00100000
00000000
,
10000000
00000000
00000000
10000000
01000000
00000000
00000000
01000000
00010000
00000000
00000000
00010000
02000000
00000000
00000000
00000000
,
03000000
10000000
00100000
00010000
00010000
00100000
10000000
00000000
,
02000000
03020000
00032000
00003020
,
00000030
00000001
00000100
00001000
00001000
00000100
00000001
00000000
,
00000020
00000000
00002030
00000000
00023000
00000000
01030000
01000000
;

//--------------- dance-double - forcednature ----------------
#NOTEDATA:;
#STEPSTYPE:dance-double;
#DESCRIPTION:forcednature;
#DIFFICULTY:Challenge;
#METER:15;
#RADARVALUES:0,0,0,0,0;
#CREDIT:forcednature;
#NOTES:
00000000
00000000
00000000
00000000
,
00000000
00000000
00000000
00000000
,
00000000
00000000
00000000
00000000
,
00000000
00000000
00000000
00000000
,
00000000
00000000
00000000
00000000
,
00001000
00000000
00010000
00000000
00000100
00000000
00001000
00000000
00001000
00000000
00000000
00000001
00000100
00000001
00000000
00000000
,
00020010
00000000
00100000
00000000
00000010
00000000
00130000
00010000
,
00001000
00000000
01000000
00000000
00010000
00000000
00100000
00000000
00100000
00000000
00000000
00010000
10000000
00010000
00000000
00000000
,
10000000
00000000
00000000
01000000
00000000
00000000
00100000
00000000
00000000
01000000
00000000
00000000
00000000
00000000
00000000
00000000
00000000
00000000
00200000
00000000
00000000
00000000
00000000
00000000
00301000
00000000
00000000
00000000
00010000
00000000
00000000
00000000
00001000
00000000
00000000
00000000
00010000
00000000
00000000
00000000
00000000
00000000
00000100
00000000
00000000
00000000
00000000
00000000
,
00001100
00000000
00000001
00000000
00000010
00000000
00000100
00000010
00000100
00000000
00010000
00000000
00001000
00000000
00100000
00010000
,
00100000
00000000
01000000
00000000
10000000
00000000
00100000
10000000
00100000
00000000
00020000
00000000
00030000
00000000
00002000
00000000
,
00003000
00000000
00000100
00000000
00000001
00000000
00000010
00000001
00000010
00000000
00001000
00000000
00010000
00000000
00001000
00100000
,
00010000
00000000
01000000
00000000
00100000
00000000
10000000
00100000
10000000
00000000
00020000
00000000
00030000
00000000
00002000
00000000
,
00003000
00000000
00000010
00000000
00000100
00000000
00000001
00000010
00000001
00000000
00001000
00000000
00000100
00000000
00010000
00001000
,
00010000
00000000
00001000
00000000
00100000
00000000
01000000
10000000
01000000
00000000
00020000
00000000
00030000
00000000
00002000
00000000
,
00003000
00000000
00000001
00000000
00000100
00000000
00000001
00000010
00000100
00000000
00001000
00000000
00000100
00000000
00010000
00001000
,
00100000
00000000
00010000
00000000
00010000
00000000
01000000
00010000
00000000
01000000
00100000
00000000
10000000
00010000
10000000
00010000
,
00000000
00000000
10000000
00000000
00100000
00000000
01000000
00100000
01000000
00000000
00001000
00000000
00010000
00000000
00000010
00001000
,
00000010
00000000
00000100
00000000
00000001
00000000
00000010
00000001
00000010
00000000
00002000
00000000
00003000
00000000
00020000
00000000
,
00030000
00000000
01000000
00000000
10000000
00000000
00100000
10000000
00100000
00000000
00010000
00000000
00001000
00000000
00010000
00000010
,
00001000
00000000
00000100
00000000
00000010
00000000
00000001
00000010
00000001
00000000
00002000
00000000
00003000
00000000
00020000
00000000
,
00030000
00000000
00100000
00000000
01000000
00000000
10000000
00100000
10000000
00000000
00010000
00000000
01000000
00000000
00001000
00010000
,
00001000
00000000
00010000
00000000
00000010
00000000
00000100
00000001
00000100
00000000
00002000
00000000
00003000
00000000
00020000
00000000
,
00030000
00000000
10000000
00000000
01000000
00000000
10000000
00100000
01000000
00000000
00010000
00000000
01000000
00000000
00001000
00010000
,
00000010
00000000
00001000
00000000
00001000
00000000
00000100
00001000
00000000
00000100
00000010
00000000
00000001
00001000
00000001
00001000
,
00000001
00000000
00000000
00000000
00000100
00000000
00001000
00000100
00000000
00001000
00000000
00000000
00010000
00001000
00010000
00001000
,
00000000
00100000
00000000
00000000
00010000
01000000
00010000
10000000
00000000
00100000
00000000
00000000
10000000
00010000
10000000
00010000
,
10000000
01000000
00000000
00000000
00100000
00000000
01000000
00010000
00000000
00010000
00000000
00000000
00001000
00010000
00001000
00010000
,
00000000
00000100
00000000
00000000
00001000
00000010
00001000
00000001
00000000
00000100
00000000
00000000
00000001
00000010
00000001
00000010
,
00000001
00001000
00000000
00000000
00000100
00000000
00001000
00000100
00000000
00010000
00000000
00000000
00001000
00010000
00001000
00100000
,
00000000
00010000
00000000
00000000
01000000
00010000
10000000
00010000
00000000
00100000
00000000
00000000
01000000
10000000
01000000
10000000
,
00010000
00100000
00000000
00000000
00001000
00000000
00010000
00000100
00000000
00001000
00000000
00000000
00000001
00000100
00000001
00002000
,
00000000
00000000
00000000
00000000
00000000
00000000
00000000
00000000
00003000
00000000
00000000
00000000
00001000
00000001
00001000
00000001
,
00002000
00000100
00000001
00000010
,
00023000
01000000
10000000
00100000
,
00031000
00000000
00000100
00000010
00000001
00000000
00000100
00000010
00001000
00000000
00000100
00010000
00001000
00000000
00100000
00010000
,
01000000
00000000
00100000
10000000
01000000
00000000
00100000
00001000
00010000
00000000
00000010
00010000
00001000
00000000
01000000
00000000
,
00020000
01000000
10000000
00100000
,
00032000
00000100
00000001
00000010
,
00013000
00000000
01000000
00100000
10000000
00000000
01000000
00100000
00010000
00000000
01000000
00001000
00010000
00000000
00000010
00001000
,
00000100
00000000
00000010
00000000
00000010
00000000
00000001
00000100
00000000
00000100
00001000
00000000
00010000
00001000
00010000
00001000
,
00100000
00000000
00010000
01000000
00000000
00100000
01000000
00000000
00010000
10000000
00000000
01000000
00000000
00010000
00001000
00000000
,
00102000
00000010
00100000
00003010
,
00001000
00000000
00010000
00000100
00000000
00001000
00000010
00000000
00000100
00000001
00000000
00000100
00000000
00001000
00010000
00000000
,
00020010
00000000
00100000
00000000
00000010
00000000
00130000
00010000
,
00001000
00000000
01000000
00010000
00000000
10000000
00100000
00000000
10000000
00010000
00000000
01000000
00000000
00001000
00010000
00000000
,
01002000
00000100
01000000
00003100
,
00001000
00000000
00010000
00000010
00000000
00001000
00000100
00000000
00000010
00000001
00000000
00000100
00000000
00000010
00001000
00000000
,
00000100
00010000
00000100
00000000
00010000
00001000
00010000
00001000
00000000
00100000
00010000
00000000
01000000
00000000
00100000
10000000
,
00010000
00000000
00100000
00000000
01100000
00000000
10000000
00000000
10000000
00000000
00000000
00100000
00000000
01000000
00001000
00000000
,
00102000
00000100
00100000
00003100
,
00001000
00000000
00010000
00000000
00001010
00000000
00000001
00000000
00000001
00000000
00000000
00000010
00000000
00000100
00010000
00000000
,
00020100
00000000
00000000
00000000
00100000
00000000
00000000
00000000
00000100
00000000
00000000
00000000
00130000
00000000
00010000
00001000
,
00010000
00000000
00000000
00000000
00001000
00000000
00000010
00000000
00000001
00000000
00000100
00001000
00000000
00010000
00001000
00000000
,
00200000
00320000
00030020
00002030
,
00103000
00000000
00010000
00000000
01000000
00000000
00100000
00000000
10000000
00000000
01000000
10000000
00000000
00010000
00100000
00000000
,
02000000
00000000
00000000
00000000
03002000
00000000
00000000
00000000
00003200
00000000
00000000
00000000
00010300
00001000
00010000
00001000
,
00100000
00000000
00000000
00000000
;
