#VERSION:0.83;
#TITLE:ダーリンダンス;
#SUBTITLE:;
#ARTIST:かいりきベア;
#TITLETRANSLIT:Darling dance;
#SUBTITLETRANSLIT:;
#ARTISTTRANSLIT:Kairiki bear;
#GENRE:;
#CREDIT:video/audio extraordiberry;
#MUSIC:Darling dance.ogg;
#BANNER:Darling dance.png;
#BACKGROUND:Darling dance-bg.png;
#CDTITLE:;
#SAMPLESTART:60.956;
#SAMPLELENGTH:15.000;
#SELECTABLE:YES;
#OFFSET:0.000;
#BPMS:0.000=153.000;
#STOPS:;
#TIMESIGNATURES:0.000=4=4;
#BGCHANGES:0.000=Darling dance.mp4=1.000=0=0=0=StretchNoLoop====,
99999.000=-nosongbg-=1.000=0=0=0=StretchNoLoop====
;
#FGCHANGES:;

//--------------- dance-single - forcednature ----------------
#NOTEDATA:;
#STEPSTYPE:dance-single;
#DESCRIPTION:forcednature;
#CREDIT:forcednature;
#DIFFICULTY:Beginner;
#METER:1;
#RADARVALUES:0,0,0,0,0;
#NOTES:
0000
0000
0000
0000
,
0000
0000
0000
0000
,
0000
0000
0000
0000
,
0001
0000
0000
0000
,
0000
0000
0000
0000
,
1000
0000
0000
0000
,
0000
0000
0000
0000
,
0100
0000
0000
0000
,
0000
0000
0000
0000
,
1000
0000
0000
0000
,
0000
0000
0000
0000
,
0010
0000
0000
0000
,
0000
0000
0000
0000
,
0000
0000
0000
0000
,
0000
0000
0000
0000
,
0100
0000
0000
0000
,
0000
0000
0000
0000
,
0000
0000
0000
0000
,
0000
0000
0000
0000
,
0001
0000
0000
0000
,
0000
0000
0000
0000
,
1000
0000
0000
0000
,
0000
0000
0000
0000
,
0100
0000
0000
0000
,
0000
0000
0000
0000
,
0000
0000
0000
0000
,
0000
0000
0000
0000
,
0010
0000
0000
0000
,
0000
0000
0000
0000
,
0000
0000
0000
0000
,
0000
0000
0000
0000
,
0001
0000
0001
0000
,
0001
0000
0000
0000
,
1000
0000
1000
0000
,
1000
0000
0000
0000
,
0001
0000
1000
0000
,
0001
0000
0000
0000
,
1000
0000
0001
0000
,
1000
0000
0000
0000
,
1001
0000
0000
0000
,
0000
0000
0000
0000
,
0001
0000
0000
0000
,
0010
0000
0000
0000
,
0001
0000
0000
0000
,
0000
0000
0000
0000
,
1000
0000
0000
0000
,
0010
0000
0000
0000
,
0100
0000
0000
0000
,
0000
0000
0000
0000
,
0001
0000
0000
0000
,
1000
0000
0000
0000
,
0001
0000
0000
0000
,
0000
0000
0000
0000
,
1000
0000
0000
0000
,
0100
0000
0100
0000
,
0100
0000
0000
0000
,
0000
0000
0000
0000
,
1000
0000
0000
0000
,
0000
0000
0000
0000
,
0010
0000
0000
0000
,
0000
0000
0000
0000
,
0100
0000
0000
0000
,
0000
0000
0000
0000
,
0001
0000
0000
0000
,
1001
0000
0000
0000
;

//--------------- dance-single - forcednature ----------------
#NOTEDATA:;
#STEPSTYPE:dance-single;
#DESCRIPTION:forcednature;
#CREDIT:forcednature;
#DIFFICULTY:Easy;
#METER:5;
#RADARVALUES:0,0,0,0,0;
#NOTES:
0000
0000
0000
0000
,
0000
0000
0000
0000
,
0000
0000
0000
0000
,
0001
0000
0100
0000
,
0100
0000
0000
0000
,
0001
0000
0010
0000
,
0100
0100
1000
0000
,
0010
0000
1000
0000
,
0001
0000
0000
0000
,
0100
0000
0001
0000
,
0010
0010
0001
0000
,
1001
0000
1000
0000
,
0100
0000
1000
0000
,
0000
0010
0010
0000
,
1000
0001
1000
0000
,
1001
0000
0001
0010
,
0000
0010
0001
0000
,
0100
0000
0010
0010
,
0100
0000
0110
0000
,
1000
1000
0100
0000
,
1000
0000
0010
0000
,
0100
0100
0001
0000
,
0010
0001
0010
0000
,
1001
0000
0001
0000
,
0100
0000
0001
0000
,
0000
0010
0010
0000
,
0100
0100
0010
0000
,
1001
0000
1000
0100
,
0000
1000
0010
0000
,
0100
0001
0100
0000
,
0001
0001
0010
0000
,
1001
0000
0110
0000
,
1001
0000
0000
0000
,
0110
0000
1001
0000
,
0110
0000
0000
0000
,
1000
1000
0001
0001
,
1000
0001
1001
0000
,
0100
0100
0010
0100
,
0010
0010
0110
0000
,
0001
1000
0100
1000
,
1001
0000
1001
0000
,
0001
0010
0100
0000
,
0010
0010
0001
0000
,
1000
0010
0100
0010
,
1001
0000
0110
0000
,
0001
0001
1000
0100
,
0010
0010
0010
0000
,
0100
1000
0100
0000
,
0100
1000
0100
0000
,
0010
0001
1000
0000
,
1001
0000
0110
0000
,
0001
0100
0001
0000
,
0001
1000
0010
0000
,
0100
0001
0100
0000
,
0010
0010
0010
0000
,
1001
0000
1000
0000
,
0100
0000
0000
0000
,
1000
0000
0010
0000
,
0100
0100
0001
0000
,
0010
0000
0001
0000
,
1000
0000
0100
0000
,
1000
0010
1000
0000
,
0001
0001
0100
0000
,
0110
0000
0001
1000
,
2002
0000
3003
0000
;

//--------------- dance-single - forcednature ----------------
#NOTEDATA:;
#STEPSTYPE:dance-single;
#DESCRIPTION:forcednature;
#CREDIT:forcednature;
#DIFFICULTY:Medium;
#METER:9;
#RADARVALUES:0,0,0,0,0;
#NOTES:
0000
0000
0000
0000
,
0000
0000
0000
0000
,
0000
0000
0000
0000
,
1000
0001
1000
0000
0010
0000
0100
0000
,
0001
0100
0010
0100
,
0001
1000
0001
0000
0010
0000
0100
0000
,
1000
0100
1000
0000
0001
0100
0001
0000
,
1000
0010
1000
0000
0001
0000
0010
0000
,
0100
0010
0001
0010
,
0100
1000
0100
0000
0010
0000
0001
0000
,
0100
0001
0100
0000
0010
0000
1000
0000
,
1001
0000
0001
0010
,
0001
0000
0000
0000
0100
0000
0000
0000
0001
0000
0000
0010
0000
0000
0100
0000
,
0000
0110
0000
0000
1000
0000
0001
0000
,
1000
0010
1000
0000
0010
0000
0110
0000
,
0002
0100
0100
0003
,
2000
0100
0100
3000
,
0001
0010
1000
0000
0010
0000
0001
0000
,
1001
0000
0110
0000
1000
0001
1000
0000
,
0010
0100
0010
0000
1000
0000
0001
0000
,
0100
0001
1000
0001
,
0010
0100
0010
0000
0001
0000
1000
0000
,
0100
1000
0100
0000
0010
0000
0001
0000
,
1001
0000
1000
0010
,
1000
0000
0000
0000
0100
0000
0000
0000
1000
0000
0000
0010
0000
0000
0100
0000
,
0000
0110
0000
0000
0001
0000
1000
0000
,
0001
0010
0001
0000
0010
0000
0110
0000
,
2000
0100
0100
3000
,
0002
0100
0100
0003
,
1000
0010
0001
0000
0010
0000
1000
0000
,
1001
0100
0020
0030
,
1000
1100
0001
0101
,
1000
0000
0010
0100
0000
0000
0110
0000
0000
0000
0000
0000
,
0001
0011
1000
1010
,
0001
0000
0100
0010
0000
0000
0110
0000
0000
0000
0000
0000
,
1000
1100
1000
1010
,
0001
0000
0100
0010
0000
1000
0010
0000
0000
1001
0000
0000
,
0001
0000
0010
0000
0001
0000
0000
0000
0100
0000
0000
0100
0000
0000
0010
0000
,
1000
0000
0000
0001
0000
0000
0010
0000
0000
0000
0000
0000
1001
0000
0000
0000
,
1000
0100
1000
0100
0010
0000
0001
0000
,
1001
0100
1001
0010
,
0001
0000
0100
0000
0010
0100
0010
0000
,
1000
0000
0000
1000
0000
0000
0002
0000
0000
0000
0000
0000
0003
0000
0000
0000
,
0100
0001
0100
0001
1000
0000
0010
0000
,
1001
0100
1001
0010
,
1000
0100
1000
0000
0001
0000
0010
0000
,
0110
0000
0110
0000
1000
0001
1000
0000
,
0010
0000
0000
0000
0010
0000
0000
0000
0100
0000
0000
0100
0000
0000
0001
0000
,
0000
0000
0010
0000
0001
0000
0000
0000
0100
0000
0000
0100
0000
0000
0001
0000
,
0000
1000
0010
1000
0001
0000
0010
0000
,
1001
0100
1001
0100
,
1000
0000
0001
0000
1000
0000
0000
0000
0010
0000
0000
0010
0000
0000
0100
0000
,
0000
0000
0001
0000
0100
0000
0000
0000
0010
0000
0000
0010
0000
0000
0100
0000
,
0001
0000
0010
0000
0001
1000
0001
0000
,
1001
0000
1001
0000
1000
0010
1000
0000
,
0001
0010
0100
0000
0010
0000
0001
0000
,
0100
0001
0010
0001
,
1000
0010
0100
0000
0010
0000
1000
0000
,
0100
1000
0100
0000
0010
0000
0001
0000
,
1000
0100
0010
0000
0100
0000
1000
0000
,
0010
1000
0100
1000
,
0001
0100
0010
0000
0100
0000
0001
0000
,
0010
0001
0010
0000
0100
0000
0110
0000
,
1000
0000
0000
1000
0000
0000
0001
0000
0100
0000
0000
0000
0110
0000
0000
0000
,
0001
0000
0000
1000
0000
0000
1001
0000
0000
0000
0000
0000
0000
0000
0000
0000
;

//--------------- dance-single - forcednature ----------------
#NOTEDATA:;
#STEPSTYPE:dance-single;
#DESCRIPTION:forcednature;
#CREDIT:forcednature;
#DIFFICULTY:Hard;
#METER:13;
#RADARVALUES:0,0,0,0,0;
#NOTES:
0000
0000
0000
0000
,
0000
0000
0000
0000
,
0000
0000
0000
0000
,
1000
0000
0100
0000
0010
0000
0100
0000
1000
0000
0000
0001
0100
0000
0010
0000
,
1000
0000
0000
0001
0010
0000
0100
0000
1000
0000
0000
0001
0100
0000
0000
0000
,
0001
0000
0010
0000
0100
0000
0010
0000
0001
0000
0000
1000
0010
0000
0000
0000
,
0100
0100
0100
0001
1000
0100
0001
0000
,
0100
0000
1000
0000
0010
0000
1000
0000
0100
0000
0000
0010
0001
0000
1000
0000
,
0010
0000
0000
0100
0001
0000
1000
0000
0100
0000
0000
0010
0001
0000
0000
0000
,
0100
0000
0001
0000
0010
0000
0001
0000
0100
0000
0000
0010
1000
0000
0000
0000
,
0001
0001
0001
0010
0100
1000
0010
0000
,
0100
0000
0001
0000
0010
0000
0001
0000
1000
0000
0000
0100
0000
0000
0010
0000
,
0100
0000
0000
1000
0000
0000
0001
0000
1000
0000
0000
0010
0000
0000
0001
0000
,
0000
0000
0020
0000
1030
0000
1000
0000
0001
0000
0000
0001
0100
0000
0010
0000
,
1000
0000
0001
0000
1000
0000
0001
0000
0010
0000
0000
0010
0100
0000
1000
0000
,
0002
0000
0000
0000
0103
0000
0100
0000
0010
0000
0000
1000
0000
0000
0200
0000
,
0000
0000
0310
0000
0010
0000
0100
0000
1000
0000
0000
0001
0000
0000
0200
0000
,
0000
0000
0310
0000
1000
0000
0010
0000
0100
0000
0000
0001
0000
0000
1000
0000
,
0100
0000
0000
0100
0010
0000
0000
0100
1000
0000
0001
0000
1001
0000
0000
0000
,
0001
0000
0100
0000
0010
0000
0100
0000
0001
0000
0000
0010
0100
0000
1000
0000
,
0001
0000
0000
0100
0010
0000
1000
0000
0001
0000
0000
0010
0100
0000
1000
0000
,
0010
0000
0100
0000
0010
0000
1000
0000
0100
0000
0000
0010
0001
0000
1000
0000
,
0010
0010
0010
0100
0001
1000
0200
0000
,
0310
0000
0001
0000
0100
0000
0001
0000
1000
0000
0000
0100
0000
0000
0010
0000
,
0100
0000
0000
1000
0000
0000
0010
0000
1000
0000
0000
0100
0000
0000
0001
0000
,
0000
0200
1300
1000
0001
0010
0100
0010
,
0001
0000
1000
0000
0001
0000
1000
0000
0010
0000
0000
0010
0100
0000
0001
0000
,
0020
0000
0000
0000
0031
0000
0100
0000
0010
0000
0000
1000
0000
0000
1100
0000
,
0000
0000
0001
0000
0010
0000
1000
0000
0010
0000
0000
0001
0000
0000
0101
0000
,
0000
0000
1000
0000
0010
0000
0001
0000
0010
0000
0000
0110
0000
0000
0001
0000
,
1000
0000
0000
0100
0000
0000
0001
0000
0000
0100
0000
0000
1000
0000
0000
0000
0001
0000
0000
0000
0010
0000
0000
0000
,
0001
0100
0001
0100
0000
0000
0010
1000
0010
1000
0000
0000
,
0001
1000
0001
1000
0100
1000
0100
0000
0000
0110
0000
0000
,
1000
0010
1000
0010
0000
0000
0100
0001
0100
0001
0000
0000
,
1000
0001
1000
0001
0010
0001
0010
0000
0000
1001
0000
0000
,
0001
0100
0001
1000
0000
0000
0010
0100
0010
1000
0000
0000
,
0001
0010
0001
1000
0100
1000
0001
0000
0000
0110
0000
0000
,
1000
0000
0100
0000
1000
0000
0001
0000
0010
0000
0000
0110
0000
0000
0100
0000
,
1000
0000
0000
1001
0000
0000
0001
0000
0000
0100
0010
0100
0020
0000
0000
0000
,
1030
0100
0001
0100
1000
0010
0100
0010
,
1000
0000
0000
2000
0010
0000
3000
0000
0001
0000
0000
0002
0010
0000
0003
0000
,
1000
0100
1000
0001
0100
0010
1000
0001
,
0010
0000
0000
0011
0000
0000
1100
0000
0000
0001
1000
0001
1000
0000
0000
0000
,
0001
0100
1000
0100
0001
0010
0100
0010
,
0001
0000
0000
0002
0010
0000
0003
0000
1000
0000
0000
2000
0010
0000
3000
0000
,
0001
0100
1000
0100
0001
0010
0100
1000
,
0010
0000
0010
0000
0110
0000
0000
0000
1000
0000
0001
1000
0001
0000
0000
0000
,
0010
0000
1000
0000
0010
0000
0001
0000
0010
0000
0000
0100
1000
0000
0010
0000
,
0000
0000
0100
0000
0100
0000
0001
0000
1000
0000
0000
0010
0100
0000
0001
0000
,
1000
0010
0001
0010
1000
0100
0001
0100
,
1000
0000
0000
2000
0010
0000
3000
0000
0001
0000
0000
0002
0010
0000
0003
0000
,
1000
0000
0100
0000
0001
0000
0100
0000
1000
0000
0000
0010
0100
0000
0001
0000
,
0000
0000
0010
0000
1000
0000
0010
0000
0001
0000
0000
1000
0100
0000
1000
0000
,
0001
0010
1000
0010
0001
0100
1000
0100
,
0001
0000
1000
0001
1000
0000
0010
0000
0110
0000
0000
0000
1001
0000
0000
0000
,
0001
0000
0010
0000
0100
0000
0010
0000
0001
0000
0000
1000
0010
0000
0100
0000
,
0001
0000
0000
1000
0100
0000
0010
0000
0001
0000
0000
1000
0010
0000
0000
0000
,
1000
0000
0100
0000
0010
0000
0100
0000
1000
0000
0000
0001
0100
0000
0010
0000
,
1000
1000
1000
0001
0010
0100
0110
0000
,
1000
0000
0001
0000
0100
0000
0001
0000
0010
0000
0000
0100
1000
0000
0001
0000
,
0100
0000
0000
0010
1000
0000
0001
0000
0010
0000
0000
0100
1000
0000
0001
0000
,
0100
0000
0100
0000
0010
0000
1000
0000
0001
0000
0000
0010
0001
0000
0100
0000
,
0010
0000
0010
0000
0010
0000
1000
0000
0001
0000
0010
0001
0010
0000
0000
0000
,
0100
0000
1000
0100
0000
0000
1000
0000
0010
0000
0100
0010
0100
0000
0000
0000
,
0101
0000
0000
0010
0000
0000
1001
0000
0000
0000
0000
0000
0000
0000
0000
0000
;

//--------------- dance-double - forcednature ----------------
#NOTEDATA:;
#STEPSTYPE:dance-double;
#DESCRIPTION:forcednature;
#CREDIT:forcednature;
#DIFFICULTY:Easy;
#METER:5;
#RADARVALUES:0,0,0,0,0;
#NOTES:
00000000
00000000
00000000
00000000
,
00000000
00000000
00000000
00000000
,
00000000
00000000
00000000
00000000
,
00010000
00000000
00001000
00000000
,
00001000
00000000
00000000
00000000
,
00100000
00000000
00001000
00000000
,
00010000
00010000
00000100
00000000
,
00010000
00000000
00001000
00000000
,
00010000
00000000
00000000
00000000
,
00000010
00000000
00001000
00000000
,
00000001
00000001
00000100
00000000
,
00001001
00000000
00001000
00000000
,
00000100
00000000
00001000
00000000
,
00000000
00000010
00000010
00000000
,
00001000
00000000
00000100
00000000
,
00011000
00000000
00100000
00010000
,
00000000
00010000
00100000
00000000
,
01000000
00000000
10000000
10000000
,
00100000
00000000
01100000
00000000
,
00010000
00010000
01000000
00000000
,
00010000
00000000
00100000
00000000
,
00001000
00001000
00010000
00000000
,
00000100
00001000
00000100
00000000
,
00011000
00000000
00100000
00000000
,
00010000
00000000
00100000
00000000
,
00000000
01000000
01000000
00000000
,
00100000
00100000
00010000
00000000
,
10010000
00000000
10000000
00100000
,
00000000
01000000
00100000
00000000
,
01000000
00010000
01000000
00000000
,
00010000
00010000
00100000
00000000
,
00011000
00000000
00011000
00000000
,
00011000
00000000
00000000
00000000
,
00011000
00000000
00011000
00000000
,
00011000
00000000
00000000
00000000
,
00001000
00001000
00010000
00010000
,
00001000
00010000
00011000
00000000
,
00000100
00000100
00001000
00000100
,
00001000
00000010
00000200
00000300
,
00000001
00001000
00000100
00001000
,
00001001
00000000
00001001
00000000
,
00000001
00000010
00000100
00000000
,
00000010
00000010
00000001
00000000
,
00000100
00000010
00001000
00000010
,
00011000
00000000
00011000
00000000
,
00100000
00100000
00010000
01000000
,
00100000
00100000
00100000
00000000
,
10000000
01000000
10000000
00000000
,
10000000
01000000
10000000
00000000
,
00100000
01000000
00010000
00000000
,
10010000
00000000
01100000
00000000
,
00010000
00100000
00010000
00000000
,
00010000
00100000
00001000
00000000
,
00010000
00001000
00010000
00000000
,
00000100
00000100
00000100
00000000
,
00011000
00000000
00000010
00000000
,
00001000
00000000
00000000
00000000
,
00000100
00000000
00000010
00000000
,
00000001
00000001
00001000
00000000
,
00000010
00000000
00010000
00000000
,
00001000
00000000
01000000
00000000
,
00010000
00100000
00010000
00000000
,
10000000
10000000
01000000
00000000
,
01100000
00000000
00010000
10000000
,
20020000
00000000
30030000
00000000
;

//--------------- dance-double - forcednature ----------------
#NOTEDATA:;
#STEPSTYPE:dance-double;
#DESCRIPTION:forcednature;
#CREDIT:forcednature;
#DIFFICULTY:Medium;
#METER:9;
#RADARVALUES:0,0,0,0,0;
#NOTES:
00000000
00000000
00000000
00000000
,
00000000
00000000
00000000
00000000
,
00000000
00000000
00000000
00000000
,
00001000
00010000
00001000
00000000
00100000
00000000
00010000
00000000
,
01000000
00010000
00100000
00010000
,
10000000
01000000
10000000
00000000
00100000
00000000
01000000
00000000
,
00010000
00100000
00010000
00000000
00100000
00001000
00010000
00000000
,
00010000
00001000
00010000
00000000
00000010
00000000
00001000
00000000
,
00000100
00001000
00000010
00001000
,
00000001
00000100
00000001
00000000
00000010
00000000
00000100
00000000
,
00001000
00000010
00001000
00000000
00000010
00000000
00010000
00000000
,
00011000
00000000
00001000
00100000
,
00010000
00000000
00000000
00000000
00100000
00000000
00000000
00000000
00001000
00000000
00000000
00010000
00000000
00000000
00000100
00000000
,
00000000
00001100
00000000
00000000
00001000
00000000
00000010
00000000
,
00001000
00000001
00001000
00000000
00000010
00000000
00000110
00000000
,
00000002
00000100
00000100
00000003
,
00002000
00000100
00000100
00003000
,
00000010
00001000
00000010
00000000
00010000
00000000
00001000
00000000
,
00011000
00000000
00011000
00000000
00100000
00010000
00100000
00000000
,
00001000
00010000
00001000
00000000
00100000
00000000
00010000
00000000
,
01000000
00010000
00100000
00010000
,
10000000
01000000
10000000
00000000
00100000
00000000
01000000
00000000
,
00010000
00100000
00010000
00000000
00100000
00001000
00010000
00000000
,
00011000
00000000
00010000
00000010
,
00001000
00000000
00000000
00000000
00000010
00000000
00000000
00000000
00010000
00000000
00000000
00001000
00000000
00000000
01000000
00000000
,
00000000
01010000
00000000
00000000
00010000
00000000
00100000
00000000
,
00010000
10000000
00010000
00000000
00100000
00000000
01100000
00000000
,
20000000
01000000
01000000
30000000
,
00020000
01000000
01000000
00030000
,
00100000
00010000
00100000
00000000
00001000
00000000
00010000
00000000
,
00011000
00000000
00000000
00011000
00000000
00000000
00000010
00000000
00000010
00000000
00001000
00000000
,
00000100
00001000
00000010
00001000
,
00000100
00000000
00010000
00001000
00000000
00000000
00011000
00000000
00000000
00000000
00000000
00000000
,
01000000
00010000
00100000
00010000
,
01000000
00000000
00001000
00010000
00000000
00000000
00011000
00000000
00000000
00000000
00000000
00000000
,
00000010
00001000
00000100
00001000
,
00000010
00000000
00010000
00001000
00000000
00001000
00010000
00000000
00000000
00011000
00000000
00000000
,
00100000
00000000
00010000
00000000
00100000
00000000
00000000
00000000
01000000
00000000
00000000
01000000
00000000
00000000
10000000
00000000
,
00100000
00000000
00000000
01000000
00000000
00000000
00100000
00000000
00000000
00000000
00000000
00000000
10010000
00000000
00000000
00000000
,
00010000
01000000
00010000
00000000
00100000
00000000
00001000
00000000
,
00011000
00000100
00011000
00000010
,
00001000
00000000
00000100
00000000
00001000
00000001
00001000
00000000
,
00000010
00000000
00000000
00000100
00000000
00000000
00000002
00000000
00000000
00000000
00000000
00000000
00000003
00000000
00000000
00000000
,
00001000
00000100
00001000
00000000
00000010
00000000
00010000
00000000
,
00011000
01000000
00011000
00100000
,
00010000
00000000
01000000
00000000
00010000
10000000
00010000
00000000
,
00100000
00100000
00100000
00000000
01000000
00000000
10010000
00000000
,
10000000
00000000
00000000
00000000
01000000
00000000
00000000
00000000
00010000
00000000
00000000
00001000
00000000
00000000
00010000
00000000
,
00000000
00000000
00001000
00000000
00010000
00000000
00000000
00000000
00001000
00000000
00000000
00000010
00000000
00000000
00000001
00000000
,
00000000
00000100
00000001
00000100
00000010
00000000
00001000
00000000
,
00001100
00010000
00001100
00000010
,
00000001
00000000
00000000
00000000
00000100
00000000
00000000
00000000
00001000
00000000
00000000
00010000
00000000
00000000
00001000
00000000
,
00000000
00000000
00010000
00000000
00001000
00000000
00000000
00000000
00010000
00000000
00000000
00100000
00000000
00000000
10000000
00000000
,
00000000
01000000
10000000
01000000
00100000
00000000
00010000
00000000
,
01010000
00000000
01010000
00000000
00001000
00010000
00001000
00000000
,
00010000
00001000
00010000
00000000
00000100
00000000
00001000
00000000
,
00000010
00001000
00000100
00001000
,
00000001
00000010
00000001
00000000
00000100
00000000
00000010
00000000
,
00001000
00000100
00001000
00000000
00000100
00010000
00001000
00000000
,
00001000
00010000
00001000
00000000
01000000
00000000
00010000
00000000
,
00100000
00010000
01000000
00010000
,
10000000
00100000
10000000
00000000
01000000
00000000
00100000
00000000
,
00010000
01000000
00010000
00000000
01000000
00000000
00001000
00000000
,
00010000
00000000
00000000
00010000
00000000
00000000
00000100
00000000
00001000
00000000
00000000
00000000
00000010
00000000
00000000
00000000
,
00000100
00000000
00000000
00000010
00000000
00000000
00001001
00000000
00000000
00000000
00000000
00000000
00000000
00000000
00000000
00000000
;

//--------------- dance-double - forcednature ----------------
#NOTEDATA:;
#STEPSTYPE:dance-double;
#DESCRIPTION:forcednature;
#CREDIT:forcednature;
#DIFFICULTY:Hard;
#METER:13;
#RADARVALUES:0,0,0,0,0;
#NOTES:
00000000
00000000
00000000
00000000
,
00000000
00000000
00000000
00000000
,
00000000
00000000
00000000
00000000
,
00001000
00000000
00010000
00000000
00000010
00000000
00010000
00000000
00001000
00000000
00000000
00100000
00010000
00000000
00000000
00000000
,
01000000
00000000
00000000
00001000
00010000
00000000
00000000
00000000
00001000
00000000
00000000
00100000
00010000
00000000
00000000
00000000
,
10000000
00000000
00100000
00000000
01000000
00000000
00100000
00000000
10000000
00000000
00000000
01000000
00100000
00000000
00000000
00000000
,
00001000
00001000
00001000
00010000
00000100
00001000
00000010
00000000
,
00010000
00000000
00001000
00000000
00100000
00000000
00001000
00000000
00010000
00000000
00000000
00000010
00001000
00000000
00000000
00000000
,
00000100
00000000
00000000
00010000
00001000
00000000
00000000
00000000
00010000
00000000
00000000
00000010
00001000
00000000
00000000
00000000
,
00000001
00000000
00000010
00000000
00000100
00000000
00000010
00000000
00000001
00000000
00000000
00000100
00000010
00000000
00000000
00000000
,
00010000
00010000
00010000
00001000
01000000
00010000
00100000
00000000
,
01000000
00000000
10000000
00000000
01000000
00000000
10000000
00000000
00100000
00000000
00000000
01000000
00000000
00000000
00001000
00000000
,
00010000
00000000
00000000
00000010
00000000
00000000
00000100
00000000
00000001
00000000
00000000
00000010
00000000
00000000
00001000
00000000
,
00000000
00000000
00000020
00000000
00000031
00000000
00000001
00000000
00001000
00000000
00000000
00001000
00000100
00000000
00010000
00000000
,
00001000
00000000
00100000
00000000
00001000
00000000
00100000
00000000
00010000
00000000
00000000
00010000
01000000
00000000
00100000
00000000
,
20000000
00000000
00000000
00000000
31000000
00000000
01000000
00000000
00100000
00000000
00000000
00001000
00000000
00000000
00020000
00000000
,
00000000
00000000
00030100
00000000
00000100
00000000
00001000
00000000
00000010
00000000
00000000
00000100
00000000
00000000
00000002
00000000
,
00000000
00000000
00000013
00000000
00000100
00000000
00001000
00000000
00000100
00000000
00000000
00010000
00000000
00000000
00001000
00000000
,
01000000
00000000
00000000
00010000
01000000
00000000
00000000
00010000
00100000
00000000
00000000
00000000
00011000
00000000
00000000
00000000
,
00001000
00000000
00010000
00000000
00000100
00000000
00010000
00000000
00001000
00000000
00000000
01000000
00010000
00000000
00000000
00000000
,
00100000
00000000
00000000
00001000
00010000
00000000
00000000
00000000
00001000
00000000
00000000
01000000
00010000
00000000
00000000
00000000
,
10000000
00000000
01000000
00000000
00100000
00000000
01000000
00000000
10000000
00000000
00000000
00100000
01000000
00000000
00000000
00000000
,
00001000
00001000
00001000
00010000
00000010
00001000
00000200
00000000
,
00000310
00000000
00000001
00000000
00000010
00000000
00000001
00000000
00000100
00000000
00000000
00000010
00000000
00000000
00010000
00000000
,
00001000
00000000
00000000
01000000
00000000
00000000
00100000
00000000
10000000
00000000
00000000
01000000
00000000
00000000
00010000
00000000
,
00000000
00000000
02000000
00000000
13000000
00000000
10000000
00000000
00010000
00000000
00000000
00010000
00100000
00000000
00001000
00000000
,
00010000
00000000
00000100
00000000
00010000
00000000
00000100
00000000
00001000
00000000
00000000
00001000
00000010
00000000
00000100
00000000
,
00000002
00000000
00000000
00000000
00000013
00000000
00000010
00000000
00000100
00000000
00000000
00010000
00000000
00000000
00002000
00000000
,
00000000
00000000
00103000
00000000
00100000
00000000
00010000
00000000
01000000
00000000
00000000
00100000
00000000
00000000
20000000
00000000
,
00000000
00000000
31000000
00000000
00100000
00000000
00010000
00000000
00100000
00000000
00000000
00001000
00000000
00000000
00010000
00000000
,
00000010
00000000
00000000
00000000
00000000
00000000
00000000
00000000
00000000
00001000
00000000
00000000
00000010
00000000
00000000
00000000
00000000
00000000
00000000
00000000
00000000
00001000
00000000
00000000
00000100
00000000
00000000
00000000
00000000
00000000
00000000
00000000
00010000
00000000
00000000
00000000
00000000
00000000
00000000
00000000
00001000
00000000
00000000
00000000
00000000
00000000
00000000
00000000
,
00100000
00010000
00100000
00010000
00000000
00000000
01000000
00100000
01000000
00100000
00000000
00000000
,
10000000
01000000
10000000
01000000
00010000
01000000
00010000
00000000
00000000
00011000
00000000
00000000
,
00001000
00000010
00001000
00000010
00000000
00000000
00000001
00000010
00000001
00000010
00000000
00000000
,
00000001
00000100
00000001
00000100
00000010
00001000
00000100
00000000
00000000
00011000
00000000
00000000
,
00100000
00010000
10000000
00100000
00000000
00000000
01000000
00010000
10000000
01000000
00000000
00000000
,
00100000
00010000
00100000
00001000
00010000
00000100
00010000
00000000
00000000
00011000
00000000
00000000
,
00000010
00000000
00001000
00000000
00000010
00000000
00000100
00000000
00001000
00000000
00000000
00001000
00000000
00000000
00010000
00000000
,
00100000
00000000
00000000
01100000
00000000
00000000
10000000
00000000
00000000
01000000
10000000
01000000
00200000
00000000
00000000
00000000
,
01300000
00010000
00001000
00010000
01000000
00100000
00010000
01000000
,
00001000
00000000
00000000
00010000
00100000
00000000
00000000
00000000
00010000
00000000
00000000
00001000
00000010
00000000
00000000
00000000
,
00000100
00001000
00000010
00001000
00000100
00000001
00000100
00001000
,
00000010
00000000
00000000
00000100
00000000
00000000
00001000
00000000
00000000
00010000
00001000
00010000
00001000
00000000
00000000
00000000
,
00000100
00001000
00010000
00001000
00000100
00000010
00001000
00000100
,
00010000
00000000
00000000
00001000
00000010
00000000
00000000
00000000
00001000
00000000
00000000
00010000
00100000
00000000
00000000
00000000
,
01000000
00010000
00100000
00010000
01000000
10000000
01000000
00010000
,
00100000
00000000
00100000
00000000
00100000
00000000
00000000
00000000
00001000
00010000
00001000
00010000
00001000
00000000
00000000
00000000
,
00010000
00000000
00100000
00000000
10000000
00000000
00100000
00000000
00010000
00000000
00000000
00001000
00000000
00000000
00011000
00000000
,
00000000
00000000
00000010
00000000
00001000
00000000
00000010
00000000
00000001
00000000
00000000
00000010
00000000
00000000
00001000
00000000
,
00000100
00000010
00001000
00000010
00000001
00000100
00000010
00010000
,
00001000
00000000
00000000
00000010
00001000
00000000
00000000
00000000
00010000
00000000
00000000
00100000
00010000
00000000
00000000
00000000
,
00001000
00000000
00000010
00000000
00000001
00000000
00000010
00000000
00001000
00000000
00000000
00010000
00000000
00000000
00011000
00000000
,
00000000
00000000
00100000
00000000
00010000
00000000
00100000
00000000
10000000
00000000
00000000
00100000
00000000
00000000
00010000
00000000
,
01000000
00100000
00010000
00100000
10000000
01000000
00100000
00001000
,
00010000
00000000
00001000
00010000
00001000
00000000
00000010
00000000
00000100
00000000
00000000
00000000
00001001
00000000
00000000
00000000
,
00010000
00000000
00001000
00000000
00100000
00000000
00001000
00000000
00010000
00000000
00000000
00000010
00001000
00000000
00000000
00000000
,
00000100
00000000
00000000
00010000
00001000
00000000
00000000
00000000
00010000
00000000
00000000
00000010
00001000
00000000
00000000
00000000
,
00000001
00000000
00000010
00000000
00000100
00000000
00000010
00000000
00000001
00000000
00000000
00000100
00000010
00000000
00000000
00000000
,
00010000
00010000
00010000
00001000
01000000
00010000
00100000
00000000
,
00001000
00000000
00010000
00000000
00000010
00000000
00010000
00000000
00001000
00000000
00000000
00100000
00010000
00000000
00000000
00000000
,
01000000
00000000
00000000
00001000
00010000
00000000
00000000
00000000
00001000
00000000
00000000
00100000
00010000
00000000
00000000
00000000
,
10000000
00000000
00100000
00000000
01000000
00000000
00100000
00000000
10000000
00000000
00000000
01000000
00100000
00000000
00000000
00000000
,
00001000
00001000
00001000
00010000
00000100
00001000
00000010
00000000
,
00000100
00000000
00000001
00000100
00000000
00000000
00000010
00000000
00001000
00000000
00000100
00001000
00000100
00000000
00000000
00000000
,
00011000
00000000
00000000
00101000
00000000
00000000
00010100
00000000
00000000
00000000
00000000
00000000
00000000
00000000
00000000
00000000
;
