#VERSION:0.83;
#TITLE:Damage Per Second;
#SUBTITLE:;
#ARTIST:Maozon;
#TITLETRANSLIT:;
#SUBTITLETRANSLIT:;
#ARTISTTRANSLIT:;
#GENRE:CYBER DRUMSTEP;
#CREDIT:;
#MUSIC:Damage Per Second.ogg;
#BANNER:Damage Per Second.png;
#BACKGROUND:Damage Per Second-bg.png;
#CDTITLE:./CDTitles/bm IIDX 23 copula.png
#SAMPLESTART:31.858;
#SAMPLELENGTH:15.000;
#SELECTABLE:YES;
#OFFSET:-0.679;
#BPMS:0.000=177.000
,64.000=88.500
,66.000=177.000
;
#STOPS:;
#TIMESIGNATURES:0.000=4=4,
64.000=2=4,
66.000=4=4
;
#DISPLAYBPM:177.000;
#BGCHANGES:-2.100=Damage Per Second.mp4=1.000=0=0=0=StretchNoLoop====,
99999.000=-nosongbg-=1.000=0=0=0=StretchNoLoop====
;
#FGCHANGES:;

//--------------- dance-single - forcednature ----------------
#NOTEDATA:;
#STEPSTYPE:dance-single;
#DESCRIPTION:forcednature;
#CREDIT:forcednature;
#DIFFICULTY:Beginner;
#METER:3;
#RADARVALUES:0,0,0,0,0;
#NOTES:
0000
0000
0000
0000
,
0000
0000
0000
0000
,
0000
0000
0000
0000
,
0000
0000
0000
0000
,
0000
0000
0000
0000
,
0001
0000
0000
0000
,
0000
0000
0000
0000
,
1000
0000
0000
0000
,
0000
0000
0000
0000
,
1001
0000
0000
0000
,
0001
0000
0000
0000
,
0010
0000
0000
0000
,
0001
0000
0000
0000
,
0100
0000
0000
0000
,
0010
0000
0000
0000
,
1000
0000
0000
0000
,
0002
0000
0003
0000
,
0010
0000
0010
0000
,
0001
0000
0000
0000
,
0100
0000
0100
0000
,
0001
0000
1000
0000
,
0000
0000
0100
0000
,
0100
0000
0010
0000
,
0000
0000
1001
0000
,
0000
0000
0110
0000
,
0000
0000
0001
0000
,
0000
0000
1000
0000
,
0000
0000
0001
0000
,
0000
0000
0010
0000
,
0000
0000
0100
0000
,
0000
0000
0010
0000
,
0010
0000
0001
0000
,
0100
0000
0010
0000
,
0000
0000
1000
0000
,
0000
0000
0100
0000
,
0000
0000
1000
0000
,
0000
0000
0001
0000
,
0000
0000
1000
0000
,
0000
0000
0010
0000
,
0100
0000
0001
0000
,
1000
0000
0100
0000
,
0000
0000
0000
0000
,
0100
0000
0010
0000
,
0000
0000
0000
0000
,
0010
0000
0001
0000
,
1000
0000
0000
0000
,
1000
0000
0001
0000
,
1000
0000
0000
0000
,
1000
0000
0001
0000
,
0000
0000
0100
0000
,
0010
0000
1000
0000
,
0000
0000
0100
0000
,
0010
0000
0001
0000
,
1000
0000
0000
0000
,
1000
0000
0001
0000
,
0000
0001
0000
0000
,
0010
0000
0200
0000
,
0000
0000
0000
0000
,
0000
0000
0000
0000
,
0000
0000
0000
0000
,
0000
0000
0000
0000
,
0000
0000
0000
0000
,
0300
0000
2002
0000
,
0000
0000
3003
0000
,
0000
0000
0110
0000
,
0001
0000
0100
0000
,
0000
0000
0001
0000
,
1000
0000
0100
0000
,
0000
0000
0010
0000
,
0001
0000
0100
0000
,
0001
0000
1000
0000
,
1000
0000
0001
0000
,
0010
0000
0100
0000
,
1000
0000
0000
0000
,
1000
0000
0010
0000
,
1000
0000
0000
0000
,
1000
0000
0002
0000
,
0003
0000
0200
0000
,
0300
0000
0010
0000
,
0010
0000
2000
0000
,
0000
0000
0000
0000
,
3000
0000
1001
0000
;

//--------------- dance-single - forcednature ----------------
#NOTEDATA:;
#STEPSTYPE:dance-single;
#DESCRIPTION:forcednature;
#CREDIT:forcednature;
#DIFFICULTY:Easy;
#METER:7;
#RADARVALUES:0,0,0,0,0;
#NOTES:
0000
0000
0000
0000
,
0000
0000
0000
0000
,
0000
0000
0000
0000
,
0000
0000
0000
0000
,
0000
0000
0000
0000
,
0002
0000
0003
0200
,
0000
0300
0010
0010
,
2000
0000
3000
0002
0000
0003
0000
0020
,
0000
0030
0000
0200
0000
0000
0300
0000
,
1001
0000
1000
1000
,
0010
1000
0100
1000
,
0001
0000
0010
0010
,
0100
0010
0001
1000
,
0100
0000
1000
1000
,
0001
0100
0010
1000
,
0001
0000
0010
0010
,
0200
0300
1001
0000
,
1000
0100
1000
0001
,
1000
0010
1000
0000
,
0001
0100
0001
1000
,
0001
0010
0100
0000
,
1000
1000
0001
0001
,
0100
0010
0220
0000
,
0330
0000
0000
0000
0000
0000
0000
0000
0001
0000
0000
0001
0000
0000
1000
0000
,
0000
1000
0000
0000
0000
0000
0000
0000
0110
0000
0000
0000
0000
0000
0000
0000
,
0001
0000
1000
0100
,
0010
0100
1000
0000
,
0001
0000
1000
0010
,
0100
0001
1000
0000
,
0100
0000
0010
0001
,
1000
0000
0001
0000
0200
0000
0300
0020
,
0000
0030
0000
2000
0000
3000
0000
0002
,
0000
0003
1001
0000
,
0001
0010
0100
0010
,
0001
0000
0100
0000
,
0010
1000
0001
1000
,
0010
0000
0110
0000
,
1000
0001
1000
0100
,
0010
0000
0000
0000
0200
0000
0300
2000
,
0000
3000
0000
0002
0000
0003
0000
0020
,
0000
0030
1001
0000
,
1000
0010
0000
0010
,
0100
0001
0010
0000
,
0100
1000
0000
1000
,
0001
0100
0010
0000
,
1001
0000
0100
0000
,
1001
0000
1000
0000
,
0110
0000
0001
0000
,
0110
0000
1001
0000
,
1000
0010
0100
0010
,
1000
0001
0100
0000
,
0010
1000
0001
0010
,
0001
1000
0100
0000
,
0110
0000
1000
0000
,
1001
0000
0000
0000
0010
0000
0000
0010
,
0000
0000
0000
0000
0010
0000
0000
0000
0000
0000
1000
0000
0000
1000
0000
0000
,
0001
0000
0000
0001
0000
0000
0000
0000
0200
0000
0000
0000
0000
0000
0000
0000
,
0000
0000
0000
0000
,
0000
0000
0000
0000
,
0000
0000
0000
0000
,
0300
0000
0020
0000
,
0000
0000
0000
0000
,
0000
0030
2002
0000
,
0000
3003
0220
0000
,
0000
0330
1001
1000
,
0000
1000
0100
1000
,
0010
1000
0001
0000
,
0001
0010
0001
0100
,
0010
1000
0001
0000
,
0010
0100
1000
0100
,
0010
0000
0001
0000
0200
0000
0300
0020
,
0000
0030
0000
2000
0000
3000
0000
0002
,
0000
0003
1001
0000
,
0110
0000
1000
0100
,
1000
0000
1001
0000
,
0110
0000
0001
0100
,
0001
0000
0110
0000
,
1000
0001
1000
0010
,
0100
0000
0000
0000
0002
0000
0003
0020
,
0000
0030
0000
2002
0000
0000
0000
0000
,
0000
0000
0000
0000
,
3003
0000
1001
0000
;

//--------------- dance-single - forcednature ----------------
#NOTEDATA:;
#STEPSTYPE:dance-single;
#DESCRIPTION:forcednature;
#CREDIT:forcednature;
#DIFFICULTY:Medium;
#METER:11;
#RADARVALUES:0,0,0,0,0;
#NOTES:
0000
0000
0000
0000
,
0000
0000
0000
0000
,
0000
0000
0000
0000
,
0000
0000
0000
0000
,
0000
0000
0000
0000
,
1001
0000
0000
1000
0000
0000
0100
0000
,
0000
0010
0000
0000
2002
0000
3003
0000
,
2000
0000
3000
0020
0000
0030
0000
0200
,
0000
0300
0000
2002
0000
0000
3003
0000
,
0001
0000
0001
0010
0000
0010
0100
0000
,
0100
1000
0000
1000
0001
0000
0100
0001
,
0100
0000
0100
0010
0000
0010
1000
0000
,
1000
0001
0000
0001
0020
0000
0230
0000
,
1300
0000
1000
0001
0000
0001
0100
0000
,
0100
0010
0000
0010
1000
0000
0001
0000
,
0010
0000
0010
0100
0000
0100
1000
0000
,
2002
3003
0110
0001
,
0010
0000
0001
0100
0000
0100
0000
0001
,
0000
1000
0010
1000
0000
0000
0100
0000
,
1000
0000
0001
0010
0000
0010
0000
0001
,
1000
0001
1000
0000
0100
0010
0100
0000
,
0010
0001
0010
0000
0100
1000
0100
0000
,
1000
0001
1000
0000
2002
0000
0000
0000
,
0000
0000
0000
0000
3003
0000
0000
0000
0001
0000
0000
0100
0000
0000
0010
0000
,
0000
1000
0000
0000
0001
0000
0000
0000
1001
0000
0000
0000
1000
0000
0100
0000
,
0000
1000
0010
1000
0000
0100
1000
0000
,
0010
1000
0010
0000
0100
0000
0001
0010
,
0000
0001
0100
0001
0000
0010
0001
0000
,
0100
0010
0100
0000
0010
0000
1000
0001
,
0000
1000
0100
1000
0000
0001
1000
0000
,
0010
1000
0010
0000
0200
0000
0300
0002
,
0000
0003
0000
0020
0000
0030
0000
2002
,
0000
0000
3003
0000
1000
0000
0010
0100
,
0000
0001
0100
0001
0000
0100
0010
0000
,
0100
0001
0100
0000
0010
0000
1000
0100
,
0000
0010
0100
0010
0000
0100
1000
0000
,
0001
0000
0010
0000
1001
0000
0001
0100
,
0000
0010
0100
0010
0000
0100
0001
0000
,
0100
0010
0100
0000
0002
0000
1003
0200
,
0000
1300
0001
2000
0000
3010
0100
0002
,
0000
0000
0003
0000
1001
0000
1000
0100
,
0000
1000
0010
0000
0100
0001
0000
0010
,
0001
0000
0100
0010
0100
0000
0001
0010
,
0000
0001
0100
0000
0010
1000
0000
0100
,
2000
0000
3002
0000
0013
0000
0100
0010
,
0000
0001
1000
0000
0010
0100
0000
0001
,
1000
0100
1000
0000
0010
0000
1000
0001
,
0000
0010
0100
0000
1000
0001
0000
0100
,
0010
0100
0010
0000
1001
0000
1000
0010
,
0000
1000
0100
0000
0010
0001
0000
0100
,
0001
0000
0010
0100
0010
0000
0001
0100
,
0000
0010
1000
0000
0100
1000
0000
0010
,
2000
0000
3002
0000
0013
0000
0100
0010
,
0000
0001
1000
0000
0010
0100
0000
0001
,
1000
0000
0000
1000
0000
0000
0100
0000
0010
0000
0000
0000
0001
0000
1000
0000
,
0000
0000
0010
0000
0200
0000
0000
0000
0300
0000
0001
0000
0000
0010
0000
0000
,
0100
0000
0000
1000
0000
0000
0000
0000
2002
0000
0000
0000
0000
0000
0000
0000
,
0003
0000
3200
0000
,
0320
0000
0032
0000
,
0000
0000
0203
0000
,
0320
0000
2030
0000
,
0000
0000
3002
0000
,
0023
0030
0220
0000
,
0000
0330
2002
0000
,
0000
0000
3003
0000
1010
0000
0001
0100
,
0010
0100
0001
0000
1000
0100
0010
0000
,
0001
0100
0010
0000
1001
0000
1000
0100
,
0010
0100
1000
0000
0001
0100
0010
0000
,
1000
0100
0010
0000
1001
0000
0001
0010
,
0001
0010
0100
1000
0100
1000
0001
0010
,
0100
1000
0001
0000
0200
0000
0300
0020
,
0000
0030
0000
2000
0000
3000
0000
0202
,
0000
0000
0303
0000
1010
0000
0001
0010
,
0000
0100
1000
0100
0000
0010
0001
0000
,
1000
0100
1000
0000
1001
0000
0001
0100
,
0000
0010
1000
0010
0000
0100
0001
0010
,
0000
0100
0010
0000
1100
0000
0001
0010
,
0000
0100
0010
0000
0001
1000
0000
0010
,
1000
0001
0100
0000
0220
0000
0330
2002
,
0000
3003
0000
0220
0000
0000
0000
0000
,
0000
0000
0000
0000
,
0000
0330
1001
0000
;

//--------------- dance-single - forcednature ----------------
#NOTEDATA:;
#STEPSTYPE:dance-single;
#DESCRIPTION:forcednature;
#CREDIT:forcednature;
#DIFFICULTY:Hard;
#METER:14;
#RADARVALUES:0,0,0,0,0;
#NOTES:
0000
0000
0000
0000
,
0000
0000
0000
0000
,
0000
0000
0000
0000
,
0000
0000
0000
0000
,
0000
0000
0000
0000
,
1001
0000
0001
0010
0000
0100
0010
0000
,
0100
1000
0000
0001
0200
0000
0310
1000
,
2002
0000
3003
0022
0000
0033
0000
2200
,
0000
3300
0000
2020
0000
0000
3030
0000
,
1001
0000
1000
0100
0010
0100
1000
0000
,
1000
0010
0001
0010
1000
0000
1000
0100
,
0010
0000
0001
0100
0010
0100
0001
0000
,
0001
0010
1000
0010
0002
0003
2000
3000
,
1010
0000
0010
0100
1000
0100
0001
0000
,
0001
0010
0100
1000
0001
0000
0100
0000
,
0011
0000
0010
0100
0001
0100
1000
0000
,
1020
0000
0000
0000
0000
0000
0100
0000
0130
0000
0000
0001
0000
0000
0010
0000
1001
0000
0000
0000
0000
0000
0000
0000
0001
0000
0000
0000
0010
0000
0000
0000
,
0100
0010
0001
0100
0000
0010
0000
1000
,
0100
0001
0100
1000
0000
0010
0100
0000
,
0001
0010
0000
0001
0000
0100
0000
1000
,
0100
0001
1000
0000
0010
0100
0010
0100
,
0001
0010
0100
1000
0001
0010
0001
0010
,
0100
1000
0001
0100
0220
0000
0000
0000
,
0000
0000
0000
0000
0330
0000
0000
0000
1010
0000
0000
1100
0000
0000
0101
0000
,
0000
0011
0000
0000
0100
0000
0000
0000
1001
0000
0000
0000
1000
0000
0100
0000
,
0010
0000
0100
0000
1000
0000
0001
0010
0000
0000
0100
0000
1000
0000
0001
0010
,
0001
0010
0200
0000
2300
0000
3001
0100
,
0010
0000
0100
0000
0001
0000
0100
0010
1000
0000
0001
0000
0010
0000
0200
0000
,
0300
0010
0001
1000
1001
0000
0001
1000
,
0100
0000
1000
0000
0001
0000
0010
0001
0000
0000
1000
0000
0100
0000
0010
0100
,
0010
0002
0000
0103
0220
0000
0330
2020
,
0000
3030
0000
2200
0000
3300
0000
0022
,
0000
0000
0000
0000
0033
0000
0000
0000
1001
0000
0000
0000
1000
0000
0010
0100
,
0010
0000
1000
0000
0001
0000
0100
0000
0000
0000
0010
0000
1000
0000
0001
0100
,
0001
0000
1000
0000
0200
0000
0000
0000
0320
0000
0000
0000
0031
0000
0100
0010
,
0100
0000
0001
0000
1000
0010
1000
0010
1000
0000
0001
0000
0010
0000
0200
0000
,
0300
0000
0010
0000
0001
0000
1000
0000
1001
0000
0000
0000
0001
0000
0100
0010
,
0100
0000
0001
0000
1000
0000
0010
0000
0000
0000
0100
0000
0001
0000
1000
0001
,
1000
0010
0100
0000
1002
0000
1003
2100
,
0000
3001
0010
0210
0000
1300
0001
0201
,
0000
0310
1000
0000
0001
0010
0100
0001
,
0100
0010
0001
1000
0100
0010
1000
0010
,
0100
1000
0001
0000
1000
0010
0100
1000
,
0100
0010
1000
0001
0100
0010
0001
0010
,
0100
0001
1000
0000
1002
0000
0103
0020
,
0000
1030
0200
0000
0301
0200
0000
1300
,
0001
0000
0000
0001
0000
0000
0010
0000
0200
0000
0000
0000
1300
0000
0002
0000
,
0000
0103
2000
0000
3100
0001
1000
0010
,
0100
0001
0010
0000
1001
0000
1000
0010
,
0100
1000
0100
0010
1000
0001
0100
0010
,
0001
0010
0100
0001
1000
0000
0001
0010
,
0100
0001
0100
0010
0001
1000
0100
0010
,
1000
0010
0001
0000
2001
0000
3100
0020
,
0000
0031
0200
0000
1300
0200
0000
0301
,
1000
0000
0000
1000
0000
0000
0010
0000
0200
0000
0000
0000
0301
0000
2000
0000
,
0000
0000
3100
0000
0002
0000
0000
0000
0103
0000
1100
0000
0000
1010
0000
0000
,
0011
0000
0000
0101
0000
0000
0000
0000
1001
0000
0000
0000
1000
0000
0100
0000
,
0010
0100
0000
1000
0100
0010
0001
1000
,
0010
0100
0000
0100
0000
0001
0010
0100
,
0010
0001
0000
0001
0010
0100
1000
0001
,
0100
0010
1000
0000
0000
0001
0010
1000
,
0010
0001
0000
1000
0000
0010
0000
0100
,
0001
1000
0010
0100
0001
0020
0000
0031
,
0200
0000
0310
1000
0200
0010
0000
1000
,
1300
0001
0010
0000
1001
0000
1000
0010
,
0100
0000
1000
0000
0100
0000
0010
1000
0000
0000
0001
0000
0100
0000
0010
0100
,
0010
1000
0002
0000
0023
0000
0031
0100
,
0010
0000
0001
0000
0010
0000
0100
0010
1000
0000
0001
0000
0010
0000
0200
0000
,
0300
0000
0010
0000
0001
0000
1000
0000
1001
0000
0000
0000
0001
0000
1000
0100
,
1000
0000
0100
0000
0010
0000
0100
0010
0100
0000
0010
0001
0010
0000
0001
1000
,
0010
0100
0001
0000
0022
0000
0033
2200
,
0000
3300
0000
2020
0000
3030
0000
0202
,
0000
0000
0303
0000
0010
0000
0000
0000
1001
0000
0000
0000
1000
0000
0010
0100
,
0001
0000
0100
0000
0010
0000
1000
0000
0000
0000
0010
0000
1000
0000
0001
0100
,
0010
0000
1000
0000
0200
0000
0000
0000
0320
0000
0000
0000
0031
0000
1000
0010
,
0100
0000
0001
0000
0010
0001
0010
0001
0010
0000
0100
0000
1000
0000
0002
0000
,
0003
1000
0100
0010
1001
0000
1000
0010
,
0100
0010
1000
0001
0100
1000
0100
0001
,
1000
0010
0100
0000
2001
0000
3001
0021
,
0000
0130
1000
2020
0000
0000
0000
0000
,
0000
0000
0000
0000
,
0000
3030
1001
0000
;

//--------------- dance-double - forcednature ----------------
#NOTEDATA:;
#STEPSTYPE:dance-double;
#DESCRIPTION:forcednature;
#CREDIT:forcednature;
#DIFFICULTY:Easy;
#METER:7;
#RADARVALUES:0,0,0,0,0;
#NOTES:
00000000
00000000
00000000
00000000
,
00000000
00000000
00000000
00000000
,
00000000
00000000
00000000
00000000
,
00000000
00000000
00000000
00000000
,
00000000
00000000
00000000
00000000
,
00020000
00000000
00030000
00002000
,
00000000
00003000
00100000
00100000
,
00020000
00000000
00030000
20000000
00000000
30000000
00000000
00200000
,
00000000
00300000
00000000
02000000
00000000
00000000
03000000
00000000
,
10010000
00000000
00010000
00010000
,
00100000
00001000
00010000
00000100
,
00001000
00000000
00000010
00000010
,
00000100
00000001
00001000
00000010
,
00000100
00000000
00000001
00000001
,
00001000
00000100
00010000
00001000
,
00100000
00000000
00010000
00010000
,
02000000
03000000
10010000
00000000
,
10000000
00100000
10000000
00010000
,
01000000
00010000
00100000
00000000
,
00001000
00010000
00000100
00001000
,
00000100
00000010
00000001
00000000
,
00000001
00000001
00000100
00000100
,
00001000
00010000
00022000
00000000
,
00033000
00000000
00000000
00000000
00000000
00000000
00000000
00000000
00100000
00000000
00000000
00010000
00000000
00000000
01000000
00000000
,
00000000
00010000
00000000
00000000
00000000
00000000
00000000
00000000
01100000
00000000
00000000
00000000
00000000
00000000
00000000
00000000
,
10000000
00000000
00100000
10000000
,
00010000
00000000
01000000
00000000
,
00001000
00000000
00010000
00000010
,
00001000
00000001
00000100
00000000
,
00000001
00000000
00000010
00000100
,
00001000
00000000
00000000
00000000
00000020
00000000
00000030
00020000
,
00000000
00030000
00000000
00002000
00000000
00003000
00000000
02000000
,
00000000
03000000
10010000
00000000
,
00010000
00000000
00100000
00001000
,
00010000
00000000
00000010
00000000
,
00001000
00000000
00000001
00000010
,
00000100
00000000
00000110
00000000
,
00001000
00000000
00000010
00010000
,
00001000
00000000
00000000
00000000
02000000
00000000
03000000
00020000
,
00000000
00030000
00000000
20000000
00000000
30000000
00000000
00200000
,
00000000
00300000
10010000
00000000
,
00010000
00100000
00000000
00100000
,
00001000
00010000
00000100
00000000
,
00000100
00001000
00000000
00000010
,
00000100
00000001
00001000
00000000
,
00001001
00000000
00000010
00000000
,
00011000
00000000
00100000
00000000
,
00011000
00000000
01000000
00000000
,
10010000
00000000
01100000
00000000
,
10000000
00010000
01000000
00010000
,
00100000
00000000
00001000
00000000
,
00010000
00000100
00001000
00000100
,
00000010
00000000
00000100
00000000
,
00001001
00000000
00000010
00000000
,
00011000
00000000
00000000
00000000
00100000
00000000
00000000
00100000
,
00000000
00000000
00000000
00000000
00100000
00000000
00000000
00000000
00000000
00000000
00010000
00000000
00000000
00010000
00000000
00000000
,
01000000
00000000
00000000
00100000
00000000
00000000
00000000
00000000
20000000
00000000
00000000
00000000
00000000
00000000
00000000
00000000
,
00000000
00000000
00000000
00000000
,
00000000
00000000
00000000
00000000
,
00000000
00000000
00000000
00000000
,
00000000
30000000
02000000
00000000
,
00000000
00000000
00000000
00000000
,
03000000
00000000
20020000
00000000
,
00000000
30030000
00200000
00000000
,
00000000
00300000
00011000
00000100
,
00000000
00001000
00000010
00001000
,
00000001
00000010
00000100
00001000
,
00000000
00000010
00010000
00001000
,
00100000
00010000
01000000
00100000
,
10000000
00100000
10000000
01000000
,
00100000
00000000
00010000
00000000
02000000
00000000
03000000
00002000
,
00000000
00003000
00000000
00020000
00000000
00030000
00000000
00000020
,
00000000
00000030
00001001
00000000
,
00000110
00000000
00001000
00000100
,
00010000
00000000
00011000
00000000
,
00100000
00000000
00010000
01000000
,
00100000
10000000
10010000
00000000
,
00010000
00100000
00001000
00010000
,
00000100
00000000
00000000
00000000
00002000
00000000
00003000
00000020
,
00000000
00000030
00000000
00002002
00000000
00000000
00000000
00000000
,
00000000
00000000
00000000
00000000
,
00003003
00000000
00001001
00000000
;

//--------------- dance-double - forcednature ----------------
#NOTEDATA:;
#STEPSTYPE:dance-double;
#DESCRIPTION:forcednature;
#CREDIT:forcednature;
#DIFFICULTY:Medium;
#METER:11;
#RADARVALUES:0,0,0,0,0;
#NOTES:
00000000
00000000
00000000
00000000
,
00000000
00000000
00000000
00000000
,
00000000
00000000
00000000
00000000
,
00000000
00000000
00000000
00000000
,
00000000
00000000
00000000
00000000
,
00011000
00000000
00000000
00001000
00000000
00000000
00000010
00000000
,
00000000
00000001
00000000
00000000
00000200
00000000
00000300
00000000
,
00000020
00000000
00000030
00002000
00000000
00003000
00000000
00000200
,
00000000
00000300
00000000
00022000
00000000
00000000
00033000
00000000
,
00100000
00000000
00100000
00010000
00000000
00010000
01000000
00000000
,
01000000
00100000
00000000
00100000
10000000
00000000
01000000
10000000
,
01000000
00000000
01000000
00010000
00000000
00010000
00001000
00000000
,
00001000
00000010
00000000
00000010
00000002
00000000
00002003
00000000
,
00003100
00000000
00000100
00010000
00000000
00010000
00001000
00000000
,
00001000
00100000
00000000
00100000
00010000
00000000
01000000
00000000
,
00100000
00000000
00100000
10000000
00000000
10000000
01000000
00000000
,
20020000
30030000
01100000
00010000
,
00100000
00000000
00001000
00010000
00000000
00010000
00000000
00000100
,
00001000
00000100
00000000
00000010
00000000
00000001
00000100
00000000
,
00000001
00001000
00000000
00000100
00000000
00000100
00000000
00010000
,
00001000
00010000
00001000
00000000
00100000
00010000
00100000
00000000
,
01000000
00100000
01000000
00000000
10000000
01000000
10000000
00000000
,
00100000
01000000
20020000
00000000
,
00000000
00000000
00000000
00000000
30030000
00000000
00000000
00000000
00010000
00000000
00000000
01000000
00000000
00000000
00001000
00000000
,
00000000
00010000
00000000
00000000
00000000
00000000
00000000
00000000
00011000
00000000
00000000
00000000
00000100
00000000
00001000
00000000
,
00000000
00000010
00001000
00000010
00000000
00001000
00000100
00000000
,
00000010
00000001
00000010
00000000
00000100
00000000
00010000
00001000
,
00000000
00100000
00010000
00100000
00000000
00001000
00010000
00000000
,
00001000
01000000
00001000
00000000
00100000
00000000
00010000
10000000
,
00000000
01000000
10000000
01000000
00000000
10000000
00010000
00000000
,
00100000
00010000
00100000
00000000
00002000
00000000
00003000
00020000
,
00000000
00030000
00000000
00000020
00000000
00000030
00000000
00002002
,
00000000
00000000
00003003
00000000
00000001
00000000
00000100
00000010
,
00000000
00001000
00000100
00001000
00000000
00000010
00000100
00000000
,
00000001
00000010
00000001
00000000
00001000
00000000
00000100
00010000
,
00000000
00001000
00100000
00001000
00000000
00010000
00000100
00000000
,
00010000
00000000
00001000
00000000
00011000
00000000
01000000
00010000
,
00000000
10000000
00100000
10000000
00000000
00010000
01000000
00000000
,
00010000
00100000
00010000
00000000
20000000
00000000
31000000
00200000
,
00000000
00301000
00010000
00000200
00000000
00000310
00000001
00002000
,
00000000
00000000
00003000
00000000
00001001
00000000
00000001
00000100
,
00000000
00001000
00000100
00000000
00001000
00010000
00000000
00100000
,
00010000
00000000
00100000
10000000
00100000
00000000
10000000
01000000
,
00000000
00010000
01000000
00000000
00010000
00001000
00000000
00000010
,
00000002
00000000
00002003
00000000
00003010
00000000
00000100
00001000
,
00000000
00001000
00010000
00000000
00010000
00100000
00000000
00100000
,
10000000
00100000
10000000
00000000
01000000
00000000
01000000
00010000
,
00000000
00010000
00001000
00000000
00001000
00000010
00000000
00000010
,
00000001
00000010
00000001
00000000
00001001
00000000
00001000
00000100
,
00000000
00010000
00001000
00000000
00100000
00010000
00000000
01000000
,
00100000
00000000
10000000
00010000
10000000
00000000
00010000
01000000
,
00000000
00001000
00010000
00000000
00000010
00001000
00000000
00000001
,
00000200
00000000
00000320
00000000
00001030
00000000
00001000
00000100
,
00000000
00000100
00000010
00000000
00000010
00001000
00000000
00001000
,
00010000
00000000
00000000
00001000
00000000
00000000
00001000
00000000
00100000
00000000
00000000
00000000
00100000
00000000
00010000
00000000
,
00000000
00000000
00010000
00000000
02000000
00000000
00000000
00000000
03000000
00000000
00100000
00000000
00000000
10000000
00000000
00000000
,
01000000
00000000
00000000
00010000
00000000
00000000
00000000
00000000
00002000
00000000
00000000
00000000
00000000
00000000
00000000
00000000
,
00000000
00000000
00003020
00000000
,
00000032
00000000
00000203
00000000
,
00000000
00000000
00002300
00000000
,
00023000
00000000
00230000
00000000
,
00000000
00000000
20300000
00000000
,
32000000
03000000
02200000
00000000
,
00000000
03300000
20020000
00000000
,
00000000
00000000
30030000
00000000
10100000
00000000
00010000
01000000
,
00001000
00010000
00001000
00000000
00010000
00000100
00001000
00000000
,
00000100
00001000
00000010
00000000
00000110
00000000
00001000
00000100
,
00001000
00000001
00000010
00000000
00000100
00010000
00001000
00000000
,
01000000
00001000
00010000
00000000
00011000
00000000
00100000
00010000
,
00100000
00010000
01000000
00100000
01000000
00100000
10000000
01000000
,
00010000
00001000
00010000
00000000
00002000
00000000
00003000
00000020
,
00000000
00000030
00000000
00000002
00000000
00000003
00000000
00000202
,
00000000
00000000
00000303
00000000
00001010
00000000
00001000
00000100
,
00000000
00010000
00001000
00010000
00000000
00001000
00100000
00000000
,
00010000
01000000
00010000
00000000
01100000
00000000
10000000
00100000
,
00000000
10000000
00010000
10000000
00000000
00010000
00100000
00001000
,
00000000
00010000
00001000
00000000
00011000
00000000
00000100
00001000
,
00000000
00000010
00000100
00000000
00000001
00000010
00000000
00001000
,
00010000
00010000
00001000
00000000
00022000
00000000
00033000
00200000
,
00000000
00300000
00000000
20020000
00000000
00000000
00000000
00000000
,
00000000
00000000
00000000
00000000
,
00000000
30030000
01100000
00000000
;

//--------------- dance-double - forcednature ----------------
#NOTEDATA:;
#STEPSTYPE:dance-double;
#DESCRIPTION:forcednature;
#CREDIT:forcednature;
#DIFFICULTY:Hard;
#METER:14;
#RADARVALUES:0,0,0,0,0;
#NOTES:
00000000
00000000
00000000
00000000
,
00000000
00000000
00000000
00000000
,
00000000
00000000
00000000
00000000
,
00000000
00000000
00000000
00000000
,
00000000
00000000
00000000
00000000
,
00011000
00000000
00010000
00100000
00000000
10000000
00100000
00000000
,
10000000
01000000
00000000
00010000
02000000
00000000
03100000
00001000
,
00020000
00000000
00030000
00002200
00000000
00003300
00000000
00000022
,
00000000
00000033
00000000
00000202
00000000
00000000
00000303
00000000
,
00001010
00000000
00001000
00000100
00000000
00010000
00001000
00000000
,
00100000
00010000
00000000
01000000
00100000
00000000
10000000
01000000
,
00100000
00000000
00010000
01000000
00000000
00001000
00010000
00000000
,
00000010
00001000
00000000
00000100
00000020
00000030
00000002
00000003
,
00001001
00000000
00001000
00000100
00000000
00000010
00001000
00000000
,
00010000
00100000
00000000
01000000
00010000
00000000
00100000
00000000
,
01000000
00000000
00100000
00001000
00000000
00010000
00000010
00000000
,
00002010
00000000
00000000
00000000
00000000
00000000
00000001
00000000
00003001
00000000
00000000
00001000
00000000
00000000
00000100
00000000
00010000
00000000
00000000
00000000
00001000
00000000
00000000
00000000
00000000
00000000
00000000
00000000
00100000
00000000
00000000
00000000
,
00001000
00000000
00010000
01000000
00000000
10000000
00000000
00100000
,
01000000
00010000
01000000
00100000
00000000
10000000
01000000
00000000
,
00010000
01000000
00000000
00100000
00000000
00001000
00000000
00010000
,
00000100
00010000
00001000
00000000
00000010
00000100
00000010
00000100
,
00001000
00000001
00000100
00001000
00010000
00100000
00010000
00100000
,
10000000
00010000
01000000
00100000
02200000
00000000
00000000
00000000
,
00000000
00000000
00000000
00000000
03300000
00000000
00000000
00000000
01010000
00000000
00000000
00110000
00000000
00000000
00101000
00000000
,
00000000
00011000
00000000
00000000
00000100
00000000
00000000
00000000
00001001
00000000
00000000
00000000
00000001
00000000
00000010
00000000
,
00000100
00000000
00000010
00000000
00000001
00000000
00001000
00000100
00000000
00000000
00010000
00000000
00001000
00000000
00100000
00010000
,
00100000
01000000
20000000
00000000
30020000
00000000
10030000
00100000
,
01000000
00000000
00100000
00000000
10000000
00000000
00010000
01000000
00001000
00000000
00010000
00000000
00000010
00000000
00002000
00000000
,
00003000
00000001
00000100
00000010
00001001
00000000
00001000
00000100
,
00000010
00000000
00000001
00000000
00000010
00000000
00000100
00001000
00000000
00000000
00000100
00000000
00000010
00000000
00000100
00001000
,
00000100
00020000
00000000
00031000
00202000
00000000
00303000
02020000
,
00000000
03030000
00000000
20200000
00000000
30300000
00000000
22000000
,
00000000
00000000
00000000
00000000
33000000
00000000
00000000
00000000
10010000
00000000
00000000
00000000
10000000
00000000
00100000
01000000
,
00100000
00000000
10000000
00000000
00010000
00000000
01000000
00000000
00000000
00000000
00001000
00000000
00010000
00000000
00000010
00001000
,
00000010
00000000
00000100
00000000
00000002
00000000
00000000
00000000
00002003
00000000
00000000
00000000
00003001
00000000
00000010
00000100
,
00000010
00000000
00000100
00000000
00001000
00000100
00001000
00000100
00010000
00000000
00001000
00000000
00100000
00000000
00020000
00000000
,
00030000
00000000
00100000
00000000
01000000
00000000
10000000
00000000
10010000
00000000
00000000
00000000
00010000
00000000
01000000
00100000
,
01000000
00000000
00010000
00000000
10000000
00000000
00100000
00000000
00000000
00000000
01000000
00000000
00001000
00000000
00010000
00001000
,
00010000
00000010
00000100
00000000
00002001
00000000
00003100
00000120
,
00000000
00000031
00000100
00000102
00000000
00001003
00000010
00022000
,
00000000
00000000
00033000
00000000
00010000
00100000
01000000
10000000
,
01000000
00100000
00010000
00001000
00000010
00000100
00000001
00000100
,
00000010
00001000
00010000
00000000
00001000
00000010
00000001
00000100
,
00001000
00000100
00000001
00000010
00001000
00010000
00100000
10000000
,
01000000
00010000
02000000
00000000
13000000
00000000
00100000
00020000
,
00000000
00031000
00000200
00000000
00000301
00002000
00000000
00003010
,
00000100
00000000
00000000
00000100
00000000
00000000
00000001
00000000
00000020
00000000
00000000
00000000
00001030
00000000
00020000
00000000
,
00000000
01030000
20000000
00000000
30010000
00100000
00010000
10000000
,
00200000
00000000
00320000
00000000
00031000
00000010
00000100
00000001
,
00000100
00000010
00001000
00010000
00100000
01000000
10000000
01000000
,
00100000
00010000
00001000
00000000
00010000
00100000
10000000
01000000
,
00010000
01000000
10000000
00100000
00010000
00001000
00000010
00000001
,
00000100
00001000
00000200
00000000
00000301
00000000
00000010
00002000
,
00000000
00013000
02000000
00000000
13000000
00020000
00000000
00130000
,
01000000
00000000
00000000
01000000
00000000
00000000
10000000
00000000
00200000
00000000
00000000
00000000
00310000
00000000
00002000
00000000
,
00000000
00000000
00003100
00000000
00000002
00000000
00000000
00000000
00001003
00000000
00001010
00000000
00000000
00001100
00000000
00000000
,
00010100
00000000
00000000
00101000
00000000
00000000
00000000
00000000
10010000
00000000
00000000
00000000
10000000
00000000
00000000
00000000
,
01000000
00010000
00000000
00001000
00010000
00001000
00000010
00000100
,
00000010
00000001
00000000
00001000
00000000
00000010
00000100
00000000
,
00001000
00000100
00000000
00001000
00010000
00100000
01000000
00010000
,
01000000
00100000
10000000
00010000
00000000
00100000
01000000
00000000
,
00100000
00001000
00000000
00010000
00000100
00010000
00001000
00000010
,
00000001
00000100
00000000
00000010
00002002
00000000
00000000
00003003
,
00001000
00000100
00010000
00001000
02000000
00100000
00000000
10000000
,
13000000
01000000
00010000
00000000
10010000
00000000
10000000
00100000
,
01000000
00000000
00010000
00000000
00100000
00000000
00001000
00010000
00000000
00000000
00000010
00000000
00001000
00000000
00000010
00000100
,
00000010
00000100
00000002
00000000
00000023
00000000
00000130
00010000
,
00001000
00000000
00100000
00000000
00010000
00000000
01000000
00100000
10000000
00000000
01000000
00000000
00010000
00000000
02000000
00000000
,
03000000
00000000
00100000
00000000
00001000
00000000
00010000
00000000
00011000
00000000
00000000
00000000
00000010
00000000
00001000
00000010
,
00001000
00000000
00000100
00000000
00010000
00000000
00001000
00010000
00001000
00000000
00100000
00010000
00100000
00000000
00010000
10000000
,
00100000
01000000
00010000
00000000
00220000
00000000
00330000
02002000
,
00000000
03003000
00000000
00020200
00000000
00030300
00000000
00002020
,
00000000
00000000
00003030
00000000
00000100
00000000
00000000
00000000
00001001
00000000
00000000
00000000
00000001
00000000
00000100
00000010
,
00001000
00000000
00000100
00000000
00010000
00000000
00001000
00000000
00000000
00000000
00100000
00000000
00010000
00000000
01000000
00100000
,
10000000
00000000
01000000
00000000
00200000
00000000
00000000
00000000
00320000
00000000
00000000
00000000
10030000
00000000
00100000
01000000
,
00010000
00000000
00100000
00000000
00001000
00010000
00001000
00010000
00001000
00000000
00000010
00000000
00000001
00000000
00000200
00000000
,
00000300
00000001
00000010
00001000
00011000
00000000
00100000
00010000
,
01000000
00100000
10000000
01000000
00010000
00001000
00010000
01000000
,
10000000
00100000
00010000
00000000
00012000
00000000
00003010
00000200
,
00000000
00001300
00000001
00002002
00000000
00000000
00000000
00000000
,
00000000
00000000
00000000
00000000
,
00000000
00003003
00011000
00000000
;
