#VERSION:0.83;
#TITLE:Cult Invitation;
#SUBTITLE:;
#ARTIST:BEMANI Sound Team "謎の勢力";
#TITLETRANSLIT:;
#SUBTITLETRANSLIT:;
#ARTISTTRANSLIT:Nazo no seiryoku;
#GENRE:00's TECHNO;
#CREDIT:;
#MUSIC:Cult Invitation.ogg;
#BANNER:Cult Invitation.png;
#BACKGROUND:Cult Invitation-bg.png;
#CDTITLE:./CDTitles/bm IIDX 31 EPOLIS.png;
#SAMPLESTART:42.484;
#SAMPLELENGTH:15.000;
#SELECTABLE:YES;
#OFFSET:-0.053;
#BPMS:0.000=164.000;
#STOPS:;
#SPEEDS:0.000=1.000=0.000=0;
#SCROLLS:0.000=1.000;
#TICKCOUNTS:0.000=4;
#TIMESIGNATURES:0.000=4=4;
#LABELS:0.000=Song Start;
#COMBOS:0.000=1;
#ORIGIN:;
#PREVIEWVID:;
#JACKET:Cult Invitation-jacket.png;
#CDIMAGE:;
#DISCIMAGE:;
#BGCHANGES:0.000=Cult Invitation.mp4=1.000=0=0=0=StretchNoLoop====,
99999.000=-nosongbg-=1.000=0=0=0=StretchNoLoop====
;
#FGCHANGES:;

//--------------- dance-single - Ben Speirs vs. forcednature ----------------
#NOTEDATA:;
#STEPSTYPE:dance-single;
#DESCRIPTION:Ben Speirs vs. forcednature;
#DIFFICULTY:Beginner;
#METER:3;
#RADARVALUES:0.123081,0.197491,0.069857,0.031047,0.003881,111,102,9,4,0,0,0,0,0,0.123081,0.197491,0.069857,0.031047,0.003881,111,102,9,4,0,0,0,0,0;
#CHARTNAME:;
#CHARTSTYLE:;
#CREDIT:Ben Speirs vs. forcednature;
#NOTES:
0000
0000
0000
0000
,
0000
0000
0000
0000
,
0000
0000
0000
0000
,
0000
0000
0000
0000
,
0000
0000
0000
0000
,
1001
0000
0000
0000
,
1000
0000
0000
0000
,
0001
0000
0000
0000
,
1000
0000
1000
0000
,
0010
0000
0000
0000
,
0100
0000
0000
0000
,
0001
0000
0000
0000
,
0000
0000
0000
0000
,
1001
0000
0000
0000
,
0001
0000
0000
0000
,
0010
0000
0000
0000
,
0001
0000
0001
0000
,
0100
0000
0000
0000
,
0010
0000
0000
0000
,
1000
0000
0000
0000
,
0001
0000
0001
0000
,
0010
0000
0000
0000
,
0100
0000
0000
0000
,
1000
0000
0000
0000
,
0001
0000
0001
0000
,
0100
0000
0000
0000
,
0010
0000
0000
0000
,
1000
0000
0000
0000
,
0100
0000
0100
0000
,
1001
0000
0000
0000
,
0001
0000
0000
0000
,
0010
0000
0100
0000
,
0010
0000
0100
0000
,
1000
0000
0000
0000
,
0001
0000
0000
0000
,
0100
0000
0010
0000
,
0100
0000
0010
0000
,
1000
0000
0000
0000
,
0100
0000
0000
0000
,
1000
0000
0001
0000
,
1000
0000
0001
0000
,
0010
0000
0000
0000
,
0100
0000
0000
0000
,
1000
0000
1000
0000
,
0001
0000
0100
0000
,
0110
0000
0000
0000
,
1001
0000
0000
0000
,
0110
0000
0000
0000
,
1001
0000
0000
0000
,
0001
0000
0000
0000
,
0010
0000
0000
0000
,
0001
0000
0001
0000
,
1000
0000
1000
0000
,
0001
0000
0000
0000
,
0100
0000
0000
0000
,
0010
0000
0010
0000
,
0100
0000
0100
0000
,
0000
0000
0001
0000
,
1000
0000
0000
0000
,
2002
0000
0000
0000
,
0000
0000
0000
0000
,
0000
0000
0000
0000
,
0000
0000
3003
0000
,
1000
0000
1000
0000
,
0100
0000
0000
0000
,
0010
0000
0001
0000
,
0010
0000
0001
0000
,
0100
0000
0000
0000
,
0010
0000
0010
0000
,
1000
0000
0100
0000
,
1000
0000
0100
0000
,
0010
0000
0010
0000
,
0001
0000
0000
0000
,
1000
0000
0010
0000
,
1000
0000
0010
0000
,
0100
0000
0100
0000
,
0001
0000
0000
0000
,
0010
0000
0100
0000
,
0010
0000
0100
0000
,
0000
0000
1000
0000
,
0010
0000
0000
0000
,
2002
0000
0000
0000
,
0000
0000
0000
0000
,
0000
0000
0000
0000
,
0000
0000
0000
0000
0000
0000
0000
0000
0000
0000
0000
0000
0000
3003
0000
0000
;

//--------------- dance-single - Ben Speirs vs. forcednature ----------------
#NOTEDATA:;
#STEPSTYPE:dance-single;
#DESCRIPTION:Ben Speirs vs. forcednature;
#DIFFICULTY:Easy;
#METER:8;
#RADARVALUES:0.298277,0.394982,0.139714,0.411379,0.003881,269,251,18,53,0,0,0,0,0,0.298277,0.394982,0.139714,0.411379,0.003881,269,251,18,53,0,0,0,0,0;
#CHARTNAME:;
#CHARTSTYLE:;
#CREDIT:Ben Speirs vs. forcednature;
#NOTES:
0000
0000
0000
0000
,
0000
0000
0000
0000
,
0000
0000
0000
0000
,
0000
0000
0000
0000
,
0000
0000
0000
0000
,
0001
0100
0001
0100
,
0010
1000
0010
1000
,
0001
0010
0001
0010
,
0100
1000
0200
0300
,
1000
0010
1000
0010
,
0100
0001
0100
0001
,
1000
0100
1000
0100
,
0020
0000
0000
0030
,
1001
0000
0001
0100
,
0010
1000
0001
0100
,
0010
0000
1000
0001
,
0010
0000
0100
0000
1000
0000
0001
1000
,
0001
0000
0010
0100
,
1000
0001
0010
0100
,
1000
0000
0010
0100
,
0001
0001
1000
0001
,
1001
0000
1000
0100
,
1000
0001
1000
0010
,
1000
0000
0001
0001
,
0200
0000
0300
0000
0010
0000
0010
0100
,
0010
0000
1000
0001
,
0100
0001
0010
0001
,
1000
0000
0001
0001
,
0020
0030
0200
0300
,
1001
0000
1000
0010
,
0100
0000
0001
0000
,
0200
0301
0020
0031
,
0200
0301
0020
0031
,
1001
0000
0001
0010
,
0100
0000
1000
0000
,
0020
1030
0200
1300
,
0020
1030
0002
0003
,
1001
0000
1000
0010
,
0100
0000
0001
0000
,
0020
0031
0200
0301
,
0020
0031
0200
0301
,
1001
0000
1000
0010
,
0100
0000
0001
1000
,
0200
1300
0020
1030
,
0002
0023
0230
2300
,
3010
0000
0000
0010
0000
0000
0100
0000
,
0001
0000
0000
0001
0000
0000
1000
0000
,
0100
0000
0000
0100
0000
0000
0010
0000
,
0001
0000
0000
0001
0000
1000
0001
0000
,
1001
1000
0010
1000
,
0001
0010
0001
0000
,
0200
0301
0020
0031
,
0200
0301
0020
0031
,
1001
0000
1000
0010
,
0100
0000
0001
1000
,
0200
1300
0020
1030
,
0002
0023
0230
2300
,
3010
0000
0000
0000
0100
0000
0001
1000
,
0000
1000
0000
0002
0000
0000
0003
0000
,
2002
0000
0000
0000
,
0003
0000
0000
3000
,
0200
0000
0000
0300
,
0020
0000
0000
0030
,
1001
0000
0001
0100
,
0001
0100
0010
1000
,
0002
0013
0002
1003
,
0002
0103
0002
1003
,
1001
0000
1000
0010
,
0100
0001
1000
0100
,
2000
3010
2000
3001
,
2000
3100
2000
3001
,
1001
0000
1000
0010
,
0100
0001
0010
0000
,
0200
1300
0002
0013
,
0200
1300
0002
0013
,
1001
0000
1000
0010
,
1001
0000
0001
0010
,
1001
0100
1001
0010
,
1001
1000
0001
0100
,
0000
0000
0001
0000
1000
0000
0001
0010
,
0000
0010
0000
0200
0000
0000
0300
0000
,
2002
0000
0000
0000
,
0000
0000
0000
0000
,
0000
0000
0000
0000
,
0000
0000
0000
0000
0000
0000
0000
0000
0000
0000
0000
0000
0000
3003
0000
0000
;

//--------------- dance-single - Ben Speirs vs. forcednature ----------------
#NOTEDATA:;
#STEPSTYPE:dance-single;
#DESCRIPTION:Ben Speirs vs. forcednature;
#DIFFICULTY:Medium;
#METER:13;
#RADARVALUES:0.552201,0.625388,0.170761,0.24838,0.201808,498,476,22,32,0,0,0,0,0,0.552201,0.625388,0.170761,0.24838,0.201808,498,476,22,32,0,0,0,0,0;
#CHARTNAME:;
#CHARTSTYLE:;
#CREDIT:Ben Speirs vs. forcednature;
#NOTES:
0000
0000
0000
0000
,
0000
0000
0000
0000
,
0000
0000
0000
0000
,
0000
0000
0000
0000
,
0000
0000
0000
0000
,
1001
1000
0100
0010
,
0001
0000
0100
0000
0010
0000
1000
0010
,
0100
0001
0010
0100
,
1000
0000
0010
0000
1000
0001
1000
0001
,
1000
0010
0000
0100
0000
0001
0100
0001
,
0000
1000
0000
0001
0000
1000
0100
1000
,
0000
0001
0000
0010
0000
0001
0100
0020
,
0000
0000
0000
0030
,
1001
0000
1000
0010
0100
1000
0100
0010
,
2000
0000
3001
0010
0100
0000
1000
1000
,
0001
0000
0001
0010
0100
0001
0100
0010
,
0002
0000
1003
0000
0001
1000
0001
1000
,
0010
0000
0010
1000
0100
0001
0100
1000
,
0010
0000
0100
0001
1000
0000
0001
0010
,
0100
0000
1000
0010
0100
0100
0001
0001
,
2000
0010
3002
0013
,
1001
0000
0000
1000
0000
0000
0010
0000
0000
0010
0000
0000
1000
0000
0000
0000
,
0001
0000
0000
0001
0000
0000
0010
0000
0000
0010
0000
0000
0001
0000
1000
0000
,
0020
0000
0130
0100
0001
0010
0100
1000
,
0010
0000
0010
0000
1000
0001
1000
0001
,
1000
0000
0000
0001
0000
0000
0100
0000
0000
0100
0000
0000
0001
0000
0000
0000
,
1000
0000
0000
1000
0000
0000
0100
0000
0000
0100
0000
0000
1000
0000
0001
0000
,
0100
0000
0000
0010
0100
0000
0000
0010
0100
0000
0001
0000
0010
0000
0100
0000
,
2000
0100
0001
0010
,
3001
1000
0010
0200
0000
0301
0020
0000
,
0031
0001
0100
0020
0000
1030
0200
0000
,
1300
0000
0000
1000
0000
0000
0001
0000
0100
0000
0000
0100
0000
0000
0010
0000
,
1000
0000
0000
0001
0000
0000
0010
0000
0001
0000
1000
0000
0001
0000
1000
0000
,
0001
0001
0100
0020
0000
1030
0200
0000
,
1300
1000
0010
0200
0000
0301
0020
0000
,
0031
0000
0000
1000
0100
0000
0000
0010
0001
0000
1000
0000
0001
0000
0100
0000
,
0020
0000
0001
0000
1030
0001
1000
0000
,
0001
0100
0001
1000
0100
1000
0010
0010
,
1000
0010
1000
0001
0010
0001
0100
0100
,
0001
0000
0000
0000
1000
0010
1000
0000
0000
0000
0000
0000
0001
0010
0001
0000
,
0000
0000
0000
0000
1000
0000
0100
0000
0010
0000
0010
0000
0001
1000
0001
0000
,
1000
0010
1000
0001
0010
0001
0100
0100
,
0001
0100
0001
1000
0100
1000
0010
0010
,
2000
0000
3001
0100
1000
0100
0001
0010
,
0020
0000
0031
0100
0010
1000
0001
0000
,
0101
0100
0010
1000
1000
0001
0000
0000
,
1100
0100
0010
0001
0001
1000
0010
0000
,
1010
0010
0100
1000
0100
0001
0010
0000
,
0011
0010
0100
0001
0100
1000
0010
0000
,
1001
0000
0000
1000
0100
0000
0000
0100
0010
0000
0000
0010
0001
0000
1000
0000
,
0010
0000
0000
0010
0100
0000
0000
0100
0001
0000
0000
0001
1000
0000
0001
0000
,
0001
0000
0100
0001
0000
0000
1000
0000
1000
0000
0100
1000
0000
0000
0001
0000
,
0001
0000
0010
0001
0000
0000
1000
0000
1000
0000
0010
0000
0100
0010
0100
0000
,
0001
0000
0000
0001
0010
0000
0000
0010
0100
0000
0000
0100
1000
0000
0000
0000
,
1100
0000
0000
1000
0010
0000
0000
0010
0100
0000
0000
0100
0001
0000
0000
0000
,
1002
0000
1003
0010
0001
0010
1000
0100
,
0200
0000
1300
0010
0100
0001
1000
0000
,
0001
0001
0020
0000
0031
0100
0010
1010
,
0000
0110
0000
0202
0000
0000
0303
0000
,
2000
0000
0001
0000
,
0100
0100
0100
0000
,
3002
0000
1000
0000
,
0100
0100
0103
0000
,
0001
1000
0010
0100
0001
0010
1000
0010
,
0001
1000
0010
0100
0001
0010
0100
1000
,
0010
0000
0000
0010
0000
0000
1000
0000
0100
0000
0000
0100
0000
0000
0010
0000
,
0001
0000
0000
0001
0000
0000
1000
0000
0010
0000
0100
0000
0001
1000
0001
0000
,
1000
0001
0100
0010
1000
0100
0001
0100
,
1000
0001
0100
0010
1000
0100
0010
0001
,
0200
0000
0301
0010
1000
0010
0001
1000
,
0020
0130
0101
1010
,
0001
0100
0010
1000
0100
0001
0100
1000
,
0010
0100
0001
0010
1000
0010
0001
1000
,
0010
0000
1000
0001
0000
0000
0010
0000
0010
0000
0001
1000
0000
0000
0010
0000
,
0010
0000
1000
0001
0000
0000
0010
0000
0010
0000
0001
1000
0001
0000
0100
0000
,
0101
0000
0000
0100
0000
0000
0010
0000
0000
1000
0000
0000
0100
0000
1000
0000
,
1100
0000
0000
0100
0000
0000
0010
0000
0000
0001
0000
0000
1000
0000
0010
0000
,
1010
0000
0000
0010
0100
0000
0000
0100
0001
0000
0000
0001
0010
0000
0000
0010
,
0100
0000
1000
0000
0010
0000
0001
0000
0010
0000
1000
0000
0001
1000
0001
0000
,
1000
1000
0200
0000
1300
0010
0100
0101
,
0000
0110
0000
2020
0000
0000
3030
0000
,
2002
0000
0000
0000
,
0000
0000
0000
0000
,
0000
0000
0000
0000
,
0000
0000
0000
0000
0000
0000
0000
0000
0000
0000
0000
0000
0000
3003
0000
0000
;

//--------------- dance-single - Ben Speirs vs. forcednature ----------------
#NOTEDATA:;
#STEPSTYPE:dance-single;
#DESCRIPTION:Ben Speirs vs. forcednature;
#DIFFICULTY:Hard;
#METER:16;
#RADARVALUES:0.826084,0.95454,0.100904,0.302713,0.780068,745,732,13,39,0,0,0,0,0,0.826084,0.95454,0.100904,0.302713,0.780068,745,732,13,39,0,0,0,0,0;
#CHARTNAME:;
#CHARTSTYLE:;
#CREDIT:Ben Speirs vs. forcednature;
#NOTES:
0000
0000
0000
0000
,
0000
0000
0000
0000
,
0000
0000
0000
0000
,
0000
0000
0000
0000
,
0000
0000
0000
0000
,
1001
0000
1000
0000
0100
0000
0010
0001
,
0100
0000
0010
0000
1000
0000
0001
0010
,
0100
0000
1000
0000
0001
0000
0100
0010
,
1000
0000
0000
0000
0001
0000
0000
0000
1000
0100
1000
0001
0010
0100
1000
0001
,
0100
0000
0010
0000
0000
0000
1000
0100
0000
0000
1000
0000
0000
0000
0001
0000
,
1000
0000
0010
0000
0000
0000
0100
0001
0000
0000
0100
0000
0000
0000
0001
0000
,
0010
0000
0100
0000
0000
0000
1000
0100
0000
0000
1000
0000
0010
0000
0010
0000
,
0200
0000
0000
0000
0000
0000
0000
0310
,
1000
0001
1000
0100
1000
0010
0100
0001
,
1000
0100
0000
1000
0100
0000
0010
0001
0000
0010
0001
0000
1000
0000
1000
0000
,
0001
1000
0001
0010
0001
0100
0010
1000
,
0100
0000
0010
0000
0001
0000
1000
0000
0001
0100
0001
1000
0010
0100
0001
1000
,
0010
0000
1000
0100
1000
0000
0001
0100
0001
0000
1000
0001
1000
0000
0010
0100
,
0010
1000
0100
0010
0001
0100
0010
1000
,
0001
0000
0010
0100
0010
0000
0001
0000
0100
0000
0100
0000
0010
0000
0010
0000
,
1001
0000
0001
0000
0100
0000
0000
0000
0110
0000
0000
0000
0010
0000
1000
0001
,
1000
0000
0001
0100
0000
0100
0010
0000
1000
0100
0010
0000
0001
0000
1000
0000
,
0010
0000
0100
0001
0000
0001
1000
0000
0001
0010
0100
0000
1000
0000
0001
0000
,
0200
0000
0000
2300
0000
0000
3200
0000
0010
0000
0010
0000
0010
0000
0310
0000
,
1000
0000
0000
0000
0001
0000
0000
0000
1000
0100
0010
0001
0100
0010
1000
0001
,
1000
0000
0001
0010
0001
0000
1000
0000
0001
0100
0010
0000
1000
0000
0001
0000
,
0010
0000
0100
1000
0100
0000
1000
0000
0010
0100
0001
0000
1000
0000
0100
0000
,
1100
0000
0000
0001
0100
0000
0000
1000
0100
0000
0100
0000
0010
0000
0010
0000
,
1001
0000
1000
0000
0010
0000
0000
0000
0110
0000
0000
0000
0100
0000
0001
1000
,
0002
0100
0103
0002
0010
0013
0001
1000
,
0020
0000
0100
0000
0130
0000
0020
0000
1000
0000
1030
0000
0001
0000
1000
0100
,
0010
0000
0001
0010
0000
0001
0100
0001
0100
0000
0010
1000
0000
0001
0010
0100
,
1000
0000
0001
0100
0000
0010
1000
0010
1000
0100
0010
0001
0100
0010
0100
0010
,
2000
0100
3100
1000
0020
0100
0230
0001
,
0302
0000
0010
0000
0013
0000
0200
0000
1000
0000
1300
0001
0100
0010
1000
0001
,
1000
0000
0001
0100
0001
0000
1000
0100
0010
0000
0100
0000
0100
0000
1000
0001
,
0200
0000
0310
0010
0001
0010
1000
0001
,
2000
0100
3100
0002
0100
0103
1000
0001
,
0200
0000
0010
0000
0310
0000
0002
0000
0010
0000
0013
0000
1000
0000
0001
0010
,
0100
0000
1000
0001
0100
0010
0100
0010
1000
0000
0001
0010
0100
1000
0100
1000
,
0001
0000
1000
0010
0100
0000
0001
0000
1000
0000
1000
0000
0001
0010
0100
1000
,
0002
0010
0013
2000
0010
3010
0001
1000
,
0020
0000
0100
0000
0130
0000
2000
0000
0100
0000
3100
0001
0010
0100
1000
0001
,
1000
0000
0001
0100
0010
0100
0001
0000
1000
0000
0001
0010
0100
0000
1000
0010
,
0200
0000
0000
0000
0310
0000
1000
0001
1000
0000
0010
0000
1000
0100
0010
0001
,
1000
0000
0100
0001
0100
0000
1000
0000
0100
0001
0100
0000
1000
0000
0001
1000
,
0001
0000
0100
1000
0100
0000
0001
0000
0100
1000
0100
0000
0001
0010
0100
1000
,
0010
0000
1000
0010
0001
0000
0010
0000
1000
0010
0001
0000
0010
0100
0000
0001
,
0010
0000
1000
0010
0001
0000
0010
0000
1000
0010
0001
0000
0200
0000
0000
0000
,
0310
0000
1000
0010
1000
0000
0001
0010
0001
0000
1000
0100
1000
0000
0001
0010
,
0100
0000
1000
0001
0100
0000
0010
1000
0001
0000
0010
0100
1000
0000
0100
0010
,
0001
0000
1000
0010
0100
0001
0100
0001
1000
0000
0001
0010
0100
1000
0100
1000
,
0001
0000
1000
0010
0100
0000
0001
0010
0100
0000
0100
0000
1000
0010
0100
0001
,
1000
0000
0001
0010
0001
0000
1000
0010
1000
0000
0010
0100
0010
0000
0100
0000
,
0101
0000
1000
0100
1000
0000
0001
0100
0001
0000
0100
0010
1000
0100
0010
0001
,
1000
0000
0001
0100
0010
0000
1000
0100
0010
0000
0010
0000
0001
0000
1000
0000
,
0020
0000
0000
0000
1030
0000
0001
0100
0010
0000
1000
0000
0001
0010
0100
1000
,
0010
0000
0010
0000
1000
0100
0001
0100
1000
0000
0010
0000
0100
0000
0001
0000
,
1000
0100
0000
0100
0010
0000
1002
0000
0000
0000
0100
0000
0103
0000
0000
0000
,
0102
0000
0000
0000
1000
0000
0000
0010
,
0010
0000
0010
0000
1003
0010
0100
0001
,
2000
0000
0100
0000
0001
0000
0010
0010
,
0010
0100
0002
3003
,
0001
0100
0000
0001
0100
0000
0010
0000
1000
0100
0010
0000
0001
0000
1000
0000
,
0010
0100
0000
0010
0100
0000
0001
0000
1000
0100
0010
0000
0001
0000
1000
0001
,
1000
0000
0001
0100
0010
0100
0001
1000
0010
0000
1000
0100
0010
0100
1000
0001
,
0010
0000
0001
0100
0010
0000
1000
0000
0001
0010
0100
1000
0010
0100
0001
1000
,
0200
0000
0010
0000
0310
0000
0001
0000
1000
0010
0000
0010
0100
0000
0001
0000
,
2000
0000
0100
0000
3100
0000
1000
0000
0001
0100
0000
0100
0010
1000
0001
1000
,
0010
0000
1000
0100
0010
0000
0001
0100
0010
0000
0010
0000
1000
0000
0001
0000
,
0012
0000
0000
0000
1003
0000
0100
0000
0001
0000
0100
0000
1000
0010
0100
0001
,
2000
0000
3010
0100
0010
0000
2000
0000
3100
0010
0001
0000
1000
0010
0000
0100
,
0002
0000
0013
0100
0010
0000
0002
0000
0103
0010
1000
0000
0001
1000
0001
1000
,
0010
0000
1000
0100
1000
0001
0100
0001
0010
0000
0001
0100
0001
1000
0100
1000
,
0010
0000
1000
0100
1000
0001
0100
0001
0010
0000
0010
0000
0001
0100
0010
1000
,
0001
0000
1000
0100
0000
0100
0010
0000
0001
0100
0000
0100
0010
0000
1000
0000
,
1010
0000
0001
0010
0000
0010
0100
0000
1000
0010
0100
0001
0010
0100
1000
0001
,
0100
0000
0010
1000
0001
0000
0010
0001
1000
0000
0010
1000
0100
0000
0010
0001
,
0100
0010
1000
0100
0010
0001
0100
0010
1000
0100
0010
0001
0100
0010
1000
0010
,
0100
0000
0100
0000
0001
0010
1000
0010
0001
0000
0100
0000
0010
0000
1000
0000
,
0100
0010
0000
0010
0001
0000
2001
0000
0000
0000
0010
0000
3010
0000
0000
0000
,
0220
0000
0000
0000
,
0000
0000
0000
0000
,
0000
0000
0000
0000
,
0000
0000
0000
0000
0000
0000
0000
0000
0000
0000
0000
0000
0000
0330
0000
0000
;

//--------------- dance-double - Ben Speirs vs. forcednature ----------------
#NOTEDATA:;
#STEPSTYPE:dance-double;
#DESCRIPTION:Ben Speirs vs. forcednature;
#DIFFICULTY:Easy;
#METER:8;
#RADARVALUES:0.289407,0.329152,0.147475,0.488998,0.003881,261,242,19,63,0,0,0,0,0,0.289407,0.329152,0.147475,0.488998,0.003881,261,242,19,63,0,0,0,0,0;
#CHARTNAME:;
#CHARTSTYLE:;
#CREDIT:Ben Speirs vs. forcednature;
#NOTES:
00000000
00000000
00000000
00000000
,
00000000
00000000
00000000
00000000
,
00000000
00000000
00000000
00000000
,
00000000
00000000
00000000
00000000
,
00000000
00000000
00000000
00000000
,
00001000
00001000
00010000
00010000
,
00001000
00100000
00010000
00000000
,
10000000
10000000
00100000
00100000
,
01000000
00001000
00010000
00000000
,
00010000
00010000
00001000
00001000
,
00010000
00000100
00000010
00000000
,
00000010
00000010
00000001
00001000
,
00002002
00000000
00000000
00003003
,
00000001
00000100
00000010
00000100
,
00001000
00000100
00000010
00001000
,
00000100
00000100
00010000
00010000
,
00001000
00100000
00010000
00000000
,
10000000
00100000
01000000
00100000
,
00010000
00100000
01000000
00100000
,
10000000
10000000
01000000
00100000
,
00002000
00003000
00020000
00030000
,
00022000
00033000
00010000
00000100
,
00000020
00000030
00000001
00000100
,
00000020
00000030
00001000
00000001
,
00001000
00001000
00000100
00010000
,
00002000
00003000
00100000
00100000
,
00020000
00030000
10000000
10000000
,
00200000
00300000
01000000
00010000
,
20000000
30000000
00020000
00030000
,
10000000
00000000
00000000
10000000
00000000
00000000
01000000
00000000
,
00100000
00000000
00000000
00100000
00000000
00000000
00001000
00000000
,
00010000
00010000
00000010
00000010
,
00001000
00000100
00000010
00000000
,
00000001
00000000
00000000
00000001
00000000
00000000
00001000
00000000
,
00000010
00000000
00000000
00000010
00000000
00000000
00001000
00000000
,
00000200
00000300
00020000
00030000
,
00001000
01000000
00100000
00000000
,
10010000
00000000
00000000
10000000
00000000
00000000
01000000
00000000
,
00100000
00000000
00000000
00100000
00000000
00000000
00010000
00000000
,
02000000
03001000
00020000
00030100
,
00002000
00003010
00000200
00000301
,
00001001
00000000
00000000
00000001
00000000
00000000
00000010
00000000
,
00000100
00000000
00000000
00000100
00000000
00000000
00001000
00000000
,
00000020
00010030
00002000
00103000
,
00020000
01030000
00200000
10300000
,
10010000
00000000
00000000
10010000
00000000
00000000
00000000
00000000
,
00011000
00000000
00000000
00011000
00000000
00000000
00000000
00000000
,
00001001
00000000
00000000
00001001
00000000
00000000
00000000
00000000
,
00011000
00000000
00000000
00011000
00000000
00000000
00000000
00000000
,
20020000
30030000
00010000
10000000
,
00100000
01000000
00010000
00100000
,
00002000
00013000
00002000
00013000
,
00002000
00013000
00001000
00000000
,
00022000
00033000
00010000
00000100
,
00000010
00000001
00001000
00000010
,
00000200
00000310
00000200
00000310
,
00000200
00000310
00000200
00000300
,
00000001
00000000
00000010
00000000
00000100
00000000
00000000
00010000
,
00000000
00001000
00000000
00020000
00000000
00000000
00030000
00000000
,
00022000
00000000
00000000
00000000
,
00000000
00000000
00000000
00000000
,
00033000
00000000
00000000
00000000
,
00000000
00000000
00000000
00000000
,
00011000
00001000
00100000
00010000
,
10000000
00100000
01000000
00010000
,
20000000
31000000
00020000
01030000
,
20000000
30100000
00020000
00130000
,
20020000
30030000
10000000
00100000
,
01000000
00001000
00010000
00000100
,
00002000
00003010
00000002
00000013
,
00002000
00003010
00000002
00000013
,
00002002
00003003
00001000
00000010
,
00010000
00001000
00100000
00010000
,
02000000
03001000
00020000
00031000
,
00200000
00301000
00020000
00031000
,
01000000
01000000
00100000
10000000
,
01000000
01000000
00100000
00010000
,
02000000
03002000
00023000
00030200
,
00000320
00000032
00002003
00003020
,
00000030
00000000
00000100
00000000
00000100
00000000
00000000
00000010
,
00000000
00001000
00000000
00000001
00000000
00000000
00000000
00000000
,
00002002
00000000
00000000
00000000
,
00000000
00000000
00000000
00000000
,
00000000
00000000
00000000
00000000
,
00000000
00000000
00000000
00000000
00000000
00000000
00000000
00000000
00000000
00000000
00000000
00000000
00000000
00003003
00000000
00000000
;

//--------------- dance-double - Ben Speirs vs. forcednature ----------------
#NOTEDATA:;
#STEPSTYPE:dance-double;
#DESCRIPTION:Ben Speirs vs. forcednature;
#DIFFICULTY:Medium;
#METER:13;
#RADARVALUES:0.569943,0.625388,0.232856,0.310475,0.228975,514,484,30,40,0,0,0,0,0,0.569943,0.625388,0.232856,0.310475,0.228975,514,484,30,40,0,0,0,0,0;
#CHARTNAME:;
#CHARTSTYLE:;
#CREDIT:Ben Speirs vs. forcednature;
#NOTES:
00000000
00000000
00000000
00000000
,
00000000
00000000
00000000
00000000
,
00000000
00000000
00000000
00000000
,
00000000
00000000
00000000
00000000
,
00000000
00000000
00000000
00000000
,
00011000
00000000
00001000
00000000
00100000
00000000
00010000
00100000
,
00010000
00000000
10000000
00000000
00100000
00000000
01000000
00100000
,
01000000
00000000
00010000
00000000
00100000
00000000
00001000
00010000
,
00001000
00000000
00010000
00000000
00000010
00001000
00000100
00000010
,
00000001
00001000
00000000
00000001
00000000
00000100
00000010
00000100
,
00000000
00000001
00000000
00001000
00000000
00000010
00010000
00000010
,
00000000
00010000
00000000
00001000
00000000
00100000
00001000
00100000
,
02000000
00000000
00000000
03000000
,
10000000
01000000
00010000
01000000
00100000
00010000
02000000
00000000
,
03001000
00010000
00100000
00001000
00100000
00010000
00001000
00001000
,
00010000
00000100
00000010
00000100
00001000
00000010
00000100
00000001
,
00000010
00000000
00000011
00000000
00000001
00001000
00000001
00001000
,
00000001
00000010
00001000
00000010
00000100
00001000
00000020
00000000
,
00010030
00001000
00000100
00010000
00000100
00001000
00020000
00000000
,
00031000
00100000
01000000
00100000
00010000
00010000
10000000
10000000
,
00200000
00010000
20300000
30010000
,
10000000
00000000
00000000
10000000
00000000
00000000
01000000
00000000
00000000
01000000
00000000
00000000
00200000
00000000
00000000
00000000
,
00301000
00000000
00000000
00001000
00000000
00000000
00010000
00000000
00000000
00010000
00000000
00000000
00000010
00000000
00001000
00000000
,
00000200
00000000
00000301
00000100
00001000
00000010
00000100
00000001
,
00000010
00000000
00000010
00000000
00000001
00001000
00000001
00001000
,
00000001
00000000
00000000
00000001
00000000
00000000
00000100
00000000
00000000
00000100
00000000
00000000
00000020
00000000
00000000
00000000
,
00010030
00000000
00000000
00010000
00000000
00000000
00001000
00000000
00000000
00001000
00000000
00000000
00100000
00000000
00010000
00000000
,
01000000
00000000
00000000
00100000
01000000
00000000
00000000
00100000
01000000
00000000
00010000
00000000
00100000
00000000
01000000
00000000
,
20000000
30010000
01100000
10010000
,
10000000
01000000
10000000
00200000
00000000
01300000
00020000
00000000
,
10030000
01000000
00010000
00002000
00000000
00010000
00013000
00000000
,
00001000
00000000
00000000
00100000
00000000
00000000
00001000
00000000
00010000
00000000
00000000
00000010
00000000
00000000
00010000
00000000
,
00001000
00000000
00000000
01000000
00000000
00000000
00001000
00000000
00010000
00000000
00000100
00000000
00000010
00000000
00000010
00000000
,
00000001
00000100
00000001
00000020
00000000
00000130
00002000
00000000
,
00003001
00000100
00001000
00020000
00000000
00001000
00031000
00000000
,
00011000
00000000
00000000
00010000
00000010
00000000
00000000
00000000
00011000
00000000
00000000
00001000
00100000
00000000
00000000
00000000
,
00021000
00000000
00130000
01000000
00010000
10000000
00010000
00000000
,
10000000
01000000
10000000
00010000
01000000
00010000
00200000
00000000
,
10300000
00100000
00010000
01000000
00100000
00010000
00002000
00000000
,
00103000
00000000
00000000
00201000
00000000
00000000
00301000
00000000
00010000
00000000
00000000
00012000
00000000
00000000
00013000
00000000
,
00000010
00000000
00000000
00001020
00000000
00000000
00010030
00000000
00001000
00000000
00000010
00000000
00000100
00000000
00001000
00000000
,
00000001
00000100
00000001
00001000
00000100
00001000
00000020
00000000
,
00000031
00000010
00001000
00000100
00000010
00001000
00010000
00000000
,
00011000
00000000
00000000
00100000
00010000
00000000
00100000
00000000
00001000
00000000
00001000
00000000
00010000
00000000
00000000
00000000
,
00011000
00000000
00000000
00000010
00001000
00000000
00000010
00000000
00010000
00000000
00010000
00000000
00001000
00000000
00000000
00000000
,
00101000
00100000
00010000
01000000
00001000
00010000
00000000
00000000
,
00010010
00000010
00001000
00000100
00010000
00001000
00010000
00000000
,
00011000
00000000
00001000
00000000
00100000
00000000
00010000
00000000
01000000
00000000
00100000
00000000
10000000
00010000
00000000
00010000
,
10000000
01000000
00100000
00010000
00001000
00000100
00000020
00000000
,
00000031
00000000
00000000
00000001
00000100
00000000
00000000
00000100
00000010
00000000
00000000
00000010
00001000
00000000
00000100
00000000
,
00000010
00000000
00000000
00000010
00001000
00000000
00000000
00001000
00000010
00000000
00000000
00000010
00000001
00000000
00001000
00000000
,
00000010
00000000
00000000
00001010
00000000
00000000
00000010
00000000
00010000
00000000
00000000
00010100
00000000
00000000
00010000
00000000
,
00001000
00000000
00000000
00011000
00000000
00000000
00001000
00000000
00100000
00000000
00010000
00000000
10000000
00000000
00010000
00000000
,
10000000
00000000
00000000
10000000
01000000
00000000
00000000
01000000
00100000
00000000
00000000
00100000
00010000
00000000
01000000
00000000
,
00100000
00000000
00000000
00100000
00010000
00000000
00000000
00010000
00100000
00000000
00000000
00100000
10000000
00000000
00010000
00000000
,
00200000
00000000
10300000
00100000
00010000
01000000
00100000
00010000
,
00002000
00000000
00013000
00000100
00000010
00000010
00000001
00001000
,
00000001
00000100
00000201
00000000
00001300
00001000
00010000
00200000
,
00000000
01300000
00000000
20020000
00000000
00000000
30030000
00000000
,
21000000
00000000
00000000
00000000
00010000
00000000
00000000
00100000
,
00100000
00100000
00100000
00000000
,
30020000
00000000
00000000
00000000
10000000
00000000
00000000
00100000
,
00100000
00100000
00130000
00000000
,
00110000
00010000
10000000
00100000
01000000
10000000
01000000
00100000
,
10000000
01000000
00010000
01000000
00100000
00010000
10000000
00100000
,
01000000
00000000
00000000
01000000
00010000
00000000
00100000
00000000
00001000
00000000
00000000
00001000
00010000
00000000
00000100
00000000
,
00000010
00000000
00000000
00000010
00000001
00000000
00001000
00000000
00000010
00000000
00000100
00000000
00000001
00000000
00001000
00000000
,
00000010
00001000
00000001
00000010
00000100
00000001
00000100
00000010
,
00000001
00000100
00001000
00000100
00000010
00001000
00000001
00000010
,
00000200
00000000
00000301
00000100
00001000
00000010
00000100
00001000
,
00020000
00000000
00031000
00010000
00100000
10000000
01000000
00000000
,
10010000
00000000
00000000
10000000
01000000
00000000
00000000
00100000
00010000
00000000
00000000
10000000
00100000
00000000
01000000
00000000
,
00010000
00000000
00000000
00100000
00001000
00000000
00000000
00010000
00000100
00000000
00000000
00001000
00000010
00000000
00000100
00000000
,
00000001
00000000
00001000
00000100
00000000
00000000
00000010
00000000
00000010
00000000
00000001
00000100
00000000
00000000
00000010
00000000
,
00000010
00000000
00001000
00000100
00000000
00000000
00000010
00000000
00000010
00000000
00000001
00000000
00001000
00000000
00000001
00000000
,
00000100
00000000
00000000
00000110
00000000
00000000
00000010
00000000
00000000
00000110
00000000
00000000
00001000
00000000
00000100
00000000
,
00010000
00000000
00000000
00011000
00000000
00000000
00001000
00000000
00000000
00011000
00000000
00000000
00100000
00000000
00010000
00000000
,
10000000
00000000
00000000
00010000
01000000
00000000
00000000
00001000
00010000
00000000
00000000
00000100
00001000
00000000
00000000
00000001
,
00000100
00000010
00001000
00000100
00010000
00001000
00100000
00010000
,
10000000
01000000
12000000
00000000
03010000
00010000
00001000
00000020
,
00000000
00000130
00000000
00002002
00000000
00000000
00003003
00000000
,
00000220
00000000
00000000
00000000
,
00000000
00000000
00000000
00000000
,
00000000
00000000
00000000
00000000
,
00000000
00000000
00000000
00000000
00000000
00000000
00000000
00000000
00000000
00000000
00000000
00000000
00000000
00000330
00000000
00000000
;

//--------------- dance-double - Ben Speirs vs. forcednature ----------------
#NOTEDATA:;
#STEPSTYPE:dance-double;
#DESCRIPTION:Ben Speirs vs. forcednature;
#DIFFICULTY:Hard;
#METER:17;
#RADARVALUES:0.824975,0.95454,0.085381,0.318237,0.79171,744,733,11,41,0,0,0,0,0,0.824975,0.95454,0.085381,0.318237,0.79171,744,733,11,41,0,0,0,0,0;
#CHARTNAME:;
#CHARTSTYLE:;
#CREDIT:Ben Speirs vs. forcednature;
#NOTES:
00000000
00000000
00000000
00000000
,
00000000
00000000
00000000
00000000
,
00000000
00000000
00000000
00000000
,
00000000
00000000
00000000
00000000
,
00000000
00000000
00000000
00000000
,
00011000
00000000
00001000
00000000
00000010
00000000
00000001
00000010
,
00000100
00000000
00001000
00000000
00000001
00000000
00000100
00001000
,
00010000
00000000
00100000
00000000
10000000
00000000
01000000
00010000
,
00001000
00000000
00000000
00000000
00010000
00000000
00000000
00000000
00000100
00010000
00001000
00010000
00000010
00001000
00000100
00001000
,
00000001
00000000
00000010
00000000
00000000
00000000
00000100
00000010
00000000
00000000
00000001
00000000
00000000
00000000
00000100
00000000
,
00001000
00000000
00010000
00000000
00000000
00000000
00100000
01000000
00000000
00000000
00100000
00000000
00000000
00000000
10000000
00000000
,
01000000
00000000
00010000
00000000
00000000
00000000
00001000
00010000
00000000
00000000
00001000
00000000
00000010
00000000
00000010
00000000
,
00000002
00000000
00000000
00000000
00000000
00000000
00000000
00000103
,
00000010
00001000
00000100
00010000
00000010
00001000
00000001
00000100
,
00001000
00010000
00000000
00001000
00010000
00000000
00100000
10000000
00000000
00100000
10000000
00000000
01000000
00000000
01000000
00000000
,
00100000
00010000
01000000
00001000
00100000
00010000
10000000
01000000
,
00010000
00000000
00001000
00000000
00100000
00000000
00001000
00000000
00010000
00001000
00100000
00001000
01000000
00010000
00100000
00010000
,
01000000
00000000
00100000
10000000
00100000
00000000
01000000
00010000
01000000
00000000
00001000
00010000
00001000
00000000
00010000
00000100
,
00010000
00001000
00000010
00000100
00001000
00000001
00000100
00001000
,
00010000
00000000
00100000
01000000
00100000
00000000
00010000
00000000
00001000
00000000
00001000
00000000
00010000
00000000
00010000
00000000
,
00011000
00000000
00001000
00000000
00000010
00000000
00000000
00000000
00000110
00000000
00000000
00000000
00000100
00000000
00001000
00000001
,
00001000
00000000
00000001
00000100
00000000
00000100
00001000
00000000
00010000
00001000
00010000
00000000
00100000
00000000
10000000
00000000
,
00010000
00000000
10000000
01000000
00000000
01000000
00010000
00000000
00001000
00010000
00001000
00000000
00000010
00000000
00000001
00000000
,
00000200
00000000
00000000
00002300
00000000
00000000
00023000
00000000
00001000
00000000
00001000
00000000
00001000
00000000
00031000
00000000
,
00010000
00000000
00000000
00000000
00000010
00000000
00000000
00000000
00001000
00000100
00001000
00000010
00010000
00001000
00100000
00001000
,
00010000
00000000
00001000
00010000
00000100
00000000
00001000
00000000
00000001
00000100
00000010
00000000
00001000
00000000
00000100
00000000
,
00010000
00000000
00001000
01000000
00010000
00000000
10000000
00000000
01000000
00100000
00010000
00000000
10000000
00000000
00100000
00000000
,
01100000
00000000
00000000
01000000
10000000
00000000
00000000
01000000
00010000
00000000
00010000
00000000
00100000
00000000
00001000
00000000
,
00011000
00000000
00010000
00000000
00000100
00000000
00000000
00000000
00000110
00000000
00000000
00000000
00000010
00000000
00000001
00001000
,
00000002
00000100
00000103
00002000
00010000
00013000
00200000
00000000
,
20300000
00000000
01000000
00000000
31000000
00000000
00020000
00000000
00001000
00000000
00031000
00000000
00000010
00000000
00000100
00001000
,
00000010
00000000
00010000
00001000
00000000
01000000
00010000
01000000
00010000
00000000
00010000
10000000
00000000
00100000
01000000
00010000
,
00100000
00000000
00001000
00010000
00000000
00000100
00001000
00000100
00001000
00000001
00001000
00000010
00000100
00000001
00000100
00000010
,
00002000
00000100
00003100
00001000
00000002
00000100
00000203
00001000
,
00002300
00000000
00010000
00000000
00013000
00000000
00200000
00000000
10000000
00000000
10300000
00010000
01000000
00100000
10000000
00010000
,
10000000
00000000
01000000
00100000
01000000
00000000
10000000
01000000
00010000
00000000
00001000
00000000
00001000
00000000
00010000
00001000
,
00000020
00000000
00000000
00000000
00000130
00000000
00000100
00000000
00001000
00000000
00000001
00000000
00000100
00000000
00000010
00001000
,
00000002
00000100
00000103
00002000
00010000
00013000
00200000
00000000
,
20300000
00000000
01000000
00000000
31000000
00000000
00020000
00000000
00001000
00000000
00031000
00000000
00000010
00000000
00000100
00001000
,
00000010
00000000
00010000
00001000
01000000
00010000
01000000
00010000
10000000
00000000
01000000
00100000
00001000
00010000
00001000
00010000
,
00000100
00000000
00001000
00000010
00000100
00000000
00000001
00000000
00000010
00000000
00000010
00000000
00000100
00010000
00001000
00010000
,
00000020
00000100
00000130
00002000
00010000
00013000
00100000
10000000
,
02000000
00000000
00100000
00000000
03100000
00000000
00002000
00000000
00010000
00000000
00013000
00000100
00001000
00000010
00001000
00000010
,
00000100
00000000
00000001
00000010
00000100
00000010
00000001
00000000
00000100
00000000
00000010
00010000
00001000
00000000
00010000
00100000
,
02000000
00000000
00000000
00000000
03100000
00000000
10000000
00010000
10000000
00000000
01000000
00000000
00100000
00010000
10000000
00010000
,
01000000
00000000
00001000
00010000
00001000
00000000
00000010
00000000
00001000
00010000
00001000
00000000
01000000
00000000
00010000
00100000
,
01000000
00000000
00010000
00001000
00010000
00000000
00000010
00000000
00010000
00001000
00010000
00000000
00000100
00001000
00000001
00001000
,
00000100
00000000
00010000
00001000
00010000
00000000
00100000
00000000
00010000
00001000
00010000
00000000
00000010
00000100
00000000
00000010
,
00000100
00000000
00001000
00010000
00001000
00000000
00100000
00000000
00001000
00010000
00001000
00000000
02000000
00000000
00000000
00000000
,
03100000
00000000
10000000
01000000
00010000
00000000
00001000
00010000
00001000
00000000
00010000
00001000
00000010
00000000
00000001
00000010
,
00000100
00000000
00001000
00000001
00000100
00000000
00001000
00010000
00001000
00000000
00010000
00100000
10000000
00000000
00100000
01000000
,
00010000
00000000
00100000
00001000
01000000
00010000
01000000
00010000
00100000
00000000
00001000
00010000
00000010
00001000
00000010
00001000
,
00000100
00000000
00000010
00000001
00000100
00000000
00000010
00001000
00000100
00000000
00000100
00000000
00010000
00001000
00010000
00001000
,
00100000
00000000
01000000
10000000
01000000
00000000
00010000
00001000
00010000
00000000
00100000
10000000
00100000
00000000
00010000
00000000
,
00001000
00000000
00000100
00000001
00000100
00000000
00001000
00010000
00001000
00000000
00000010
00000001
00000010
00000100
00001000
00000100
,
00000010
00000000
00000001
00000100
00000010
00000000
00001000
00000100
00000010
00000000
00000010
00000000
00001000
00000000
00010000
00000000
,
02000000
00000000
00000000
00000000
03100000
00000000
01000000
10000000
00010000
00000000
00010000
00000000
01000000
00001000
00010000
00001000
,
01000000
00000000
00010000
00000000
10000000
00100000
00010000
00100000
10000000
00000000
01000000
00000000
00010000
00000000
00001000
00000000
,
00000010
00000100
00000000
00000100
00000010
00000000
00002001
00000000
00000000
00000000
00000010
00000000
00003010
00000000
00000000
00000000
,
00020100
00000000
00000000
00000000
00001000
00000000
00000000
01000000
,
01000000
00000000
01000000
00000000
00031000
00010000
01000000
10000000
,
00200000
00000000
01000000
00000000
00010000
00000000
00001000
00001000
,
00001000
00010000
02000000
03300000
,
00100000
10000000
00000000
00100000
10000000
00000000
01000000
00000000
00010000
00001000
00010000
00000000
00001000
00000000
00000010
00000000
,
00000001
00000100
00000000
00000001
00000100
00000000
00000010
00000000
00001000
00000100
00000001
00000000
00000100
00000000
00001000
00000100
,
00001000
00000000
00000010
00010000
00001000
01000000
00010000
01000000
00001000
00000000
00100000
00001000
00010000
00000100
00001000
00000100
,
00010000
00000000
00000010
00001000
00000100
00000000
00000010
00000000
00000001
00000100
00000010
00001000
00000001
00000010
00000100
00010000
,
00002000
00000000
00100000
00000000
00103000
00000000
00010000
00000000
10000000
00100000
00000000
00100000
01000000
00000000
00010000
00000000
,
20000000
00000000
01000000
00000000
31000000
00000000
00010000
00000000
00001000
00010000
00000000
00010000
00000010
00001000
00000001
00001000
,
00000010
00000000
00000100
00000001
00000010
00000000
00000100
00001000
00000010
00000000
00000010
00000000
00000100
00000000
00001000
00000000
,
00021000
00000000
00000000
00000000
00130000
00000000
10000000
00100000
10000000
00000000
01000000
00000000
00100000
01000000
10000000
00010000
,
00200000
00000000
00301000
00010000
00001000
00000000
02000000
00000000
03001000
00010000
00001000
00000000
00000010
00000100
00000000
00001000
,
00000020
00000000
00010030
00001000
00010000
00000000
00000200
00000000
00010300
00001000
00010000
00000000
00100000
01000000
00100000
01000000
,
00010000
00000000
00100000
00001000
00010000
00000100
00001000
00000100
00010000
00000000
00000010
00010000
00001000
01000000
00010000
01000000
,
00001000
00000000
00100000
00001000
00010000
00000100
00001000
00000100
00010000
00000000
00010000
00000000
00000010
00001000
00000001
00000100
,
00000010
00000000
00000001
00000010
00000000
00000010
00001000
00000000
00010000
01000000
00000000
01000000
10000000
00000000
01000000
00010000
,
00100000
00000000
10000000
00100000
00000000
00100000
00010000
00000000
00001000
00000100
00000010
00000100
00001000
00000001
00000100
00000001
,
00000010
00000000
00000100
00010000
00001000
00000000
01000000
00001000
00010000
00000000
00000010
00010000
00001000
00000000
00100000
00010000
,
10000000
00100000
10000000
00010000
00100000
00010000
10000000
00100000
01000000
00010000
00100000
00001000
00010000
00000010
00001000
00000100
,
00000010
00000000
00000010
00000000
00000001
00000010
00001000
00000010
00000001
00000000
00000100
00000000
00001000
00000000
00010000
00000000
,
00100000
01000000
00000000
01000000
00100000
00000000
10020000
00000000
00000000
00000000
00100000
00000000
00130000
00000000
00000000
00000000
,
02002000
00000000
00000000
00000000
,
00000000
00000000
00000000
00000000
,
00000000
00000000
00000000
00000000
,
00000000
00000000
00000000
00000000
00000000
00000000
00000000
00000000
00000000
00000000
00000000
00000000
00000000
03003000
00000000
00000000
;
