#VERSION:0.83;
#TITLE:Conquistador;
#SUBTITLE:;
#ARTIST:Thomas Howard Lichtenstein;
#TITLETRANSLIT:;
#SUBTITLETRANSLIT:;
#ARTISTTRANSLIT:;
#GENRE:;
#CREDIT:;
#MUSIC:Conquistador.ogg;
#BANNER:Conquistador.png;
#BACKGROUND:Conquistador-bg.png;
#CDTITLE:./CDTitles/GITADORA EXCHAIN.png;
#SAMPLESTART:40.165;
#SAMPLELENGTH:15.000;
#SELECTABLE:YES;
#OFFSET:1.085;
#BPMS:0.000=150.000;
#STOPS:;
#TIMESIGNATURES:0.000=4=4;
#BGCHANGES:0.000=../BGAs/17te.mp4=1.000=0=0=0=StretchNoLoop====,
99999.000=-nosongbg-=1.000=0=0=0=StretchNoLoop====
;
#FGCHANGES:;

//--------------- dance-single - forcednature ----------------
#NOTEDATA:;
#STEPSTYPE:dance-single;
#DESCRIPTION:forcednature;
#CREDIT:forcednature;
#DIFFICULTY:Beginner;
#METER:3;
#RADARVALUES:0,0,0,0,0;
#NOTES:
0000
0000
0000
0000
,
0000
0000
0000
0000
,
0000
0000
0000
0000
,
0000
0000
0000
0000
,
0000
0000
0000
0000
,
0000
0000
0000
0000
,
1000
0000
0000
0000
,
0010
0000
0000
0000
,
0100
0000
0000
0000
,
0001
0000
0000
0000
,
1000
0000
0000
0000
,
0000
0000
0000
0000
,
0100
0000
0000
0000
,
0100
0000
0000
0000
,
0010
0000
0000
0000
,
0000
0000
0000
0000
,
0001
0000
0000
0000
,
0001
0000
0000
0000
,
1000
0000
0000
0000
,
0000
0000
0000
0000
,
0010
0000
0000
0000
,
0100
0000
0000
0000
,
0001
0000
0000
0000
,
0000
0000
0000
0000
,
0010
0000
0000
0000
,
0100
0000
0000
0000
,
1000
0000
0000
0000
,
0010
0000
0000
0000
,
0100
0000
0000
0000
,
0001
0000
1000
0000
,
0001
0000
0000
0000
,
0010
0000
0000
0000
,
0100
0000
0000
0000
,
1000
0000
0001
0000
,
1000
0000
0000
0000
,
0010
0000
0000
0000
,
0100
0000
0000
0000
,
0001
0000
0000
0000
,
0010
0000
0000
0000
,
0100
0000
0000
0000
,
1000
0000
0000
0000
,
0001
0000
0001
0000
,
2002
0000
0000
0000
,
0000
0000
3003
0000
,
1000
0000
0000
0000
,
0100
0000
0100
0000
,
0010
0000
0000
0000
,
0001
0000
0001
0000
,
0100
0000
0000
0000
,
0010
0000
0010
0000
,
1000
0000
0000
0000
,
0001
0000
0000
0000
,
1000
0000
0000
1000
,
0001
0000
0000
0001
,
0010
0000
0000
0010
,
0100
0000
0010
0000
,
0001
0000
0000
0001
,
1000
0000
0000
1000
,
0010
0000
0000
0010
,
0100
0000
0010
0000
,
1000
0000
0000
0000
,
0100
0000
1000
0000
,
0010
0000
0100
0000
,
0001
0000
0000
0000
,
0010
0000
0010
0000
,
0001
0000
0001
0000
,
0100
0000
0010
0000
,
1000
0000
0001
0000
,
1001
0000
0000
0000
,
0100
0000
0000
0110
;

//--------------- dance-single - forcednature ----------------
#NOTEDATA:;
#STEPSTYPE:dance-single;
#DESCRIPTION:forcednature;
#CREDIT:forcednature;
#DIFFICULTY:Easy;
#METER:7;
#RADARVALUES:0,0,0,0,0;
#NOTES:
0000
0000
0000
0000
,
0000
0000
0000
0000
,
0000
0000
0000
0000
,
0000
0000
0000
0000
,
0000
0000
0000
0000
,
0000
0000
0000
0000
,
1000
1000
0100
0000
,
0001
0001
0100
0000
,
1000
0010
1000
0001
,
0100
0000
0000
0000
0000
0000
0000
0010
0000
0000
0010
0000
0000
0000
0000
0000
,
1001
0000
0001
0010
,
0001
0000
0100
0000
,
0110
0000
0010
1000
,
0001
0001
0010
0010
,
0100
0000
0010
0100
,
1000
0000
0001
0100
,
0001
0000
1000
0010
,
0100
0100
0001
0000
,
1001
0000
1000
0100
,
0010
0000
0100
1000
,
0001
0000
0010
0001
,
0010
0010
0100
0010
,
0001
0000
1000
0001
,
0100
0000
0010
1000
,
0001
0000
0010
0100
,
1000
0001
1001
0000
,
1000
0000
0000
1000
0000
0000
1010
0000
,
0001
0000
0000
0001
0000
0000
0011
0000
,
1000
0000
0000
1000
0000
0000
1100
0000
,
0001
0000
0000
0000
0100
0000
0000
0000
0010
0000
0000
0010
0000
0000
0000
0000
,
1000
0000
0000
0001
0000
0000
0101
0000
,
0001
0000
0000
1000
0000
0000
1100
0000
,
1000
0000
0000
0001
0000
0000
0011
0000
,
1000
0001
0100
0110
,
0001
0000
0000
0001
0010
0000
0000
0010
,
0100
0000
0000
0100
1000
0000
0000
0000
,
0001
0000
0000
0001
0100
0000
0000
0100
,
0010
0000
0000
0010
1000
0000
0000
0000
,
0001
0001
0010
0100
,
1000
1000
0010
0100
,
0001
1000
0100
0010
,
0001
0000
0000
0000
0000
0000
0000
1000
0000
0000
0000
0000
0010
0000
0000
0000
,
2002
0000
0003
3000
,
0200
0000
0000
0300
,
0220
0000
0300
0030
,
0002
0000
0003
2000
0000
3000
0010
0000
,
2002
0003
0100
3100
,
0220
0330
0022
0033
,
2002
3000
0100
0103
,
0220
0330
2020
3030
,
1000
1000
0001
0001
,
0100
0010
1001
0000
,
1000
0000
0000
0100
0000
0000
1000
0000
0000
0100
0000
0000
1000
0000
0000
0000
,
0001
0000
0000
0100
0000
0000
0001
0000
0000
0100
0000
0000
0001
0000
0000
0000
,
0010
0000
0000
0100
0000
0000
0010
0000
0000
0100
0000
0000
0010
0000
0000
0000
,
0001
0000
0000
0000
1000
0000
0000
0000
0010
0000
0000
0010
0000
0000
0000
0000
,
1000
0000
0000
0001
0000
0000
0100
0000
0000
0001
0000
0000
1000
0000
0000
0000
,
0001
0000
0000
1000
0000
0000
0100
0000
0000
1000
0000
0000
0001
0000
0000
0000
,
0010
0000
0000
0100
0000
0000
1000
0000
0000
0100
0000
0000
0010
0000
0000
0000
,
0001
1000
0010
0110
,
1001
0000
1000
0100
,
1000
0000
0001
0000
0200
0000
0000
0300
,
0010
1000
0001
0010
,
0001
1000
0001
0000
2000
0000
3000
0000
,
0100
0000
0000
0100
0000
0000
1000
0000
0020
0000
0000
0000
0030
0000
0000
0000
,
0100
0000
0000
0100
0000
0000
0001
0000
0020
0000
0000
0000
0030
0000
0000
0000
,
0001
0000
0000
0001
0000
0000
0001
0000
1000
0000
0000
1000
0000
0000
1000
0000
,
0010
0000
0010
0200
0000
0000
0301
0000
,
1001
0000
1000
1000
,
0200
0000
0000
0010
0000
0000
0310
0000
0001
2000
0000
0000
,
3000
0000
0000
0000
;

//--------------- dance-single - forcednature ----------------
#NOTEDATA:;
#STEPSTYPE:dance-single;
#DESCRIPTION:forcednature;
#CREDIT:forcednature;
#DIFFICULTY:Medium;
#METER:11;
#RADARVALUES:0,0,0,0,0;
#NOTES:
0000
0000
0000
0000
,
0000
0000
0000
0000
,
0000
0000
0000
0000
,
0000
0000
0000
0000
,
0000
0000
0000
0000
,
0000
0000
0000
0000
,
1000
0000
0000
0100
0000
0000
1000
0000
0000
0001
0000
0000
0010
0000
0000
0000
,
0001
0000
0000
0100
0000
0000
0001
0000
0000
1000
0000
0000
0010
0000
0000
0000
,
0100
0000
0000
0000
0001
0000
0000
0100
0000
0001
0000
0000
1000
0000
1000
0000
,
0010
0000
0000
0100
0000
0000
0000
0001
0000
0000
0011
0000
0000
0000
0000
0000
,
1000
0100
0010
0000
0100
1000
0010
0000
,
0100
0001
1000
0000
0100
1000
0001
0000
,
0010
0100
0010
0000
0001
0100
0010
0000
,
1000
0000
0000
0100
0000
0000
0100
0000
1000
0000
0000
0010
0000
0100
0000
0000
,
0001
0010
0100
0000
0010
0001
0100
0000
,
0010
1000
0001
0000
0010
0001
1000
0000
,
0100
0010
0001
0000
0100
0010
1000
0000
,
0100
0000
0000
1000
0000
0000
0001
0000
0100
0000
0000
0100
0000
0000
0010
0000
,
1000
0001
0010
0000
0100
1000
0001
0000
,
0100
0010
1000
0100
0010
0001
0100
0000
,
0010
1000
0001
0000
0010
0001
1000
0000
,
0100
0000
0000
0010
0000
0000
0010
0000
0001
0000
0000
1000
0000
0001
0000
0000
,
1000
0010
0100
0000
0001
0010
0100
0000
,
1000
0001
0100
0001
1000
0100
0010
0000
,
0100
0000
0000
1000
0000
0000
1000
0000
0010
0000
0000
0100
0000
0000
0010
0000
,
0100
0100
0001
0100
0002
0000
0003
0000
,
1000
0100
0000
1000
0000
0000
0001
0100
0000
0001
0000
0000
0010
0000
0000
0000
,
0001
0100
0000
0001
0000
0000
1000
0100
0000
1000
0000
0000
0010
0000
0000
0000
,
1000
0001
0000
1000
0000
0000
0010
0100
0000
0010
0000
0000
1000
0000
0000
0000
,
1001
0000
0000
0000
0001
0000
0000
0000
0101
0000
0000
0101
0000
0000
0000
0000
,
1000
0010
0000
1000
0000
0000
0001
0010
0000
0001
0000
0000
0100
0000
0000
0000
,
0001
0010
0000
0001
0000
0000
1000
0010
0000
1000
0000
0000
0100
0000
0000
0000
,
1000
0001
0000
1000
0000
0000
0100
0010
0000
0100
0000
0000
1000
0000
0000
0000
,
1001
0000
0001
0100
0010
0000
0110
0000
,
1000
0000
0000
0100
0000
0000
0100
0000
1000
0000
0000
0001
0000
0000
0001
0000
,
1000
0000
0000
0010
0000
0000
0100
0000
0002
0000
0000
1000
0003
0000
1000
0000
,
0001
0000
0000
0100
0000
0000
0100
0000
0001
0000
0000
0010
0000
0000
0010
0000
,
0001
0000
0000
0100
0000
0000
0010
0000
2000
0000
0000
0001
3000
0000
0001
0000
,
1000
0000
0000
0010
0000
0000
0100
0000
0001
0000
0000
0010
0000
0000
0100
0000
,
1000
0000
0000
0001
0000
0000
0100
0000
0002
0000
0000
1000
0003
0000
1000
0000
,
0001
0000
0000
0010
0000
0000
0100
0000
1000
0000
0000
0010
0000
0000
0100
0000
,
0001
0000
0001
0000
1000
0000
0001
1000
0000
0000
0000
0000
0010
0000
0000
0000
,
0220
0030
0301
0010
,
0220
0300
1030
0010
,
0210
0302
0010
1003
,
0010
0000
0010
0001
0000
0001
0100
0000
,
0020
0000
0000
1000
0000
0000
0130
0000
0100
0000
0100
0000
,
0002
0010
2003
0010
,
3002
0000
0000
0100
0000
0000
0013
0000
0010
0000
0010
0000
,
0002
1000
0203
0010
,
0301
0001
1000
0001
1000
0000
1100
0000
,
0001
0010
0100
1000
0020
0000
0030
0000
,
1000
0100
0000
0010
0000
0000
0001
0100
0000
0010
0000
0000
1001
0000
0000
0000
,
0001
0010
0000
0100
0000
0000
1000
0010
0000
0100
0000
0000
1001
0000
0000
0000
,
1000
0100
0000
1000
0000
0000
0001
0100
0000
0001
0000
0000
0110
0000
0000
0000
,
1001
0000
0000
0000
0100
0000
0000
0000
0110
0000
0000
0110
0000
0000
0000
0000
,
0001
0010
0000
0100
0000
0000
1000
0010
0000
0100
0000
0000
1001
0000
0000
0000
,
1000
0010
0000
0100
0000
0000
0001
0010
0000
0100
0000
0000
1001
0000
0000
0000
,
1000
0100
0000
0010
0000
0000
0001
0100
0000
0010
0000
0000
0110
0000
0000
0000
,
1001
0000
1000
0100
0110
0000
1001
0000
,
0001
0000
0000
0010
0000
0000
0010
0000
0001
0000
0000
0100
0000
0000
0100
0000
,
0010
0000
0000
1000
0000
0000
0001
0000
0010
0000
0000
0001
0000
0000
1000
0000
,
0100
0000
0000
0010
0000
0000
0010
0000
0001
0000
0000
1000
0000
0000
1000
0000
,
0010
0000
0000
0100
0000
0000
0001
0000
0010
0000
0000
0100
0000
0000
1000
0000
,
0010
0010
0100
0010
0100
0001
0100
0000
,
0001
0001
0010
0001
1000
0100
1000
0000
,
0010
0000
0000
0100
0000
0000
0001
0000
0010
0000
0000
0100
0000
0000
1000
0000
,
0001
0000
0001
0000
1000
0000
0000
0001
0200
0000
0000
0000
0310
0000
0000
0000
,
1001
0000
1000
0001
,
0100
0000
0010
0100
0000
0010
0100
0000
0010
2000
0000
0000
,
3000
0000
0000
0000
;

//--------------- dance-single - forcednature ----------------
#NOTEDATA:;
#STEPSTYPE:dance-single;
#DESCRIPTION:forcednature;
#CREDIT:forcednature;
#DIFFICULTY:Hard;
#METER:15;
#RADARVALUES:0,0,0,0,0;
#NOTES:
0000
0000
0000
0000
,
0000
0000
0000
0000
,
0000
0000
0000
0000
,
0000
0000
0000
0000
,
0000
0000
0000
0000
,
0000
0000
0000
0000
,
0001
0100
0000
0001
1000
0000
0010
0100
0000
0001
1000
0000
0020
0000
0000
0030
,
1000
0100
0000
1000
0001
0000
0010
0100
0000
1000
0001
0000
0020
0000
0000
0030
,
0001
1000
0001
1000
0001
0000
1000
0001
0000
1000
0001
0000
0100
0000
0010
0000
,
1000
0100
0010
0001
0000
0100
0000
0010
0000
1000
0010
0000
0000
0000
0000
0000
,
1000
0100
1000
0100
0010
0001
0100
0010
,
1000
0000
0100
0000
0001
0000
0100
0000
1000
0001
0000
0001
1000
0000
0000
0000
,
0001
0100
0001
0100
0010
1000
0001
0010
,
0100
0000
1000
0100
0000
1000
0010
0000
0100
0010
0100
0010
0000
0100
0001
0000
,
0010
0100
0010
0100
1000
0001
0100
0010
,
0001
0000
0010
0000
0100
0000
0001
0000
1000
0010
0000
0010
1000
0000
0000
0000
,
0001
0010
0001
0010
0100
1000
0001
0100
,
0010
0000
1000
0010
0000
1000
0001
0000
0010
0100
0010
0100
0000
1000
0100
0000
,
0010
0001
0010
0001
0100
0010
1000
0100
,
0001
0000
0100
0000
1000
0000
0001
0000
0010
0100
0000
0100
0010
0000
0000
0000
,
0001
0100
0001
0100
0010
1000
0001
0100
,
1000
0000
0100
1000
0000
0100
0010
0000
0100
0010
0100
0001
0000
0001
0000
0000
,
0010
0001
0010
0001
1000
0100
0001
0100
,
1000
0000
0010
0000
0100
0000
0001
0000
0010
0100
0000
0100
0010
0000
0000
0000
,
0001
0000
0000
1000
0000
0000
0010
0000
0100
0000
0000
0001
0000
0000
0010
0000
,
0001
1000
0001
1000
0100
1000
0001
1000
0200
0000
0000
0000
0300
0010
0100
0000
,
0010
0001
0000
0001
0100
0000
0010
1000
0000
1000
0100
0000
0110
0000
0000
0000
,
1000
0100
0000
0100
0010
0000
0001
0100
0000
0100
0010
0000
1001
0000
0000
0000
,
0001
0010
0000
0010
0100
0000
1000
0010
0000
0010
0100
0000
1001
0000
0000
0000
,
1000
0100
0000
0000
0010
0001
0000
0000
0110
0000
0000
1001
0000
0000
0000
0000
,
0001
0010
0000
0010
0100
0000
1000
0010
0000
0010
0100
0000
1001
0000
0000
0000
,
1000
0001
0000
0001
0010
0000
0001
1000
0000
1000
0010
0000
0110
0000
0000
0000
,
0001
0010
0000
0010
0100
0000
1000
0010
0000
0010
0100
0000
1001
0000
0000
0000
,
0001
0100
0000
0000
0010
1000
0000
0000
1001
0000
0000
0000
0110
0000
0000
0000
,
0001
0000
1000
0100
0000
0100
1000
0000
0001
0000
1000
0010
0000
0010
1000
0000
,
0001
0000
0010
0100
0000
0100
1000
0000
0001
0000
0100
0010
0000
1000
0010
0000
,
1000
0000
0001
0100
0000
0100
0001
0000
1000
0000
0001
0010
0000
0010
0001
0000
,
1000
0000
0010
0100
0000
0100
0001
0000
1000
0000
0100
0010
0000
0001
0010
0000
,
0100
0000
1000
0001
0000
0001
0100
0000
0010
0000
1000
0001
0000
0001
0010
0000
,
0100
0000
1000
0010
0000
0010
0100
0000
0001
0000
0010
0100
0000
1000
0001
0000
,
0100
0000
0010
0100
0000
0010
1000
0000
0100
0000
0010
0100
0000
0010
0001
0000
,
0100
0010
0100
0010
0100
0000
0010
1000
0000
0000
0000
0000
1001
0000
0000
0000
,
0012
0100
0100
1003
,
2010
0100
0100
3001
,
0021
0100
0100
0031
,
2001
0000
0000
0000
3010
0000
0210
0000
0000
0000
0301
0000
0100
0010
0100
0010
,
2000
0000
0000
0100
0000
0000
3001
0000
0001
0000
0001
0000
,
0012
1003
2100
3010
,
0210
0000
0000
0001
0000
0000
0310
0000
0010
0000
0010
0000
,
1002
0103
2010
3100
,
1000
0000
0000
0001
0000
0000
1000
0000
0000
0000
0000
0000
0001
0000
0000
0010
0000
0000
0001
0000
0000
0010
0000
0000
0100
0000
0000
0000
1000
0000
0000
0000
0100
0000
0000
0000
1000
0000
0000
0000
0010
0000
0000
0000
0100
0000
0000
0000
,
0001
1000
0001
1000
0010
1000
0001
1000
0020
0000
0000
0000
0030
0100
0010
0000
,
1000
0100
0000
0100
0001
0000
0100
1000
0000
1000
0001
0000
0011
0000
0000
0000
,
0001
0100
0000
0100
1000
0000
0100
0001
0000
0001
1000
0000
1010
0000
0000
0000
,
0001
0010
0000
0010
1000
0000
0010
0001
0000
0001
1000
0000
1100
0000
0000
0000
,
1000
0010
0000
0000
0100
0001
0000
0000
0110
0000
0000
1001
0000
0000
0000
0000
,
0001
0010
0000
0010
1000
0000
0001
0100
0000
0100
1000
0000
1100
0000
0000
0000
,
1000
0010
0000
0010
0001
0000
1000
0100
0000
0100
0001
0000
0011
0000
0000
0000
,
0001
0100
0000
0100
1000
0000
0001
0010
0000
0010
1000
0000
1010
0000
0000
0000
,
0001
0010
0000
0000
0100
0000
1000
0000
0010
0100
0000
0000
1001
0000
0000
0000
,
1000
0000
0100
1000
0000
0010
0100
0000
0001
0000
0001
0010
0000
0001
0100
0000
,
0010
0000
1000
0001
0000
1000
0100
0000
0010
0000
0001
0010
0000
0100
0010
0000
,
0100
1000
0100
1000
0100
0000
1000
0000
0010
0000
0100
0010
0000
0100
0001
0000
,
0010
0001
0010
0001
0010
0100
0010
0100
2000
0000
0000
0000
0000
0000
3000
0000
,
0001
0100
0001
0100
0010
0100
0010
0000
1000
0100
1000
0100
0010
0100
0010
0000
,
0001
1000
0001
1000
0010
0100
0001
0000
1000
0001
1000
0001
0010
0100
1000
0000
,
0001
0000
0001
0100
0000
0100
0010
0000
1000
0000
1000
0100
0000
0100
0010
0000
,
0001
1000
0001
1000
0001
0000
1000
0001
0020
0000
0000
0000
0030
0000
0000
0000
,
1001
0000
0000
0000
0000
0000
1000
0000
0000
0100
0000
0000
1000
0000
0000
1000
0000
0000
0020
0000
0000
0000
0030
0000
,
0100
0001
0010
0100
1000
0010
0100
0000
0010
2002
0000
0000
,
3003
0000
0000
0000
;

//--------------- dance-double - forcednature ----------------
#NOTEDATA:;
#STEPSTYPE:dance-double;
#DESCRIPTION:forcednature;
#CREDIT:forcednature;
#DIFFICULTY:Easy;
#METER:7;
#RADARVALUES:0,0,0,0,0;
#NOTES:
00000000
00000000
00000000
00000000
,
00000000
00000000
00000000
00000000
,
00000000
00000000
00000000
00000000
,
00000000
00000000
00000000
00000000
,
00000000
00000000
00000000
00000000
,
00000000
00000000
00000000
00000000
,
00001000
00001000
00010000
00000000
,
00010000
00010000
00001000
00000000
,
00100000
00010000
01000000
00010000
,
10000000
00000000
00000000
00000000
00000000
00000000
00000000
00100000
00000000
00000000
00100000
00000000
00000000
00000000
00000000
00000000
,
10010000
00000000
00010000
00100000
,
00001000
00000000
00010000
00000000
,
00011000
00000000
00000100
00001000
,
00000010
00000010
00000100
00000100
,
00000001
00000000
00000010
00000001
,
00001000
00000000
00000100
00001000
,
00000100
00000000
00010000
00001000
,
01000000
01000000
00010000
00000000
,
10010000
00000000
10000000
00100000
,
10000000
00000000
00010000
00100000
,
00001000
00000000
00010000
00001000
,
00010000
00010000
00000100
00001000
,
00000100
00000000
00000010
00000001
,
00001000
00000000
00000010
00001000
,
00000001
00000000
00000100
00000010
,
00001000
00001000
00000100
00000000
,
00010000
00000000
00000000
00010000
00000000
00000000
00001000
00000000
,
00100000
00000000
00000000
00100000
00000000
00000000
00010000
00000000
,
01000000
00000000
00000000
01000000
00000000
00000000
00100000
00000000
,
10000000
00000000
00000000
00000000
01000000
00000000
00000000
00000000
00100000
00000000
00000000
00100000
00000000
00000000
00000000
00000000
,
00010000
00000000
00000000
00010000
00000000
00000000
01000000
00000000
,
00001000
00000000
00000000
00001000
00000000
00000000
00010000
00000000
,
00000010
00000000
00000000
00000010
00000000
00000000
00001000
00000000
,
00000001
00000010
00000100
00000110
,
00001000
00000000
00000000
00001000
00000100
00000000
00000000
00000100
,
00010000
00000000
00000000
00010000
00001000
00000000
00000000
00000000
,
01000000
00000000
00000000
01000000
00010000
00000000
00000000
00010000
,
10000000
00000000
00000000
10000000
00100000
00000000
00000000
00000000
,
01000000
01000000
00010000
00100000
,
00001000
00001000
00010000
00000100
,
00001000
00000010
00000100
00000001
,
00000020
00000000
00000000
00000000
00000000
00000000
00000000
00000130
00000000
00000000
00000000
00000000
00000000
00000000
00000000
00000000
,
00002002
00000000
00000003
00003000
,
00000200
00000000
00000000
00000300
,
00022000
00000000
00030000
00003000
,
00200000
00000000
00300000
00020000
00000000
00030000
01000000
00000000
,
20020000
00030000
00100000
30100000
,
02200000
03300000
02020000
03030000
,
00220000
00030000
00001000
00301000
,
00022000
00033000
00020200
00030300
,
00000100
00000100
00001000
00000010
,
00000100
00000001
00001001
00000000
,
00001000
00000000
00000000
00000100
00000000
00000000
00001000
00000000
00000000
00000100
00000000
00000000
00010000
00000000
00000000
00000000
,
00001000
00000000
00000000
00010000
00000000
00000000
00001000
00000000
00000000
00010000
00000000
00000000
00000010
00000000
00000000
00000000
,
00001000
00000000
00000000
00000001
00000000
00000000
00001000
00000000
00000000
00000001
00000000
00000000
00000100
00000000
00000000
00000000
,
00001000
00000000
00000000
00000000
00010000
00000000
00000000
00000000
00100000
00000000
00000000
00100000
00000000
00000000
00000000
00000000
,
01000000
00000000
00000000
00010000
00000000
00000000
01000000
00000000
00000000
00010000
00000000
00000000
10000000
00000000
00000000
00000000
,
01000000
00000000
00000000
00100000
00000000
00000000
01000000
00000000
00000000
00100000
00000000
00000000
00010000
00000000
00000000
00000000
,
01000000
00000000
00000000
00001000
00000000
00000000
01000000
00000000
00000000
00001000
00000000
00000000
00010000
00000000
00000000
00000000
,
00000100
00001000
00000010
00000110
,
00001001
00000000
00001000
00000100
,
00010000
00000000
00001000
00000000
00200000
00000000
00000000
00300000
,
00010000
01000000
00010000
10000000
,
00100000
01000000
00100000
00000000
20000000
00000000
30000000
00000000
,
01000000
00000000
00000000
01000000
00000000
00000000
10000000
00000000
00200000
00000000
00000000
00000000
00300000
00000000
00000000
00000000
,
01000000
00000000
00000000
01000000
00000000
00000000
00010000
00000000
00200000
00000000
00000000
00000000
00300000
00000000
00000000
00000000
,
00001000
00000000
00000000
00001000
00000000
00000000
00001000
00000000
00010000
00000000
00000000
00010000
00000000
00000000
00010000
00000000
,
00000100
00000000
00000100
00002000
00000000
00000000
00003010
00000000
,
00000110
00000000
00000001
00000001
,
00000200
00000000
00000000
00000010
00000000
00000000
00000310
00000000
00001000
00000002
00000000
00000000
,
00000003
00000000
00000000
00000000
;

//--------------- dance-double - forcednature ----------------
#NOTEDATA:;
#STEPSTYPE:dance-double;
#DESCRIPTION:forcednature;
#CREDIT:forcednature;
#DIFFICULTY:Medium;
#METER:11;
#RADARVALUES:0,0,0,0,0;
#NOTES:
00000000
00000000
00000000
00000000
,
00000000
00000000
00000000
00000000
,
00000000
00000000
00000000
00000000
,
00000000
00000000
00000000
00000000
,
00000000
00000000
00000000
00000000
,
00000000
00000000
00000000
00000000
,
00001000
00000000
00000000
00010000
00000000
00000000
00000100
00000000
00000000
00001000
00000000
00000000
00000010
00000000
00000000
00000000
,
00010000
00000000
00000000
00001000
00000000
00000000
01000000
00000000
00000000
00010000
00000000
00000000
00100000
00000000
00000000
00000000
,
01000000
00000000
00000000
00000000
10000000
00000000
00000000
00010000
00000000
10000000
00000000
00000000
00100000
00000000
00100000
00000000
,
00010000
00000000
00000000
00001000
00000000
00000000
00000000
00011000
00000000
00000000
00011000
00000000
00000000
00000000
00000000
00000000
,
00000010
00001000
00000100
00000000
00000010
00000001
00000100
00000000
,
00001000
00010000
00100000
00000000
00010000
00001000
00000010
00000000
,
00001000
00010000
00001000
00000000
00100000
00010000
00100000
00000000
,
01000000
00000000
00000000
10000000
00000000
00000000
10000000
00000000
00100000
00000000
00000000
01000000
00000000
01000000
00000000
00000000
,
00010000
00100000
00001000
00000000
00010000
00000010
00001000
00000000
,
00000100
00000010
00000001
00000000
00000100
00000010
00001000
00000000
,
00000100
00010000
00001000
00000000
01000000
00001000
00010000
00000000
,
00100000
00000000
00000000
10000000
00000000
00000000
00010000
00000000
00100000
00000000
00000000
00100000
00000000
00000000
01000000
00000000
,
10000000
00010000
01000000
00000000
00001000
00010000
00000010
00000000
,
00001000
00000100
00000010
00000000
00000001
00000100
00000010
00000000
,
00001000
00000100
00010000
00000000
00001000
01000000
00010000
00000000
,
00100000
00000000
00000000
01000000
00000000
00000000
01000000
00000000
10000000
00000000
00000000
00010000
00000000
10000000
00000000
00000000
,
00010000
00100000
00001000
00000000
00010000
00000010
00001000
00000000
,
00000100
00000010
00000001
00000000
00000100
00000010
00001000
00000000
,
00000100
00000000
00000000
00010000
00000000
00000000
00001000
00000000
00100000
00000000
00000000
00001000
00000000
00000000
00010000
00000000
,
00000010
00001000
00000010
00001000
00000002
00000000
00000003
00000000
,
00000100
00000000
00000000
00001000
00000000
00000000
00010000
00000000
00000000
00100000
00000000
00000000
10000000
00000000
00000000
00000000
,
01000000
00000000
00000000
00010000
00000000
00000000
00001000
00000000
00000000
00000010
00000000
00000000
00000001
00000000
00000000
00000000
,
00000100
00000000
00000000
00001000
00000000
00000000
00010000
00000000
00000000
01000000
00000000
00000000
10000000
00000000
00000000
00000000
,
10010000
00000000
00000000
00000000
00010000
00000000
00000000
00000000
00110000
00000000
00000000
00110000
00000000
00000000
00000000
00000000
,
10000000
00000000
00000000
00100000
00000000
00000000
00010000
00000000
00000000
00001000
00000000
00000000
00000100
00000000
00000000
00000000
,
00000001
00000000
00000000
00000010
00000000
00000000
00001000
00000000
00000000
00010000
00000000
00000000
01000000
00000000
00000000
00000000
,
00010000
00000000
00000000
00001000
00000000
00000000
00010000
00000000
00000000
00100000
00000000
00000000
10000000
00000000
00000000
00000000
,
10010000
00000000
00010000
00100000
00001000
00000000
00011000
00000000
,
00000100
00000000
00000000
00001000
00000000
00000000
00001000
00000000
00000010
00000000
00000000
00000100
00000000
00000000
00000100
00000000
,
00000001
00000000
00000000
00000010
00000000
00000000
00001000
00000000
00010000
00000000
00000000
00100000
00000000
00000000
10000000
00000000
,
00010000
00000000
00000000
01000000
00000000
00000000
01000000
00000000
00100000
00000000
00000000
10000000
00000000
00000000
10000000
00000000
,
01000000
00000000
00000000
00010000
00000000
00000000
00001000
00000000
00000100
00000000
00000000
00001000
00000000
00000000
00010000
00000000
,
00100000
00000000
00000000
01000000
00000000
00000000
00100000
00000000
10000000
00000000
00000000
00010000
00000000
00000000
10000000
00000000
,
01000000
00000000
00000000
00010000
00000000
00000000
00001000
00000000
00000100
00000000
00000000
00001000
00000000
00000000
00010000
00000000
,
00001000
00000000
00000000
00000010
00000000
00000000
00000001
00000000
00000100
00000000
00000000
00000001
00000000
00000000
00000010
00000000
,
00001000
00000000
00001000
00000000
00010000
00000000
00001000
00010000
00000000
00000000
00000000
00000000
00100000
00000000
00000000
00000000
,
02200000
00300000
03010000
00100000
,
00202000
00003000
00310000
01000000
,
00021000
00030200
00001000
00000310
,
00000001
00000000
00000001
00001000
00000000
00001000
00000100
00000000
,
00020000
00000000
00000000
00001000
00000000
00000000
00130000
00000000
01000000
00000000
00100000
00000000
,
20000000
01000000
30020000
01000000
,
00230000
00000000
00000000
00010000
00000000
00000000
00301000
00000000
00010000
00000000
00001000
00000000
,
00000020
00000100
00002030
00000001
,
00003010
00000010
00000100
00000010
00000100
00000000
00001001
00000000
,
00001000
00000100
00010000
00001000
00200000
00000000
00300000
00000000
,
01000000
10000000
00000000
10000000
00000000
00000000
00010000
00100000
00000000
00100000
00000000
00000000
00001000
00000000
00000000
00000000
,
00010000
00000010
00000000
00000010
00000000
00000000
00001000
00000001
00000000
00000001
00000000
00000000
00000100
00000000
00000000
00000000
,
00000010
00001000
00000000
00001000
00000000
00000000
00000100
00010000
00000000
00010000
00000000
00000000
00001000
00000000
00000000
00000000
,
00011000
00000000
00000000
00000000
00100000
00000000
00000000
00000000
00110000
00000000
00000000
00110000
00000000
00000000
00000000
00000000
,
10000000
00100000
00000000
00100000
00000000
00000000
01000000
00010000
00000000
00010000
00000000
00000000
00100000
00000000
00000000
00000000
,
00001000
00010000
00000000
00010000
00000000
00000000
00000100
00001000
00000000
00001000
00000000
00000000
00000010
00000000
00000000
00000000
,
00000100
00000001
00000000
00000001
00000000
00000000
00000010
00000100
00000000
00000100
00000000
00000000
00010000
00000000
00000000
00000000
,
00011000
00000000
00100000
00010000
01000000
00000000
01100000
00000000
,
00100000
00000000
00000000
10000000
00000000
00000000
00100000
00000000
10000000
00000000
00000000
01000000
00000000
00000000
10000000
00000000
,
01000000
00000000
00000000
00010000
00000000
00000000
01000000
00000000
00010000
00000000
00000000
00001000
00000000
00000000
00010000
00000000
,
00001000
00000000
00000000
00000010
00000000
00000000
00001000
00000000
00000010
00000000
00000000
00000001
00000000
00000000
00000010
00000000
,
00000001
00000000
00000000
00000100
00000000
00000000
00000001
00000000
00000100
00000000
00000000
00001000
00000000
00000000
00000100
00000000
,
00001000
00010000
00001000
00010000
00100000
01000000
00100000
00000000
,
10000000
00010000
10000000
00010000
00100000
01000000
00100000
00000000
,
00001000
00000000
00000000
00010000
00000000
00000000
00000100
00000000
00001000
00000000
00000000
00000001
00000000
00000000
00000100
00000000
,
00001000
00000000
00001000
00000000
00010000
00000000
00000000
00001000
00200000
00000000
00000000
00000000
00310000
00000000
00000000
00000000
,
10010000
00000000
10000000
00010000
,
00100000
00000000
00100000
00001000
00000000
00001000
00010000
00000000
00010000
00000200
00000000
00000000
,
00000300
00000000
00000000
00000000
;

//--------------- dance-double - forcednature ----------------
#NOTEDATA:;
#STEPSTYPE:dance-double;
#DESCRIPTION:forcednature;
#CREDIT:forcednature;
#DIFFICULTY:Hard;
#METER:15;
#RADARVALUES:0,0,0,0,0;
#NOTES:
00000000
00000000
00000000
00000000
,
00000000
00000000
00000000
00000000
,
00000000
00000000
00000000
00000000
,
00000000
00000000
00000000
00000000
,
00000000
00000000
00000000
00000000
,
00000000
00000000
00000000
00000000
,
00001000
00010000
00000000
00001000
00010000
00000000
00000100
00001000
00000000
00000010
00000100
00000000
00002000
00000000
00000000
00003000
,
00010000
00001000
00000000
00010000
00001000
00000000
01000000
00010000
00000000
00100000
01000000
00000000
00020000
00000000
00000000
00030000
,
00001000
00010000
00001000
00010000
00001000
00000000
00010000
00001000
00000000
00010000
00001000
00000000
01000000
00000000
00010000
00000000
,
10000000
01000000
00100000
00010000
00000000
01000000
00000000
00001000
00000000
00010000
00001000
00000000
00000000
00000000
00000000
00000000
,
00000010
00000100
00000010
00000100
00001000
00000001
00000010
00001000
,
00010000
00000000
00100000
00000000
00010000
00000000
00001000
00000000
01000000
00010000
00000000
00010000
10000000
00000000
00000000
00000000
,
00100000
01000000
00100000
01000000
00010000
10000000
00100000
00010000
,
00001000
00000000
00010000
00001000
00000000
00010000
00000100
00000000
00001000
00000100
00001000
00000100
00000000
00001000
00000001
00000000
,
00000100
00000010
00000100
00000010
00001000
00000001
00000100
00001000
,
00010000
00000000
01000000
00000000
00010000
00000000
00001000
00000000
01000000
00010000
00000000
00010000
10000000
00000000
00000000
00000000
,
01000000
00100000
01000000
00100000
00010000
10000000
01000000
00010000
,
00001000
00000000
00010000
00001000
00000000
00010000
00000010
00000000
00001000
00000010
00001000
00000010
00000000
00001000
00000001
00000000
,
00000100
00001000
00000100
00001000
00010000
00100000
10000000
01000000
,
00010000
00000000
01000000
00000000
10000000
00000000
00100000
00000000
00010000
00001000
00000000
00001000
00010000
00000000
00000000
00000000
,
00001000
00000010
00001000
00000010
00000001
00000100
00001000
00010000
,
00100000
00000000
01000000
00100000
00000000
10000000
00100000
00000000
10000000
01000000
10000000
00010000
00000000
00010000
00000000
00000000
,
00100000
01000000
00100000
01000000
00010000
00001000
00000010
00000100
,
00001000
00000000
00000010
00000000
00000100
00000000
00000001
00000000
00000010
00000100
00000000
00000100
00000010
00000000
00000000
00000000
,
00000001
00000000
00000000
00000100
00000000
00000000
00001000
00000000
00010000
00000000
00000000
01000000
00000000
00000000
10000000
00000000
,
00100000
10000000
00010000
10000000
00100000
10000000
00010000
10000000
02000000
00000000
00000000
00000000
03000000
00100000
01000000
00000000
,
00100000
00001000
00000000
00001000
00010000
00000000
00000100
00001000
00000000
00001000
00000010
00000000
00000100
00000000
00000000
00000000
,
00000001
00000010
00000000
00000010
00000100
00000000
00010000
00001000
00000000
00001000
00100000
00000000
00010000
00000000
00000000
00000000
,
01000000
00010000
00000000
00010000
00100000
00000000
01000000
10000000
00000000
10000000
00100000
00000000
01000000
00000000
00000000
00000000
,
00010000
00100000
00000000
00000000
00001000
00010000
00000000
00000000
00011000
00000000
00000000
00010010
00000000
00000010
00001000
00000000
,
00000001
00000100
00000000
00000100
00001000
00000000
00010000
01000000
00000000
01000000
10000000
00000000
00100000
00000000
00000000
00000000
,
10000000
01000000
00000000
01000000
00010000
00000000
00001000
00000100
00000000
00000100
00000001
00000000
00000010
00000000
00000000
00000000
,
00001000
00010000
00000000
00010000
00000010
00000000
00001000
00000100
00000000
00000100
00000010
00000000
00000001
00000000
00000000
00000000
,
00000100
00001000
00000000
00000000
00010000
00000000
00001000
00000000
00011000
00000000
00000000
00000000
00101000
00000000
00000000
00000000
,
00100000
00000000
00000000
10000000
00000000
00000000
00100000
00000000
00001000
00000000
00000000
00010000
00000000
00000000
00000100
00000000
,
00000010
00000000
00000000
00000001
00000000
00000000
00000100
00000000
00000010
00000000
00000000
00001000
00000000
00000000
00000100
00000000
,
00000001
00000000
00000000
00000100
00000000
00000000
00010000
00000000
00001000
00000000
00000000
00100000
00000000
00000000
00010000
00000000
,
01000000
00000000
00000000
00100000
00000000
00000000
00001000
00000000
00010000
00000000
00000000
00000100
00000000
00000000
00000010
00000000
,
00001000
00000000
00000000
00000001
00000000
00000000
00000010
00000000
00001000
00000000
00000000
00010000
00000000
00000000
01000000
00000000
,
00100000
00000000
00000000
00001000
00000000
00000000
00010000
00000000
00100000
00000000
00000000
10000000
00000000
00000000
00010000
00000000
,
00100000
00000000
00000000
00001000
00000000
00000000
00000010
00000000
00000100
00000000
00000000
00010000
00000000
00000000
00001000
00000000
,
00000010
00000100
00000010
00000100
00000010
00000000
00000100
00010000
00000000
00000000
00000000
00000000
00000010
00000000
00000000
00000000
,
00002001
00000100
00000001
00000010
,
00023000
01000000
10000000
00100000
,
00032000
00000100
00000001
00000010
,
00013000
00000000
00000000
00010000
01000000
00000000
00100000
00000000
00000000
00100000
10000000
00000000
01000000
10000000
01000000
10000000
,
00020000
00000000
00000000
00100000
00000000
00000000
01030000
00000000
00001000
00000000
00010000
00000000
,
00021000
00030010
00002100
00003001
,
00002010
00000000
00000000
00000100
00000000
00000000
00003001
00000000
00000010
00000000
00001000
00000000
,
00021000
00030100
00102000
01003000
,
00010000
00000000
00000000
10000000
00000000
00000000
00010000
00000000
00000000
00000000
00000000
00000000
00100000
00000000
00000000
01000000
00000000
00000000
00100000
00000000
00000000
01000000
00000000
00000000
10000000
00000000
00000000
00000000
00010000
00000000
00000000
00000000
00100000
00000000
00000000
00000000
00001000
00000000
00000000
00000000
00010000
00000000
00000000
00000000
00000100
00000000
00000000
00000000
,
00001000
00000010
00001000
00000010
00000100
00000001
00001000
00000010
00000200
00000000
00000000
00000000
00000300
00000001
00001000
00000000
,
00000001
00000010
00000000
00000010
00001000
00000000
00010000
00100000
00000000
00100000
10000000
00000000
01000000
00000000
00000000
00000000
,
10000000
00100000
00000000
00100000
00010000
00000000
00001000
00000010
00000000
00000010
00000001
00000000
00000100
00000000
00000000
00000000
,
00001000
00000100
00000000
00000100
00000001
00000000
00000010
00001000
00000000
00001000
00010000
00000000
01000000
00000000
00000000
00000000
,
10000000
00100000
00000000
00000000
01000000
00010000
00000000
00000000
00110000
00000000
00000000
00101000
00000000
00001000
00010000
00000000
,
00100000
10000000
00000000
10000000
00100000
00000000
00010000
00001000
00000000
00001000
00010000
00000000
00000100
00000000
00000000
00000000
,
00000010
00000001
00000000
00000001
00000010
00000000
00001000
00010000
00000000
00010000
00001000
00000000
01000000
00000000
00000000
00000000
,
00100000
00010000
00000000
00010000
00001000
00000000
00000010
00001000
00000000
00001000
00010000
00000000
01000000
00000000
00000000
00000000
,
10000000
00100000
00000000
00000000
01000000
00000000
00010000
00000000
00100000
00001000
00000000
00000000
00011000
00000000
00000000
00000000
,
00000010
00000000
00001000
00000010
00000000
00000100
00000010
00000000
00000100
00000000
00000001
00000010
00000000
00000100
00000010
00000000
,
00000100
00000000
00010000
00001000
00000000
00100000
00001000
00000000
00100000
00000000
00010000
01000000
00000000
00100000
01000000
00000000
,
00100000
10000000
00100000
10000000
00100000
00000000
01000000
00000000
00010000
00000000
00100000
00001000
00000000
00010000
00001000
00000000
,
00010000
00000100
00010000
00000100
00001000
00000100
00001000
00000100
00000020
00000000
00000000
00000000
00000000
00000000
00000030
00000000
,
00000001
00000100
00000001
00000100
00000000
00001000
00000100
00000000
00001000
00010000
00001000
00010000
00000000
00100000
00010000
00000000
,
00100000
10000000
00100000
10000000
00000000
01000000
10000000
00000000
01000000
00010000
01000000
00010000
00000000
00001000
00010000
00000000
,
00001000
00000000
00001000
00000010
00000000
00000001
00000010
00000000
00000001
00000000
00000001
00000100
00000000
00001000
00000100
00000000
,
00001000
00010000
00001000
00010000
00001000
00000000
00010000
00001000
00200000
00000000
00000000
00000000
00300000
00000000
00000000
00000000
,
10010000
00000000
00000000
00000000
00000000
00000000
10000000
00000000
00000000
01000000
00000000
00000000
10000000
00000000
00000000
10000000
00000000
00000000
00200000
00000000
00000000
00000000
00300000
00000000
,
10000000
01000000
00010000
00001000
00000100
00000001
00000010
00000000
00000100
00002002
00000000
00000000
,
00003003
00000000
00000000
00000000
;
