#VERSION:0.83;
#TITLE:Claiomh Solais;
#SUBTITLE:;
#ARTIST:DJ Yoshitaka VS S.S.D.;
#TITLETRANSLIT:;
#SUBTITLETRANSLIT:;
#ARTISTTRANSLIT:;
#GENRE:ILUZIO;
#CREDIT:;
#MUSIC:Claiomh Solais.ogg;
#BANNER:Claiomh Solais.png;
#BACKGROUND:Claiomh Solais-bg.png;
#CDTITLE:./CDTitles/bm IIDX 21 SPADA.png;
#SAMPLESTART:86.310;
#SAMPLELENGTH:15.000;
#SELECTABLE:YES;
#OFFSET:0.956;
#BPMS:0.000=164.982
,176.000=82.493
,206.000=164.985
;
#STOPS:206.000=1.090;
#TIMESIGNATURES:0.000=4=4,
204.000=3=4,
207.000=4=4
;
#BGCHANGES:1.000=Claiomh Solais.mp4=1.000=0=0=0=StretchNoLoop====,
99999.000=-nosongbg-=1.000=0=0=0=StretchNoLoop====
;
#FGCHANGES:;

//--------------- dance-single - Princess Pamela vs. forcednature ----------------
#NOTEDATA:;
#STEPSTYPE:dance-single;
#DESCRIPTION:Princess Pamela vs. forcednature;
#CREDIT:Princess Pamela vs. forcednature;
#DIFFICULTY:Beginner;
#METER:1;
#RADARVALUES:0,0,0,0,0;
#NOTES:
0000
0000
0000
0000
,
0000
0000
0000
0000
,
0000
0000
0000
0000
,
0000
0000
0000
0000
,
0000
0000
0000
0000
,
0000
0000
0000
0000
,
0001
0000
0000
0000
,
0000
0000
0000
0000
,
1000
0000
0000
0000
,
0000
0000
0000
0000
,
0000
0000
0000
0000
,
0010
0000
0000
0000
,
1000
0000
0000
0000
,
0000
0000
0000
0000
,
0100
0000
0000
0000
,
0000
0000
0000
0000
,
1000
0000
0000
0000
,
0000
0000
0000
0000
,
0001
0000
0000
0000
,
0000
0000
0000
0000
,
0100
0000
0000
0000
,
0000
0000
0000
0000
,
0001
0000
0000
0000
,
0000
0000
0000
0000
,
1000
0000
0000
0000
,
0000
0000
0000
0000
,
0010
0000
0000
0000
,
0000
0000
0000
0000
,
0200
0000
0000
0000
,
0000
0000
0000
0000
,
0000
0000
0000
0000
,
0300
0000
0000
0000
,
0002
0000
0000
0000
,
0000
0000
0000
0000
,
0000
0000
0000
0000
,
0003
0000
0000
0000
,
1000
0000
0000
0000
,
0000
0000
0000
0000
,
1000
0000
0000
0000
,
0000
0000
0000
0000
,
0001
0000
0000
0000
,
0000
0000
0000
0000
,
0001
0000
0000
0000
,
0000
0000
0000
0000
,
2000
0000
0000
0000
,
0000
0000
3000
0000
,
0002
0000
0000
0000
,
0000
0000
0003
0000
,
0020
0000
0000
0000
,
0000
0000
0030
0000
,
0200
0000
0000
0000
,
0000
0000
0300
1000
,
0000
0000
0000
0000
,
0000
0000
0000
0001
,
0000
0000
0000
0000
,
0000
0000
0000
0100
,
0000
0000
0000
0000
,
0000
0000
0000
0001
,
0000
0000
0000
0000
,
0000
0000
0000
1000
,
0000
0000
0000
0000
,
0000
0000
0000
0100
,
0000
0000
0000
0000
,
0000
0000
0000
1000
,
0000
0000
0000
0000
,
0000
0000
0000
0010
,
0000
0000
0000
0000
,
0000
0000
0000
0200
,
0000
0000
0000
0000
,
0000
0000
0000
0300
,
0000
0000
0000
0002
,
0000
0000
0000
0000
,
0000
0000
0000
0003
;

//--------------- dance-single - Princess Pamela vs. forcednature ----------------
#NOTEDATA:;
#STEPSTYPE:dance-single;
#DESCRIPTION:Princess Pamela vs. forcednature;
#CREDIT:Princess Pamela vs. forcednature;
#DIFFICULTY:Easy;
#METER:4;
#RADARVALUES:0,0,0,0,0;
#NOTES:
0000
0000
0000
0000
,
0000
0000
0000
0000
,
0000
0000
0000
0000
,
0000
0000
0000
0000
,
0000
0000
0000
0000
,
0000
0000
0000
0000
,
0002
0000
0000
0003
,
0200
0000
0000
0300
,
0020
0000
0000
0000
,
0000
0000
0000
0030
,
2000
0000
0001
0000
,
3001
0000
0000
0000
,
1001
0000
0000
0000
,
1000
0000
0000
0000
,
0100
0000
0010
0000
,
0100
0000
0000
0000
,
0010
0000
0001
0000
,
1000
0000
0001
0000
,
0010
0000
0000
0000
,
0100
0000
0000
0000
,
1001
0000
0000
0000
,
0001
0000
0000
0000
,
0100
0000
0010
0000
,
0100
0000
0000
0000
,
0010
0000
1000
0000
,
0001
0000
1000
0000
,
0010
0000
0000
0000
,
0100
0000
0000
0000
,
2002
0000
0000
0000
,
3003
0000
0000
0000
,
2000
0000
0000
0000
,
3000
0000
0000
0000
,
0020
0000
0000
0000
,
0030
0000
0000
0000
,
0200
0000
0000
0000
,
0300
0000
0000
0000
,
0001
0000
1000
0000
,
0001
0001
0001
0000
,
1000
0000
0001
0000
,
1000
1000
1000
0000
,
0010
0000
0100
0000
,
0010
0010
0010
0000
,
0100
0000
0010
0000
,
0100
0100
0100
0000
,
1001
0000
0000
0000
,
0001
0000
0000
0000
,
0010
0000
0100
0000
,
0010
0000
0001
0000
,
1000
0000
0010
0000
,
1000
0000
1000
0000
,
0001
0000
0100
0000
,
0001
0000
1001
1000
,
0000
0000
0000
0010
,
0000
0000
0000
0100
,
0000
0010
0000
0100
,
0000
0000
0000
0001
,
0000
1000
0000
0010
,
0000
1000
0000
0001
,
0000
0000
0000
0010
,
0000
0000
0000
1001
,
0000
0000
0000
0001
,
0000
0000
0000
0010
,
0000
0100
0010
0100
,
0000
0000
0000
1000
,
0000
0001
0000
0010
,
0000
0001
0000
1000
,
0000
0000
0000
1001
,
0000
0000
0000
0002
,
0000
0000
0000
0000
,
0000
0003
0000
2000
,
0000
0000
3000
0020
,
0000
0000
0000
0000
,
0000
0000
0000
0030
;

//--------------- dance-single - Princess Pamela vs. forcednature ----------------
#NOTEDATA:;
#STEPSTYPE:dance-single;
#DESCRIPTION:Princess Pamela vs. forcednature;
#CREDIT:Princess Pamela vs. forcednature;
#DIFFICULTY:Medium;
#METER:9;
#RADARVALUES:0,0,0,0,0;
#NOTES:
0000
0000
0000
0000
,
0000
0000
0000
0000
,
0000
0000
0000
0000
,
0000
0000
0000
0000
,
0000
0000
0000
0000
,
0000
0000
0000
0000
,
2000
0000
3002
0000
,
0203
0000
0310
1000
,
0002
0000
0000
0003
,
0020
0000
0000
0030
,
0200
0000
0000
0300
,
1001
0000
0000
1001
0000
0000
1000
0000
,
0020
0100
1000
0130
,
2000
0001
0100
3001
,
0002
0010
2003
3002
,
2003
0010
3001
1001
,
2000
0100
3002
0100
,
2003
0010
3002
0010
,
1003
0000
0010
1000
0010
0000
0100
0000
,
0001
0000
1000
0001
1000
0000
0100
0000
,
0020
0001
0100
0031
,
2000
0100
0001
3100
,
0002
0010
2003
3002
,
2003
0010
3001
1001
,
0002
0100
0023
0100
,
0032
1000
0203
0010
,
0301
0001
0000
1000
0000
1000
0001
0000
,
1001
0000
0000
1001
0000
0000
1000
0000
,
0020
0000
0230
0000
,
0301
0000
1000
0001
1000
0000
0000
0000
,
0002
0000
0023
0000
,
0031
0000
1000
0001
1000
0000
0000
0000
,
0200
0000
2300
0000
,
3001
0000
1000
0001
1000
0000
0000
0000
,
0020
0000
0230
0000
,
0302
0000
0000
0000
0003
0000
1000
0100
,
1000
0000
0001
0100
0001
0000
1000
0010
,
1000
0000
0001
0000
1000
0000
0001
0100
,
0001
0000
1000
0100
1000
0000
0010
0100
,
0010
0000
1000
0001
1000
0000
0010
1000
,
0010
0000
0100
0001
0100
0000
0001
1000
,
0001
0000
0010
0100
0010
0000
0100
1000
,
0100
0010
0001
1000
,
0010
0110
1001
0000
,
2001
0100
0000
0100
,
3002
0100
0000
0100
,
2003
0010
0000
0010
,
3002
0010
1003
1001
,
2000
0000
0100
0000
0001
0001
0001
0000
,
3020
0000
0100
0000
1000
1000
1000
0000
,
0230
0000
0001
0000
0010
0010
0010
0000
,
0302
0000
1000
1000
0013
0000
0020
0000
,
0100
0001
0130
0002
,
1000
0100
1003
2000
,
0010
3002
2003
3002
,
0010
1003
1001
0002
,
0100
2003
0100
3002
,
0010
2003
0010
3001
,
0010
0001
0010
0000
0100
0000
1000
0000
,
0001
1000
0001
0000
0100
0000
0020
0000
,
1000
0100
1030
0002
,
0100
1000
0103
2000
,
0010
3002
2003
3002
,
0010
1003
1001
2000
,
0100
3020
0100
2030
,
0001
0000
3200
0000
0010
0000
1300
1000
,
0000
0001
0000
0001
1000
0000
1001
0000
,
0000
1001
0000
0000
0010
0000
0220
0000
,
0000
0000
0000
0000
,
0000
0000
0330
0100
,
0001
1000
0100
2002
,
0000
0000
0000
0000
,
0000
0000
0000
3003
;

//--------------- dance-single - Princess Pamela vs. forcednature ----------------
#NOTEDATA:;
#STEPSTYPE:dance-single;
#DESCRIPTION:Princess Pamela vs. forcednature;
#CREDIT:Princess Pamela vs. forcednature;
#DIFFICULTY:Hard;
#METER:13;
#RADARVALUES:0,0,0,0,0;
#NOTES:
0000
0000
0000
0000
,
0000
0000
0000
0000
,
0000
0000
0000
0000
,
0000
0000
0000
0000
,
0000
0000
0000
0000
,
0000
0000
0000
0000
0000
0000
1000
0001
,
1000
0000
0001
0010
0001
0000
1000
0010
,
1000
0000
0001
0010
0100
0000
1000
0001
,
0200
0000
0000
0300
,
0020
0000
0000
0030
,
1000
0000
0001
0000
0010
0100
1000
0100
,
0010
0000
0000
0110
0000
0000
1001
0000
,
1000
0000
0001
0000
0100
0001
0100
0000
0010
0000
1000
0000
0001
0000
0010
0000
,
0001
0000
1000
0000
0100
1000
0100
0000
0010
0000
0001
0000
1000
0000
0010
0000
,
0100
0000
0001
0000
0010
0001
0010
0000
0100
0000
1000
0000
0001
0000
0100
0000
,
1000
0000
0100
0000
0010
0000
1000
0000
0001
1000
0001
0000
0010
0000
0000
0000
,
0210
0000
1000
1000
2300
0000
0010
0010
,
3020
0000
0100
0100
0230
0000
0001
0001
,
0301
0000
0000
0000
0100
0000
0010
0100
0010
0000
1000
0000
0001
0000
0000
0000
,
0100
0001
1000
0100
0001
0100
1000
0000
,
0001
0000
0010
0000
0001
1000
0001
0000
0100
0000
0010
0000
0100
0000
0001
0000
,
1000
0000
0100
0000
1000
0010
1000
0000
0010
0000
0100
0000
0001
0000
0010
0000
,
1000
0000
0010
0000
0001
0010
0001
0000
0100
0000
0010
0000
1000
0000
0010
0000
,
0100
0000
1000
0000
0100
0000
0001
0000
0010
0001
0010
0000
0100
0000
0000
0000
,
2100
0000
0010
0010
3020
0000
0100
0100
,
0230
0000
0001
0001
0302
0000
0013
0000
,
1001
0000
1001
0000
0000
0000
1000
0000
0100
0000
1000
0001
1000
0000
0010
0000
,
0100
0000
0000
0110
0000
0000
1001
0000
,
1100
0000
1000
0100
0010
0000
0100
0010
,
0001
0000
0100
0001
1000
0000
0010
0000
,
0100
0000
0001
0010
0100
0000
0010
0100
,
1000
0000
0010
1000
0001
0000
0100
0000
,
0010
0000
1000
0001
0100
0000
0001
1000
,
0010
0000
0100
0001
0010
0000
0100
0000
,
2000
3002
0203
0320
,
1030
0000
0001
0010
0100
0000
1000
0100
,
1100
0000
0100
0010
0110
0000
0010
0001
,
0011
0000
1001
0000
0110
0000
0001
0100
,
0101
0000
0100
0010
0110
0000
0010
1000
,
1010
0000
0110
0000
1001
0000
0001
0010
,
0011
0000
1000
0010
1010
0000
0100
0010
,
0110
0000
1001
0000
1100
0000
0001
0010
,
0011
0101
1100
1010
,
1001
0110
1001
0000
,
0101
0000
0000
0000
0100
0000
0100
0000
0010
0000
0100
0010
1000
0000
0100
0000
,
1000
0000
0000
0000
0001
0000
0001
0000
0010
0000
0100
0010
0001
0000
1000
0001
,
0100
0000
0000
0000
0010
0000
0100
0010
1000
0000
0000
0100
1000
0000
0010
0000
,
0100
0000
0001
0100
0001
0000
0010
0000
0110
0000
0000
0000
1001
0000
0000
0000
,
1000
0100
0010
0000
0001
0000
0100
0000
0001
1000
0010
0000
0100
0000
0001
0000
,
0010
0100
1000
0000
0010
0100
0001
0000
1000
0100
0010
0000
0110
0000
0100
1000
,
0002
0000
0100
0000
0103
0000
0000
0010
1000
0000
1000
0100
0000
0100
0010
0000
,
0001
0000
0001
1000
0000
0010
0100
0000
1001
0000
0000
0000
0001
0000
1000
0000
,
0100
1000
0001
0000
0100
0000
0001
0000
1000
0000
0010
0000
1000
0000
0001
0000
,
0100
0001
1000
0000
0100
0000
1000
0000
0001
0000
0010
0000
0100
0000
1000
0000
,
0010
1000
0001
0000
0100
0000
0001
0000
1000
0000
0100
0000
0001
0000
0100
0000
,
0010
0000
0001
0000
1000
0001
0010
0000
0100
0000
0000
0000
0010
0000
0001
0000
,
0100
0010
0100
0000
0010
0000
1000
0000
0100
1000
0100
0000
0010
0000
0001
0000
,
1000
0001
1000
0000
0010
0000
0100
0000
0001
0100
0001
0000
1000
0000
0000
0000
,
0100
0000
1000
0100
0010
0000
0001
0000
1000
0000
0000
0000
0010
0000
1000
0000
,
0001
0010
1000
0010
0001
0000
1000
0010
,
1000
0001
0100
0000
0010
0000
1000
0000
0100
0000
1000
0000
0001
0000
0100
0000
,
0001
0010
0100
0000
0010
0000
0001
0000
1000
0000
0010
0000
0001
0000
0010
0000
,
1000
0010
0100
0000
0001
0000
1000
0000
0001
0000
0010
0000
0100
0000
0001
0000
,
0100
0000
1000
0000
0100
0010
0001
0000
1000
0000
0000
0000
0010
0000
1000
0000
,
0100
0010
0100
0000
0010
0000
0001
0000
0100
0001
0100
0000
0010
0000
1000
0000
,
0001
1000
0001
0000
0010
0000
0100
0000
1000
0000
0000
0000
1001
0000
1001
0000
,
0000
0000
0001
0000
0100
0000
0010
0100
0010
0000
1000
0000
0100
0000
0000
0000
,
0000
0110
0000
0000
1001
0000
1100
0000
,
1000
0100
1000
0001
1000
0000
0010
0100
,
0001
0000
0010
0100
1000
0000
0001
0100
,
0001
0000
1000
0000
0010
0000
0000
0000
0110
0000
0000
0000
0001
2000
0000
0000
,
0000
0000
0000
0000
,
0000
0000
0000
3000
;

//--------------- dance-double - Princess Pamela vs. forcednature ----------------
#NOTEDATA:;
#STEPSTYPE:dance-double;
#DESCRIPTION:Princess Pamela vs. forcednature;
#CREDIT:Princess Pamela vs. forcednature;
#DIFFICULTY:Easy;
#METER:4;
#RADARVALUES:0,0,0,0,0;
#NOTES:
00000000
00000000
00000000
00000000
,
00000000
00000000
00000000
00000000
,
00000000
00000000
00000000
00000000
,
00000000
00000000
00000000
00000000
,
00000000
00000000
00000000
00000000
,
00000000
00000000
00000000
00000000
,
00020000
00000000
00000000
00030000
,
00000200
00000000
00000000
00000300
,
00002000
00000000
00000000
00000000
,
00000000
00000000
00003000
00000000
,
00000002
00000000
00001000
00000000
,
00001003
00000000
00000000
00000000
,
00001001
00000000
00000000
00000000
,
00001000
00000000
00000000
00000000
,
00000100
00000000
00010000
00000000
,
00001000
00000000
00000000
00000000
,
00100000
00000000
00010000
00000000
,
00100000
00000000
01000000
00000000
,
10000000
00000000
00000000
00000000
,
00100000
00000000
00000000
00000000
,
10010000
00000000
00000000
00000000
,
00010000
00000000
00000000
00000000
,
01000000
00000000
00001000
00000000
,
00010000
00000000
00000000
00000000
,
00001000
00000000
00010000
00000000
,
00000100
00000000
00001000
00000000
,
00000010
00000000
00000000
00000000
,
00000100
00000000
00000000
00000000
,
00002002
00000000
00000000
00000000
,
00003003
00000000
00000000
00000000
,
00002000
00000000
00000000
00000000
,
00003000
00000000
00000000
00000000
,
00000200
00000000
00000000
00000000
,
00000300
00000000
00000000
00000000
,
00020000
00000000
00000000
00000000
,
00030000
00000000
00000000
00000000
,
00001000
00000000
00010000
00000000
,
00001000
00001000
00001000
00000000
,
00100000
00011000
00010000
00000000
,
00010000
00010000
00010000
00000000
,
00000100
00000000
00010000
00000000
,
00001000
00001000
00001000
00000000
,
01000000
00000000
00010000
00000000
,
00100000
00100000
00100000
00000000
,
10010000
00000000
00000000
00000000
,
00010000
00000000
00000000
00000000
,
00100000
00000000
00001000
00000000
,
00010000
00000000
00000100
00000000
,
00001000
00000000
00000001
00000000
,
00000100
00000000
00000100
00000000
,
00000001
00000000
00000010
00000000
,
00000100
00000000
00001001
00001000
,
00000000
00000000
00000000
00000100
,
00000000
00000000
00000000
00010000
,
00000000
00001000
00000000
00010000
,
00000000
00000000
00000000
00001000
,
00000000
00100000
00000000
00010000
,
00000000
01000000
00000000
00010000
,
00000000
00000000
00000000
10000000
,
00000000
00000000
00000000
10010000
,
00000000
00000000
00000000
00010000
,
00000000
00000000
00000000
00100000
,
00000000
00001000
00010000
00001000
,
00000000
00000000
00000000
00010000
,
00000000
00000100
00000000
00001000
,
00000000
00000001
00000000
00000100
,
00000000
00000000
00000000
00001001
,
00000000
00000000
00000000
00020000
,
00000000
00000000
00000000
00000000
,
00000000
00030000
00000000
00002000
,
00000000
00000000
00003000
00200000
,
00000000
00000000
00000000
00000000
,
00000000
00000000
00000000
00300000
;

//--------------- dance-double - Princess Pamela vs. forcednature ----------------
#NOTEDATA:;
#STEPSTYPE:dance-double;
#DESCRIPTION:Princess Pamela vs. forcednature;
#CREDIT:Princess Pamela vs. forcednature;
#DIFFICULTY:Medium;
#METER:9;
#RADARVALUES:0,0,0,0,0;
#NOTES:
00000000
00000000
00000000
00000000
,
00000000
00000000
00000000
00000000
,
00000000
00000000
00000000
00000000
,
00000000
00000000
00000000
00000000
,
00000000
00000000
00000000
00000000
,
00000000
00000000
00000000
00000000
,
00002000
00000000
00023000
00000000
,
00030200
00000000
00001300
00000001
,
00000200
00000000
00000000
00000300
,
00002000
00000000
00000000
00003000
,
00020000
00000000
00000000
00030000
,
00011000
00000000
00000000
00011000
00000000
00000000
00100000
00000000
,
00020000
01000000
10000000
01030000
,
00002000
00010000
00100000
00013000
,
00020000
00000100
00030020
00002030
,
00003002
00000100
00001003
00001001
,
00000002
00000010
00002003
00000100
,
00003020
00010000
00002030
00000100
,
00013000
00000000
00100000
00010000
00100000
00000000
01000000
00000000
,
10000000
00100000
00010000
00010000
,
00002000
00010000
01000000
00013000
,
00000020
00001000
00000100
00001030
,
00020000
00000100
00032000
00203000
,
00320000
01000000
10030000
10010000
,
00020000
01000000
00230000
00001000
,
00302000
01000000
00023000
00000010
,
00031000
00001000
00000000
00000010
00000000
00000010
00000001
00000000
,
00001001
00000000
00000000
00000100
00000000
00000000
00011000
00000000
,
00002000
00000000
02003000
00000000
,
03010000
00000000
10000000
00010000
10000000
00000000
00000000
00000000
,
00020000
00000000
00230000
00000000
,
00301000
00000000
00010000
00001000
00010000
00000000
00000000
00000000
,
00000020
00000000
00002030
00000000
,
00003100
00000000
00000010
00000100
00000010
00000000
00000000
00000000
,
00000002
00000000
00000203
00000000
,
00002300
00000000
00000000
00000000
00003000
00000000
00010000
00001000
,
00010000
00000000
00001000
00100000
00001000
00000000
00010000
00000010
,
00010000
00000000
00001000
00000000
00011000
00000000
00001000
00010000
,
00001000
00000000
00010000
00000100
00010000
00000000
00001000
01000000
,
00001000
00000000
00100000
00010000
00100000
00000000
00001000
00010000
,
00000100
00000000
00001000
00000100
00000010
00000000
00000100
00001000
,
00000001
00000000
00000100
00000010
00001000
00000000
00000100
00001000
,
00000100
00010000
00001000
00100000
,
01000000
01100000
10010000
00000000
,
10020000
01000000
00000000
01000000
,
00230000
00001000
00000000
00301000
,
00002000
00010000
00000000
00010000
,
00023000
00000100
00031000
00011000
,
00000020
00000000
00001000
00000000
00000100
00000100
00000100
00000000
,
00002030
00000000
00000001
00000000
00000100
00000100
00000100
00000000
,
00003020
00000000
00001000
00000000
00010000
00010000
00010000
00000000
,
00020030
00000000
00001000
00001000
00030100
00000000
00200000
00000000
,
00010000
01000000
00310000
00002000
,
00010000
01000000
00013000
00000200
,
00001000
00000320
00000032
00000203
,
00000010
00000301
00001001
00002000
,
00000100
00003020
00001000
00020030
,
00000100
00032000
00100000
01003000
,
00010000
01000000
00010000
00000000
00100000
00000000
01000000
00000000
,
10000000
01000000
10000000
00000000
00100000
00000000
02000000
00000000
,
00010000
00100000
03010000
00002000
,
00010000
00100000
00013000
00020000
,
00000100
00032000
00003020
00000032
,
00000100
00001003
00001001
00002000
,
00000010
00003200
00000010
00020300
,
00001000
00000000
00230000
00000000
01000000
00000000
10300000
10000000
,
00000000
00010000
00000000
00010000
00100000
00000000
00101000
00000000
,
00000000
00011000
00000000
00000000
00000100
00000000
00002002
00000000
,
00000000
00000000
00000000
00000000
,
00000000
00000000
00003003
00000001
,
00000100
00001000
00010000
00022000
,
00000000
00000000
00000000
00000000
,
00000000
00000000
00000000
00033000
;

//--------------- dance-double - Princess Pamela vs. forcednature ----------------
#NOTEDATA:;
#STEPSTYPE:dance-double;
#DESCRIPTION:Princess Pamela vs. forcednature;
#CREDIT:Princess Pamela vs. forcednature;
#DIFFICULTY:Hard;
#METER:14;
#RADARVALUES:0,0,0,0,0;
#NOTES:
00000000
00000000
00000000
00000000
,
00000000
00000000
00000000
00000000
,
00000000
00000000
00000000
00000000
,
00000000
00000000
00000000
00000000
,
00000000
00000000
00000000
00000000
,
00000000
00000000
00000000
00000000
00000000
00000000
00001000
00010000
,
00100000
00000000
00010000
00001000
00000010
00000000
00001000
00010000
,
01000000
00000000
10000000
00010000
01000000
00000000
00100000
10000000
,
01000000
00010000
00001000
00000010
,
00000001
00000100
00001000
00010000
,
00011000
00000000
00001000
00100000
00010000
00100000
01000000
00010000
,
00001000
00000000
00000000
00011000
00000000
00000000
00000110
00000000
,
00001001
00000000
00000001
00000100
00000010
00000100
00001000
00010000
,
01000000
00000000
00100000
01000000
10000000
01000000
00010000
00001000
,
00100000
00000000
00010000
01000000
00100000
00000000
00010000
00000000
,
00001000
00000000
00000100
00000010
00000100
00000001
00000010
00000000
,
00000100
00000010
00000100
00000000
00001000
00000000
00000100
00000000
00010000
00001000
00010000
00000000
00001000
00000000
00100000
00000000
,
00010000
01000000
00010000
00000000
01000000
00000000
00100000
00000000
10000000
01000000
10000000
00000000
01000000
00000000
00010000
00000000
,
00002000
00000000
00000000
00000000
00003010
00000000
00000100
00000010
00000001
00000000
00000000
00000000
00000100
00000000
00000000
00000000
,
00000010
00010000
00001000
01000000
00100000
10000000
00100000
00000000
,
10010000
00000000
10000000
01000000
00100000
01000000
00010000
00001000
,
00000100
00000000
00000010
00000100
00000001
00000100
00001000
00010000
,
00000010
00000000
00001000
00000100
00000010
00000000
00001000
00000000
,
00010000
00000000
01000000
00100000
01000000
10000000
00100000
00000000
,
01000000
00100000
01000000
00000000
00010000
00000000
01000000
00000000
00001000
00010000
00001000
00000000
00010000
00000000
00000010
00000000
,
00001000
00000100
00001000
00000000
00000100
00000000
00000010
00000000
00000001
00000100
00000001
00000000
00000100
00000000
00001000
00000000
,
00010000
00000000
00010000
00000000
00000000
00000000
01000000
00100000
01000000
00000000
00100000
10000000
00100000
00000000
00000000
00000000
,
01100000
00000000
00000000
00011000
00000000
00000000
00000110
00000001
,
00001000
00000000
00000100
00000010
00000001
00000000
00000100
00001000
,
00010000
00000000
00100000
01000000
00100000
00000000
10000000
01000000
,
00100000
00000000
01000000
00010000
00001000
00000000
00000100
00001000
,
00010000
00000000
00000010
00001000
00000010
00000000
00010000
00001000
,
00000010
00000000
00001000
00010000
00100000
00000000
00010000
00001000
,
01000000
00000000
00001000
00010000
00000100
00000000
00001000
00000001
,
00000200
00002300
00023000
02030000
,
03100000
00010000
00000000
01010000
00000000
00100000
10000000
01000000
,
00010000
00000000
00001000
00000100
00000001
00000000
00000010
00001000
,
00010000
00000000
00011000
00010010
00001010
00000000
00000001
00000100
,
00001000
00000000
00010000
01000000
10000000
00000000
00100000
00010000
,
00001000
00000000
00011000
01001000
01010000
00000000
10000000
00100000
,
00010000
00000000
00001000
00000010
00000001
00000000
00000100
00001000
,
00010000
00000000
00011000
00010100
00001100
00000000
00000001
00000010
,
00001000
00010000
01000000
10000000
,
01100000
00011000
00000110
00000000
,
00001001
00000000
00001000
00000000
00000010
00000100
00001000
00010000
,
00011000
00000000
00000000
00000000
00001000
00000000
00000000
00000000
00100000
00000000
01000000
00000000
00100000
00000000
00010000
01000000
,
00001000
00000000
00010000
00000000
00011000
00000000
00000100
00001000
00000010
00000000
00000100
00000001
00000000
00000010
00001000
00000000
,
00010000
01000000
00010000
00001000
00011000
00000000
00000110
00000000
,
00000001
00000100
00000010
00000000
00000100
00001000
00010000
00000000
00100000
00000000
01000000
00000000
00100000
00000000
10000000
00000000
,
01000000
00100000
00010000
00000000
01000000
00001000
00010000
00000000
00000010
00001000
00000100
00000000
00000010
00000001
00000100
00000000
,
00000110
00000000
00000010
00000000
00010000
00000000
00001000
00100000
00010000
00000000
00010000
01000000
00000000
10000000
01000000
00000000
,
01100000
00000000
00100000
00010000
00000000
00001000
00000010
00000000
00000110
00000000
00000000
00000000
00000001
00001000
00000001
00000000
,
00000100
00000000
00000010
00000000
00000100
00000000
00001000
00000000
00010000
00000000
00100000
00000000
01000000
00100000
01000000
00000000
,
00100000
00000000
10000000
00000000
01000000
00000000
00100000
00000000
00010000
00000000
01000000
00000000
00010000
01000000
00010000
00000000
,
00100000
00000000
00001000
00000000
00010000
00001000
00010000
00000000
00000100
00000000
00001000
00000000
00000010
00000000
00000100
00000000
,
00000001
00000000
00000010
00000000
00000100
00000000
00010000
00000000
00000010
00000000
00000000
00000000
00000100
00000001
00000100
00000000
,
00000001
00000000
00000010
00000000
00000100
00001000
00000100
00000000
00010000
00000000
00001000
00000000
01000000
00010000
01000000
00000000
,
00100000
00000000
10000000
00000000
01000000
00100000
01000000
00000000
00100000
00000000
00010000
00000000
01000000
00000000
00001000
00000000
,
00010000
00000000
00001000
00100000
00010000
00000000
01000000
00000000
00100000
00000000
00000000
00000000
10000000
00000000
01000000
00000000
,
00010000
00000000
00001000
00000000
00000100
00000000
00000010
00000000
00000100
00000000
00000000
00000000
00000001
00000010
00000001
00000000
,
00001000
00000000
00000010
00000000
00000100
00000000
00001000
00000000
00010000
00000000
00001000
00000000
01000000
00010000
01000000
00000000
,
00100000
00000000
10000000
00000000
01000000
00000000
00100000
00000000
00010000
00000000
01000000
00000000
00001000
00010000
00001000
00000000
,
00100000
00000000
00010000
00000000
01000000
00010000
01000000
00000000
00001000
00000000
00010000
00000000
00000100
00001000
00000100
00000000
,
00000010
00000000
00000001
00000000
00000100
00000000
00001000
00000000
00000100
00000000
00000000
00000000
00000010
00001000
00000010
00000000
,
00001000
00000000
00000100
00000000
00010000
00001000
00010000
00000000
00001000
00000000
00100000
00000000
00010000
01000000
00010000
00000000
,
10000000
00000000
01000000
00000000
00100000
00010000
00100000
00000000
00001000
00000000
00010000
00000000
00011000
00000000
00011000
00000000
,
00000000
00000000
00000010
00001000
00000010
00000000
00000100
00000001
00000100
00000000
00000001
00000000
00000010
00000000
00000000
00000000
,
00000000
00000110
00000000
00000000
00011000
00000000
01100000
00000000
,
10000000
01000000
10000000
00100000
01000000
00000000
00010000
00100000
,
01000000
10000000
01000000
00100000
00001000
00000000
00010000
00001000
,
00000100
00000000
00000010
00000000
00000100
00000000
00001000
00000000
00010000
00000000
00000000
00000000
00100000
02000000
00000000
00000000
,
00000000
00000000
00000000
00000000
,
00000000
00000000
00000000
03000000
;
