#VERSION:0.83;
#TITLE:超恋愛☆エクストリーム・ガール;
#SUBTITLE:;
#ARTIST:Music by Ayatsugu_Otowa, Vocal by みゅい;
#TITLETRANSLIT:Chourenai extreme girl;
#SUBTITLETRANSLIT:;
#ARTISTTRANSLIT:Music by Ayatsugu_Otowa, Vocal by myui;
#GENRE:;
#CREDIT:;
#MUSIC:Chourenai extreme girl.ogg;
#BANNER:Chourenai extreme girl.png;
#BACKGROUND:Chourenai extreme girl-bg.png;
#CDTITLE:./CDTitles/SDVX BOOTH.png;
#SAMPLESTART:31.598;
#SAMPLELENGTH:15.000;
#SELECTABLE:YES;
#OFFSET:0.216;
#BPMS:0.000=196.000;
#STOPS:;
#TIMESIGNATURES:0.000=4=4;
#BGCHANGES:0.000=../BGAs/19po.mp4=1.000=0=0=0=StretchNoLoop====,
99999.000=-nosongbg-=1.000=0=0=0=StretchNoLoop====
;
#FGCHANGES:;

//--------------- dance-single - forcednature ----------------
#NOTEDATA:;
#STEPSTYPE:dance-single;
#DESCRIPTION:forcednature;
#DIFFICULTY:Beginner;
#METER:5;
#RADARVALUES:0,0,0,0,0;
#CREDIT:forcednature;
#NOTES:
0000
0000
0000
0000
,
0000
0000
0000
0000
,
0001
0000
0000
0000
,
0100
0000
0100
0000
,
0010
0000
0000
0000
,
1000
0000
0100
0000
,
1000
0000
0000
0000
,
0001
0000
0001
0000
,
0010
0000
0100
0000
,
0010
0000
0000
0000
,
1001
0000
0000
0000
,
1000
0000
1000
0000
,
0010
0000
0000
0000
,
0100
0000
0001
0000
,
0100
0000
0000
0000
,
0001
0000
0001
0000
,
1000
0000
1000
0000
,
0001
0000
0000
0000
,
0010
0010
0010
0000
,
0000
0000
0000
0000
,
0100
0100
0100
0000
,
0000
0000
0000
0000
,
1000
1000
1000
0000
,
0000
0000
0000
0000
,
1001
0000
0110
0000
,
0001
0001
0001
0000
,
0010
0000
0001
0000
,
0100
0000
0001
0000
,
1000
0000
0100
0000
,
1000
0000
0010
0000
,
0010
0000
1000
0000
,
0100
0000
1000
0000
,
0001
0000
0100
0000
,
0001
0001
0001
0000
,
0010
0000
0001
0000
,
0100
0000
0001
0000
,
1000
0000
0100
0000
,
1000
0000
0010
0000
,
0010
0000
1000
0000
,
0100
0000
1000
0000
,
0001
0000
0100
0000
,
0001
0000
0010
0000
,
2002
0000
3003
0000
,
1000
0000
0100
0000
,
0010
0000
0001
0000
,
0010
0000
0100
0000
,
1001
0000
0000
0000
,
0001
0000
0100
0000
,
0010
0000
1000
0000
,
0100
1000
0100
0000
,
1000
1000
1000
0000
,
0000
0000
0000
0000
,
0001
0001
0001
0000
,
0000
0000
0000
0000
,
0010
0010
0010
0000
,
0000
0000
0000
0000
,
0110
0000
1001
0000
,
0001
1000
0001
0000
,
0200
0000
0000
0000
,
0000
0000
0300
0000
,
0020
0000
0000
0000
,
0000
0000
0030
0000
,
2000
0000
3000
0000
,
0001
0000
0001
0000
,
0010
0010
0100
0010
,
0100
0100
0010
0000
,
1001
0000
1000
0000
,
0100
0000
1000
0000
,
0010
0000
0100
0000
,
0001
0001
0001
0000
,
0010
0000
0001
0000
,
0100
0000
0010
0000
,
1000
0000
0001
0000
,
0100
0100
0010
0000
,
2002
0000
3003
0000
,
0001
0000
0100
0000
,
0001
0000
1000
0000
,
0100
0000
1000
0000
,
2002
0000
3003
0000
,
1000
0000
0100
0000
,
1000
0000
0001
0000
,
0010
0010
0100
0010
,
1001
0000
0000
0000
;

//--------------- dance-single - forcednature ----------------
#NOTEDATA:;
#STEPSTYPE:dance-single;
#DESCRIPTION:forcednature;
#DIFFICULTY:Easy;
#METER:9;
#RADARVALUES:0,0,0,0,0;
#CREDIT:forcednature;
#NOTES:
0000
0000
0000
0000
,
0000
0000
0000
0000
,
0001
1000
0100
0000
,
1000
1000
0001
0000
,
0010
0100
1000
0000
,
0001
0001
0100
0000
,
0010
1000
0001
0000
,
0010
0010
0001
0000
,
1000
0100
0010
0000
,
0001
0001
0100
0000
,
0110
0000
0010
1000
,
1000
0001
0100
0000
,
0001
0010
0100
0000
,
1000
0010
0100
0000
,
0001
0001
1000
0000
,
0100
1000
0010
0000
,
0100
0001
0100
0001
,
1000
0010
0100
0000
,
1001
1001
1001
0000
,
1000
0100
0010
0000
,
1001
1001
1001
0000
,
0001
0100
0010
0000
,
0110
0110
0110
0000
,
1000
0001
0010
0000
,
0110
0000
1001
0000
,
1000
0000
0000
1000
0000
0000
0010
0000
0100
0000
0000
0000
0000
0000
0000
0000
,
0001
0010
0001
0100
,
0110
1000
0100
1000
,
0001
0010
0100
0010
,
0001
0001
1000
0010
,
1000
0100
0010
0110
,
1000
0001
0100
0001
,
1000
0010
0001
0010
,
1000
0000
0000
1000
0000
0000
0001
0000
0100
0000
0000
0000
0010
0000
0000
0000
,
0110
1000
0100
1000
,
0001
0010
1000
0010
,
0001
1000
0010
0100
,
0110
0001
1000
0100
,
1000
0001
0100
0010
,
0110
1000
0100
1000
,
0001
0010
0001
0100
,
0010
0000
1000
0000
0001
1000
0001
0000
,
1001
1000
0100
1000
,
0000
1000
0010
1000
,
0001
0010
0100
1000
,
0001
0100
0010
1000
,
1001
0000
0001
0010
,
0001
0001
0100
0010
,
1000
1001
0001
1001
,
1000
0010
0100
0000
,
1001
1001
1001
0000
,
0001
0010
0100
0000
,
0110
0110
0110
0000
,
1000
0010
0100
0000
,
1001
1001
1001
0000
,
0001
1000
0100
0000
,
0110
0000
1001
0000
,
0001
0000
0000
0001
0000
0000
0100
0000
0010
0000
0000
0000
0000
0000
0000
0000
,
2000
0000
0100
0000
,
0100
0100
0100
0000
,
3200
0000
0010
0000
,
0010
0010
0010
0000
,
0320
0000
0001
0000
,
0001
0001
0031
0100
,
0010
1000
0010
1000
,
0001
0000
0000
0001
0000
0000
0010
0000
0100
0000
0000
0000
0110
0000
0000
0000
,
1000
0001
0100
1001
,
1000
0010
0100
0001
,
0010
0100
0010
0110
,
1000
0000
0001
0000
0100
0001
0100
0000
,
0001
1000
0100
0110
,
1000
0001
0010
0001
,
1000
1010
0001
0011
,
1000
0000
0100
0000
0010
0100
0010
0000
,
0110
1000
0001
0100
,
0100
0010
1000
0001
,
0010
1001
0100
1001
,
0000
1000
0010
0100
,
0110
0001
1000
0100
,
0000
1000
0001
0010
,
0100
0110
0010
0110
,
1000
0001
1000
0000
0001
1000
0001
0000
,
0100
0000
0000
0000
;

//--------------- dance-single - forcednature ----------------
#NOTEDATA:;
#STEPSTYPE:dance-single;
#DESCRIPTION:forcednature;
#DIFFICULTY:Medium;
#METER:12;
#RADARVALUES:0,0,0,0,0;
#CREDIT:forcednature;
#NOTES:
0000
0000
0000
0000
,
0000
0000
0000
0000
,
0001
0000
0001
0000
1000
0000
0010
0100
,
0000
0001
0000
0010
0000
0001
1000
0001
,
1000
0000
0100
0000
1000
0010
1000
0000
,
0010
0100
0000
0100
0000
0001
0010
0000
,
1001
0000
1000
0000
0010
0000
0100
0001
,
0000
0010
0001
0010
0000
0100
0010
0000
,
0100
1000
0100
0000
1000
0010
1000
0000
,
0001
1000
0001
1000
0010
0000
0110
0000
,
0001
0000
0010
0000
0001
1000
0001
0000
,
1000
0100
0000
1000
0000
0010
0100
0000
,
0001
0011
1000
1010
,
0001
1000
0000
0100
0000
0100
0010
0000
,
1001
0000
1000
0000
0010
0000
0100
0001
,
0000
0000
0010
0000
0001
1000
0001
0000
,
1000
0100
1000
0000
0001
0100
0001
0000
,
0220
0000
0000
0330
,
1001
1100
1001
0000
,
0001
0001
0010
0000
,
1001
0101
1001
0000
,
1000
1000
0010
0000
,
1001
1010
1001
0000
,
0001
0001
0010
0000
,
1001
0100
1001
0010
,
1000
0000
0000
1000
0000
0000
0001
0000
0200
0000
0000
0000
0300
0000
0000
0000
,
0000
0110
0000
0010
1000
0010
1000
0000
,
0001
0010
0001
1000
0000
0100
1000
0100
,
0000
0110
0000
0001
0010
0001
0010
0000
,
0001
0100
0000
0100
0000
0010
1000
0001
,
0000
1001
0000
1000
0100
1000
0100
0000
,
1000
0010
0100
0010
0000
0100
0001
1000
,
0000
0001
0010
0000
0100
0010
0100
0000
,
1000
0000
0000
1000
0000
0000
0001
0000
0100
0000
0000
0000
0110
0000
0000
0000
,
0000
0101
0000
1000
0010
1000
0010
0000
,
0100
0001
1000
0001
0000
0010
0100
1000
,
0000
0010
0000
0010
0000
0100
0001
1000
,
0000
1100
0000
1100
0000
0001
0010
0001
,
0000
0101
0000
0100
0010
0100
0010
0000
,
1000
0100
1000
0001
0000
0010
0001
0010
,
0000
0000
0100
2000
0000
3000
0010
0200
,
0000
0300
1001
0000
0001
0010
0001
0000
,
0101
0000
1000
0000
0010
0000
0100
0010
,
0000
1000
0000
0100
0000
1000
0001
0010
,
0001
0010
0000
0001
0000
0100
0000
0010
,
0000
1100
0000
1001
0000
0001
0010
0000
,
0110
0000
1000
0000
0001
0100
0000
0110
,
0000
1000
0000
0100
1000
0000
0001
0000
,
0010
0100
0010
0000
0001
0100
0001
0000
,
1000
0000
0000
1000
0000
0000
0010
0000
0100
0000
0000
0000
0002
0000
0000
0000
,
0013
1001
1100
0000
,
1000
0010
0100
0000
,
1010
1001
0101
0000
,
0001
0010
0100
0000
,
1100
1010
0101
0000
,
0001
0010
0100
0000
,
0011
0100
1010
0001
,
0010
0000
0000
0010
0000
0000
0100
0000
2000
0000
0000
0000
3000
0000
0000
0000
,
0000
0010
0000
0010
0000
0010
0000
0010
,
0000
0100
0001
0010
,
0000
0001
0000
0001
0000
0001
0000
0001
,
0000
1000
0100
0010
,
0000
0001
0000
0001
0000
1000
0000
1000
,
0010
0100
0010
0000
0100
0001
0100
0000
,
0001
0010
0001
0010
0100
1000
0100
1000
,
0010
0000
0000
0010
0000
0000
0100
0000
0001
0000
0000
0000
1001
0000
0000
0000
,
0000
1100
0000
0001
0010
0001
0010
0000
,
0001
1000
0100
1000
0000
0001
0100
0001
,
0000
0110
0000
1000
0010
1000
0010
0000
,
1000
0001
0100
0000
0001
0010
0100
0010
,
0000
0011
0000
0001
1000
0001
1000
0000
,
0010
0100
0001
0100
0000
0010
1000
0001
,
2000
3100
0020
0031
,
0100
0010
0100
0010
1000
0001
0100
0000
,
0110
0000
1000
0000
0001
0010
0000
0011
,
0000
1000
0100
0000
1000
0010
1000
0000
,
0010
0100
0000
0001
0000
0010
0000
0100
,
0000
1000
0001
1000
0100
1000
0100
0000
,
0110
0000
0001
0000
1000
0010
0000
0110
,
0000
0001
0100
0000
0001
0010
0001
0000
,
1000
0010
1000
0000
0001
0010
0001
0000
,
0100
0010
0100
0010
1000
0001
0100
0000
,
1001
0000
0000
0000
;

//--------------- dance-single - Princess Pamela vs. forcednature as "Captain uwu" ----------------
#NOTEDATA:;
#STEPSTYPE:dance-single;
#DESCRIPTION:Princess Pamela vs. forcednature as "Captain uwu";
#DIFFICULTY:Hard;
#METER:15;
#RADARVALUES:0,0,0,0,0;
#CREDIT:Princess Pamela vs. forcednature as "Captain uwu";
#NOTES:
0000
0000
0000
0000
,
0000
0000
0000
0000
,
1100
0000
0011
0000
0001
0100
0000
0110
,
0000
0010
1000
0100
0000
1000
0001
0010
,
0001
0100
0110
0000
1000
0100
0110
0000
,
1000
0010
0001
0010
0000
0110
0000
0001
,
0010
0000
0011
0000
0001
0100
1000
0100
,
0000
0010
1000
0002
0000
0010
0013
0000
,
0001
0100
0110
0000
1000
0100
0110
0000
,
1000
0000
0001
1000
0001
0000
0100
0000
0000
0000
0010
0000
0110
0000
0000
0000
,
1001
0000
0101
0000
1000
0010
0001
0010
,
0000
0100
0001
1000
0000
0010
0100
0001
,
0010
0100
1100
0000
0010
0100
0101
0000
,
1000
1000
0001
0101
0000
0010
1010
0000
,
0011
0000
0100
0001
0010
0001
0100
0110
,
0000
0010
1000
0002
0000
0100
0103
0000
,
0010
1000
0010
1000
0010
0000
0000
0000
0100
0001
0100
0001
0100
0000
0000
0000
,
1001
0000
1000
0200
0000
0310
0001
0000
,
0101
0000
1100
0000
0101
0000
0000
0001
,
0020
1000
0100
0031
,
1100
0000
0101
0000
1100
0000
0000
1000
,
0020
0001
0100
1030
,
0101
0000
0011
0000
0101
0000
0000
0001
,
0020
1000
0100
0031
,
1100
0000
1000
0010
0110
0000
0100
0001
,
0011
0000
0000
0011
0000
0000
1000
0000
0100
0000
0000
0000
1001
0000
0000
0000
,
1000
0010
0100
1000
0100
0010
1000
0001
,
0010
0010
0100
0110
0000
1000
0001
0100
,
0000
0001
0010
1000
0010
0001
1000
0100
,
0000
1010
0000
0110
0000
0101
0101
0000
,
0001
0010
1000
0010
0001
1000
0100
1100
,
0000
1000
0010
0100
0000
0001
0010
0001
,
1000
0010
1000
0010
1000
0000
0000
0000
0001
0100
0001
0100
0001
0000
0000
0000
,
0011
0000
0000
0011
0000
0000
1000
0000
0010
0000
0100
0000
0001
0000
0010
0000
,
0000
0100
0001
0100
0010
0001
0100
0010
,
1000
0100
0001
0100
0000
1000
0010
1000
,
0000
0001
0100
1000
0100
0001
1000
1010
,
0000
0011
0000
0101
0000
0110
0110
0000
,
0010
1000
0100
1000
0001
0010
0100
0110
,
0000
0010
0001
0100
0010
1000
0001
0000
,
0010
0001
0010
0001
0010
0000
0000
0000
0100
1000
0100
1000
0100
0000
0000
0000
,
0010
0001
0001
0100
0100
0010
1000
0000
,
1001
0000
0101
0000
1100
0000
0001
0010
,
0000
0110
0000
0100
1000
0010
1000
0001
,
0100
2000
0000
3002
0000
0023
0000
2030
,
0000
3100
0100
0010
0100
1000
0001
0000
,
0011
0000
0101
0000
0001
0010
1000
0010
,
0000
0110
0000
0100
1000
0010
0100
0000
,
0001
0010
0001
0010
0001
0000
0000
0000
1000
0100
1000
0100
1000
0000
0000
0000
,
0001
0100
0100
0001
1000
0010
0110
0000
,
1001
0000
1100
0000
1010
0000
0000
0001
,
0010
0000
0000
0010
0000
0000
0100
0000
1000
0000
0000
0000
0100
0000
0000
0000
,
0011
0000
0101
0000
0011
0000
0000
0001
,
0100
0000
0010
0000
1000
0001
0001
0000
,
1100
0000
1010
0000
1100
0000
0000
0001
,
0010
0000
0000
0010
0000
0000
0001
0000
0100
0000
0010
0100
0010
0000
0000
0000
,
1100
0000
0010
0001
0101
0000
0010
1000
,
1100
0000
0000
1100
0000
0000
0001
0000
0021
0000
0000
0000
0130
0000
0000
0000
,
0000
1000
0100
1000
0100
1000
1000
0100
,
0010
0001
0100
0001
0000
0010
0100
0010
,
0000
0001
0001
0100
0100
0001
0100
0001
,
0010
0100
1000
0100
0010
0001
1000
0010
,
0000
0100
0100
0001
0100
0001
0001
0100
,
0010
1000
0100
1000
0001
1000
0100
1000
,
0010
0010
0100
0100
0001
0001
1000
1000
,
1100
0000
0000
1100
0000
0000
0001
0000
0021
0000
0000
0000
0130
0000
0000
0000
,
1001
0010
0001
0100
0001
0010
1000
0010
,
0100
1000
0010
1010
0000
0001
0100
0101
,
0000
0001
0010
1000
0010
0001
1000
1100
,
0000
0000
0110
0000
0110
0000
0000
0010
0001
0000
1000
0001
1000
0000
0000
0000
,
0010
0100
1000
0100
0001
1000
0010
0110
,
0000
0001
0010
0011
0000
1000
0100
0001
,
0100
1000
0100
1000
0100
0000
0000
0000
0010
0001
0010
0001
0010
0000
0000
0000
,
0100
1000
1000
0010
1000
0001
0100
0000
,
0110
0000
0101
0000
1000
1010
0000
1100
,
0000
0001
0010
0010
1000
0010
0001
0000
,
0100
0010
1010
0000
0100
0010
0011
0000
,
1000
0010
0001
0010
0000
0110
1001
0000
,
0001
0010
0001
0100
0001
0011
0000
0110
,
0000
1000
1000
0010
1000
0100
0001
0000
,
0100
1000
0100
1000
0010
0000
0000
0000
0100
0001
0100
0001
0010
0000
0000
0000
,
0002
0000
0100
0000
0203
0000
0010
0000
0320
0000
1000
0000
1030
0001
0000
0000
,
1001
0000
0000
0000
;

//--------------- dance-double - forcednature ----------------
#NOTEDATA:;
#STEPSTYPE:dance-double;
#DESCRIPTION:forcednature;
#DIFFICULTY:Easy;
#METER:9;
#RADARVALUES:0,0,0,0,0;
#CREDIT:forcednature;
#NOTES:
00000000
00000000
00000000
00000000
,
00000000
00000000
00000000
00000000
,
00010000
00001000
00100000
00000000
,
00010000
00010000
00100000
00000000
,
01000000
10000000
00010000
00000000
,
01000000
01000000
00010000
00000000
,
00100000
00001000
00010000
00000000
,
00000100
00000100
00010000
00000000
,
00001000
00010000
00000010
00000000
,
00001000
00001000
00000001
00000000
,
00000110
00000000
00000001
00001000
,
00001000
00000100
00001000
00000000
,
00000100
00010000
00001000
00000000
,
00100000
00010000
00100000
00000000
,
01000000
01000000
10000000
00000000
,
00010000
01000000
00001000
00000000
,
00010000
00001000
00010000
00000100
,
00001000
00000100
00000010
00000000
,
00001001
00001001
00001001
00000000
,
00001000
00000100
00010000
00000000
,
00011000
00011000
00011000
00000000
,
00100000
00010000
01000000
00000000
,
01100000
01100000
01100000
00000000
,
00100000
10000000
00010000
00000000
,
10010000
00000000
01100000
00000000
,
00010000
00000000
00000000
00010000
00000000
00000000
00100000
00000000
00001000
00000000
00000000
00000000
00000000
00000000
00000000
00000000
,
00010000
00000100
00001000
00000100
,
00000010
00000001
00001000
00000010
,
00000000
00000100
00000001
00001000
,
00000100
00000100
00010000
00001000
,
00000000
00100000
00010000
01000000
,
00100000
10000000
00100000
10000000
,
00010000
01000000
00010000
00100000
,
00001000
00000000
00000000
00001000
00000000
00000000
00010000
00000000
00001000
00000000
00000000
00000000
00011000
00000000
00000000
00000000
,
00000000
00000100
00001000
00000100
,
00000010
00000001
00001000
00000010
,
00000000
00010000
00001000
00010000
,
00001000
00100000
00010000
00100000
,
00000000
01000000
10000000
00010000
,
01000000
00100000
10000000
00100000
,
01000000
00010000
00100000
00010000
,
01000000
00000000
00001000
00000000
00010000
00001000
00010000
00000000
,
00011000
00000000
00000100
00001000
,
00000000
00000100
00000010
00000001
,
00000100
00000010
00001000
00000010
,
00010000
00001000
00100000
00010000
,
10010000
00000000
00010000
01000000
,
00001000
00001000
00010000
00000000
,
00000100
00001000
00000100
00000010
,
00000001
00001000
00000001
00000000
,
00001001
00001001
00001001
00000000
,
00001000
00000100
00010000
00000000
,
00011000
00011000
00011000
00000000
,
00100000
00010000
01000000
00000000
,
10010000
10010000
10010000
00000000
,
00010000
00100000
00001000
00000000
,
00011000
00000000
00011000
00000000
,
00000100
00000000
00000000
00000100
00000000
00000000
00001000
00000000
00000010
00000000
00000000
00000000
00000000
00000000
00000000
00000000
,
00000200
00000000
00000001
00000000
,
00000001
00000001
00000001
00000000
,
00000320
00000000
00001000
00000000
,
00001000
00001000
00001000
00000000
,
00020030
00000000
00001000
00000000
,
00001000
00001000
00031000
00000000
,
00100000
00010000
00100000
00010000
,
01000000
00000000
00000000
01000000
00000000
00000000
00100000
00000000
10000000
00000000
00000000
00000000
10010000
00000000
00000000
00000000
,
00010000
00100000
00001000
00010000
,
00000100
00001000
00000010
00000100
,
00000001
00000010
00000100
00010000
,
00001000
00000000
00100000
00000000
00010000
00100000
00010000
00000000
,
10000000
00100000
01000000
00010000
,
00100000
00001000
00010000
00000100
,
00010000
00001000
00010000
00000010
,
00001000
00000000
00000001
00000000
00000100
00000001
00000100
00000000
,
00000110
00000000
00001000
00000100
,
00000100
00010000
00001000
00100000
,
00010000
01000000
00010000
00100000
,
00010000
10000000
00100000
01000000
,
01100000
00010000
10000000
01000000
,
00100000
00001000
00010000
00000100
,
00001000
00001000
00000001
00000001
,
00000010
00000110
00000100
00000110
,
00001001
00000000
00000000
00000000
;

//--------------- dance-double - forcednature ----------------
#NOTEDATA:;
#STEPSTYPE:dance-double;
#DESCRIPTION:forcednature;
#DIFFICULTY:Medium;
#METER:12;
#RADARVALUES:0,0,0,0,0;
#CREDIT:forcednature;
#NOTES:
00000000
00000000
00000000
00000000
,
00000000
00000000
00000000
00000000
,
00010000
00000000
00010000
00000000
00001000
00000000
00100000
00010000
,
00000000
01000000
00000000
00100000
00000000
10000000
00010000
10000000
,
00010000
00000000
00100000
00000000
00001000
00010000
00001000
00000000
,
00010000
00000100
00000000
00000100
00000000
00001000
00000010
00000000
,
00001001
00000000
00000001
00000000
00000100
00000000
00000001
00000010
,
00000000
00000100
00000010
00000100
00000000
00001000
00000100
00000000
,
00010000
00001000
00010000
00000000
00001000
00100000
00001000
00000000
,
00100000
00010000
00100000
00010000
01000000
00000000
01100000
00000000
,
00100000
00000000
10000000
00000000
00010000
01000000
00010000
00000000
,
00100000
00001000
00000000
00010000
00000000
00010000
00000100
00000000
,
00001000
00001010
00000001
00000101
,
00001000
00000100
00000000
00010000
00000000
00010000
00001000
00000000
,
00110000
00000000
10000000
00000000
00100000
00000000
01000000
00010000
,
00000000
00000000
00100000
00000000
01000000
10000000
01000000
00000000
,
00100000
00010000
00100000
00000000
00001000
00010000
00001000
00000000
,
00020200
00000000
00000000
00000000
00000000
00030300
00000000
00000000
,
00001010
00000110
00000101
00000000
,
00001000
00000100
00010000
00000000
,
00011000
00101000
00110000
00000000
,
00100000
00010000
01000000
00000000
,
10100000
01100000
01010000
00000000
,
00010000
00100000
00001000
00000000
,
00011000
00000100
00011000
00000010
,
00001000
00000000
00000000
00001000
00000000
00000000
00000001
00000000
00000200
00000000
00000000
00000000
00000300
00000000
00000000
00000000
,
00000000
00000110
00000000
00000010
00001000
00000010
00001000
00000000
,
00000001
00000010
00000100
00001000
00000000
00000100
00010000
00001000
,
00000000
00011000
00000000
00100000
00010000
00100000
00010000
00000000
,
01000000
00100000
00000000
00100000
00000000
10000000
00010000
01000000
,
00000000
10010000
00000000
10000000
00100000
10000000
00100000
00000000
,
01000000
00010000
00100000
01000000
00000000
00100000
00001000
00010000
,
00000000
00000100
00001000
00000000
00000010
00000100
00000010
00000000
,
00000100
00000000
00000000
00000100
00000000
00000000
00000001
00000000
00000010
00000000
00000000
00000000
00001001
00000000
00000000
00000000
,
00000000
00001100
00000000
00010000
00001000
00010000
00001000
00000000
,
00100000
00010000
01000000
00100000
00000000
10000000
01000000
10000000
,
00000000
00010000
00000000
00010000
00000000
00100000
00001000
00010000
,
00000000
00011000
00000000
00011000
00000000
00000100
00001000
00000010
,
00000000
00000110
00000000
00000100
00000001
00000100
00000001
00000000
,
00000010
00000100
00001000
00000100
00000000
00010000
00001000
00010000
,
00000000
00100000
01000000
00100000
00000000
10000000
01000000
10000000
,
00000000
00010000
00100000
00000000
00001000
00010000
00001000
00000000
,
00011000
00000000
00000100
00000000
00001000
00000000
00000010
00000100
,
00000000
00000100
00000000
00000001
00000010
00000000
00000001
00001000
,
00000100
00001000
00000000
00000010
00000000
00010000
00000000
00001000
,
00000000
00011000
00000000
00101000
00000000
00100000
00010000
00000000
,
01010000
00000000
10000000
00000000
00100000
01000000
00000000
01100000
,
00000000
00010000
00000000
00100000
00001000
00000000
00010000
00000000
,
00000100
00001000
00000100
00000000
00000010
00000001
00000010
00000000
,
00000100
00000000
00000000
00000100
00000000
00000000
00010000
00000000
00001000
00000000
00000000
00000000
00100000
00000000
00000000
00000000
,
00110000
10010000
11000000
00000000
,
00010000
00100000
00001000
00000000
,
00011000
00010010
00001010
00000000
,
00000010
00001000
00000100
00000000
,
00000011
00001001
00001100
00000000
,
00010000
00001000
00100000
00000000
,
00110000
01000000
10100000
00010000
,
00100000
00000000
00000000
00100000
00000000
00000000
00001000
00000000
00020000
00000000
00000000
00000000
00030000
00000000
00000000
00000000
,
00000000
00000010
00000000
00000010
00000000
00000010
00000000
00000010
,
00000000
00001000
00000001
00000100
,
00000000
00001000
00000000
00001000
00000000
00001000
00000000
00001000
,
00000000
00010000
00100000
10000000
,
00000000
01000000
00000000
01000000
00000000
00010000
00000000
00001000
,
00010000
00001000
00010000
00000000
00000100
00001000
00000100
00000000
,
00000010
00000001
00000010
00000001
00000100
00000010
00000100
00000010
,
00001000
00000000
00000000
00001000
00000000
00000000
00000100
00000000
00010000
00000000
00000000
00000000
00011000
00000000
00000000
00000000
,
00000000
00110000
00000000
00100000
00010000
00100000
00010000
00000000
,
01000000
00100000
10000000
00100000
00000000
01000000
00010000
01000000
,
00000000
01100000
00000000
00010000
00100000
00010000
00100000
00000000
,
00001000
00010000
00000100
00000000
00001000
00000010
00000100
00000010
,
00000000
00000110
00000000
00000100
00000001
00000100
00000001
00000000
,
00001000
00000010
00010000
00001000
00000000
00100000
00010000
00100000
,
02000000
13000000
00200000
01300000
,
00010000
00100000
00010000
00100000
00001000
00010000
00000100
00000000
,
00001100
00000000
00001000
00000000
00000010
00000100
00000000
00000110
,
00000000
00000001
00000100
00000000
00000001
00000010
00000001
00000000
,
00000010
00000100
00000000
00010000
00000000
00001000
00000000
00100000
,
00000000
00010000
01000000
00010000
10000000
00100000
10000000
00000000
,
01100000
00000000
00010000
00000000
00100000
00001000
00000000
00011000
,
00000000
00000100
00001000
00000000
00000010
00001000
00000010
00000000
,
00000100
00000100
00000001
00000000
00000010
00000010
00000001
00000000
,
00001000
00000100
00001000
00000100
00010000
00001000
00100000
00000000
,
10010000
00000000
00000000
00000000
;

//--------------- dance-double - Princess Pamela vs. forcednature as "Captain uwu" ----------------
#NOTEDATA:;
#STEPSTYPE:dance-double;
#DESCRIPTION:Princess Pamela vs. forcednature as "Captain uwu";
#DIFFICULTY:Hard;
#METER:15;
#RADARVALUES:0,0,0,0,0;
#CREDIT:Princess Pamela vs. forcednature as "Captain uwu";
#NOTES:
00000000
00000000
00000000
00000000
,
00000000
00000000
00000000
00000000
,
00001000
00010000
00001000
00100000
00010000
01000000
00000000
01100000
,
00000000
00100000
10000000
01000000
10000000
00010000
00100000
00010000
,
00100000
00001000
00010000
00000000
00000010
00010000
00001000
00000000
,
00000010
00000100
00001000
00000100
00000000
00000010
00000011
00000000
,
00000101
00000000
00001100
00000000
00010000
00001000
00100000
00001000
,
00000000
00010000
00100000
20000000
00000000
01000000
31000000
00000000
,
10000000
00010000
00110000
00000000
00100000
00001000
00011000
00000000
,
00000100
00000000
00001000
00000100
00001000
00000000
00000010
00000000
00000000
00000000
00000100
00000000
00000101
00000000
00000000
00000000
,
00000001
00000010
00000001
00001000
00000100
00010000
00001000
00010000
,
00000000
00100000
01000000
00010000
00000000
00100000
01000000
10000000
,
00010000
00100000
00101000
00000000
00001000
00010000
00010100
00000000
,
00000100
00000100
00001000
00000010
00000000
00000110
00000101
00000000
,
00001000
00000010
00010000
00001000
01000000
00010000
00100000
00110000
,
00000000
10000000
01000000
00020000
00000000
00001000
00031000
00000000
,
00010000
00000100
00010000
00000100
00010000
00000000
00000000
00000000
00001000
01000000
00001000
01000000
00001000
00000000
00000000
00000000
,
00011000
00000000
00010000
00100000
10000000
00010000
01000000
00000000
,
01100000
00000000
10100000
00000000
01010000
00000000
00010000
00100000
,
00001000
00000000
00000000
00001000
00000000
00000000
00010000
00000000
00000100
00000000
00001000
00000000
00000010
00000000
00000000
00000000
,
00000110
00000000
00000101
00000000
00001010
00000000
00000001
00000010
,
00000200
00000000
00000001
00000000
00000310
00001000
00010000
00000000
,
00011000
00000000
00101000
00000000
01010000
00000000
10000000
00100000
,
00010000
00000000
00000000
00010000
00000000
00000000
00001000
00000000
01000000
00000000
00000000
00000000
01100000
00000000
00000000
00000000
,
00100000
10000000
01000000
00010000
00001000
00000100
00000001
00000000
,
00000010
00000000
00000000
00000110
00000000
00000000
00001000
00000000
00000010
00000000
00000100
00000000
00001001
00000000
00000000
00000000
,
00000001
00000010
00000001
00000010
00001000
00000010
00000100
00010000
,
00001000
00100000
01000000
00010000
00000000
01000000
10000000
00010000
,
00100000
00001000
00010000
00000010
00001000
00000010
00010000
00001000
,
00000000
00011000
00000000
00010100
00000000
00001100
00001100
00000000
,
00001000
00000010
00000100
00000001
00000010
00000100
00010000
00001000
,
00100000
00010000
01000000
10000000
00000000
01000000
00010000
00100000
,
00001000
00010000
00001000
00010000
00000100
00000000
00000000
00000000
00010000
00001000
00010000
00001000
01000000
00000000
00000000
00000000
,
01010000
00000000
00000000
01010000
00000000
00000000
00010000
00000000
00100000
00000000
10000000
00000000
00100000
00000000
00001000
00000000
,
00000000
00010000
00000010
00000100
00001000
00010000
00000010
00001000
,
00000001
00000010
00001000
00000010
00000000
00000100
00010000
00001000
,
00000000
00011000
00000000
00101000
00000000
00110000
00000000
10000000
,
01000000
00010000
01000000
00010000
00001000
00000010
00000001
00000100
,
00000000
00000010
00001000
00000010
00001000
00000001
00000100
00001000
,
00010000
00100000
01000000
00010000
00000000
10000000
01000000
00010000
,
00001000
00100000
00001000
00100000
00001000
00000000
00000000
00000000
00010000
00000010
00010000
00000010
00010000
00000000
00000000
00000000
,
00001000
00000010
00000100
00010000
00001000
00000010
00000001
00000000
,
00000011
00000000
00001100
00000000
00001000
00000010
00000100
00000110
,
00000000
00000001
00000100
00000001
00000010
00000001
00000010
00001000
,
00010000
00000100
00010000
00001000
00100000
00001000
00010000
01000000
,
00000000
01100000
00000000
00101000
00000000
00011000
00011000
00000000
,
01000000
00010000
10000000
00100000
00010000
00100000
10000000
00010000
,
00000000
01000000
00001000
00100000
01000000
00010000
00001000
00100000
,
00010000
01000000
00010000
01000000
00001000
00000000
00000000
00000000
00010000
00001000
00010000
00001000
00010000
00000000
00000000
00000000
,
00000100
00001000
00000010
00000100
00001000
00010000
00100000
00000000
,
01100000
00000000
01010000
00000000
10100000
00000000
10000000
01000000
,
00010000
00000000
00000000
00010000
00000000
00000000
00001000
00000000
00000010
00000000
00000000
00000000
00000100
00000000
00000000
00000000
,
00000110
00000000
00001100
00000000
00000011
00000000
00000001
00000100
,
00002000
00000000
00010000
00000000
00103000
00010000
00110000
00000000
,
11000000
00000000
01010000
00000000
11000000
00000000
00010000
00100000
,
00001000
00000000
00000000
00001000
00000000
00000000
00010000
00000000
00000100
00000000
00001000
00000100
00001000
00000000
00000000
00000000
,
00001010
00000000
00000010
00000100
00000110
00000000
00000100
00000001
,
00000011
00000000
00000000
00000011
00000000
00000000
00001000
00000000
00000100
00000000
00010000
00000000
00001000
00000000
00000000
00000000
,
00100000
00010000
00100000
00010000
01000000
00100000
01000000
00100000
,
10000000
01000000
00010000
00001000
00000000
00010000
01000000
10000000
,
00000000
00010000
00100000
00010000
00100000
00001000
00010000
00001000
,
00010000
00000010
00001000
00000100
00000010
00000001
00001000
00000010
,
00000000
00000100
00001000
00000100
00001000
00010000
00001000
00010000
,
00100000
00010000
00100000
10000000
00100000
10000000
01000000
10000000
,
01000000
01000000
00010000
00010000
00001000
00001000
00000010
00000010
,
00000110
00000000
00000000
00001100
00000000
00000000
00000011
00000000
00000011
00000000
00001000
00000000
00000001
00000100
00000001
00000000
,
00000000
00010000
00000100
00001000
00000010
00000100
00001000
00010000
,
01000000
00100000
00010000
00110000
00000000
10000000
01000000
00010000
,
00001000
00100000
00010000
00100000
00001000
00000010
00000100
00001100
,
00000000
00000001
00000010
00000011
00000000
00000100
00000101
00000000
,
00001000
00000010
00000100
00000001
00000010
00001000
00010000
00001000
,
00100000
00010000
01000000
01100000
00000000
10000000
01000000
00010000
,
00001000
00100000
00010000
00100000
00001000
00000000
00000000
00000000
00010000
00000010
00001000
00000010
00010000
00000000
00001000
00000000
,
00000010
00000001
00000100
00001000
00010000
01000000
00100000
00000000
,
00110000
00000000
11000000
00000000
10000000
10100000
00000000
01100000
,
00000000
00010000
00100000
00100000
00001000
00000010
00000100
00010000
,
00001000
00000010
00000100
00001100
00000000
00010000
00001000
00101000
,
00000000
00110000
00000000
01010000
00000000
01100000
01100000
00000000
,
10000000
01000000
00010000
01000000
10000000
00100000
00010000
00001000
,
00000000
00000010
00000001
00000100
00001000
00000100
00000001
00000010
,
00001000
00010000
00001000
00010000
00000100
00000000
00000000
00000000
00010000
00001000
00010000
00001000
01000000
00000000
00000000
00000000
,
00100000
00000000
00010000
00000000
00001000
00000000
00000100
00000000
00000010
00000000
00001000
00000000
00000001
00000100
00000000
00000000
,
00001001
00000000
00000000
00000000
;
