#VERSION:0.83;
#TITLE:ちょえちょえまぎか;
#SUBTITLE:;
#ARTIST:Pizuya's Cell;
#TITLETRANSLIT:Choe choe magica;
#SUBTITLETRANSLIT:;
#ARTISTTRANSLIT:;
#GENRE:ROCK;
#CREDIT:;
#MUSIC:Choe choe magica.ogg;
#BANNER:Choe choe magica.png;
#BACKGROUND:Choe choe magica-bg.png;
#CDTITLE:./CDTitles/bm IIDX 30 RESIDENT.png;
#SAMPLESTART:67.786;
#SAMPLELENGTH:15.000;
#SELECTABLE:YES;
#OFFSET:0.202;
#BPMS:0.000=180.000;
#STOPS:;
#TIMESIGNATURES:0.000=4=4;
#DISPLAYBPM:180.000;
#BGCHANGES:4.000=Choe choe magica.mp4=1.000=0=0=0=StretchNoLoop====,
99999.000=-nosongbg-=1.000=0=0=0=StretchNoLoop====
;
#FGCHANGES:;

//--------------- dance-single - forcednature ----------------
#NOTEDATA:;
#STEPSTYPE:dance-single;
#DESCRIPTION:forcednature;
#DIFFICULTY:Beginner;
#METER:4;
#RADARVALUES:0,0,0,0,0;
#CREDIT:forcednature;
#NOTES:
0000
0000
0000
0000
,
0000
0000
0000
0000
,
0000
0000
0000
0000
,
1000
0000
0000
0000
,
0100
0000
0000
0000
,
0010
0000
0000
0000
,
0001
0000
0001
0000
,
0100
0000
0000
0000
,
0010
0000
0010
0000
,
1000
0000
0001
0000
,
0100
0000
0000
0000
,
0001
0000
0000
0000
,
1000
0000
1000
0000
,
0100
0000
1000
0000
,
0001
0000
0000
0000
,
0010
0000
0100
0000
,
0010
0000
0000
0000
,
0001
0000
0100
0000
,
0001
0000
0000
0000
,
1000
0000
1000
0000
,
0100
0000
0000
0000
,
1000
0000
0010
0000
,
0100
0000
0001
0000
,
1001
0000
0000
0000
,
0110
0000
0000
0000
,
1001
0000
0000
0000
,
0010
0000
0100
0000
,
1001
0000
0000
0000
,
0110
0000
0000
0000
,
1001
0000
0000
0000
,
0100
0000
0010
0000
,
1001
0000
0000
0000
,
1000
0000
0000
0000
,
0100
0000
0000
0000
,
0010
0000
0010
0000
,
0001
0000
0000
0000
,
0100
0000
0000
0000
,
0010
0000
1000
0000
,
0010
0000
0000
0000
,
1000
0000
0000
0000
,
0100
0000
0000
0000
,
0010
0000
0001
0000
,
0010
0000
0000
0000
,
0100
0000
0100
0000
,
1000
0000
0001
0000
,
0100
0000
0000
0000
,
0010
0010
0010
0000
,
1000
0000
0000
0000
,
0001
0000
0001
0000
,
0010
0000
0100
0000
,
1000
0000
0000
0000
,
1001
0000
0000
0000
,
0110
0000
0000
0000
,
1001
0000
0000
0000
,
0220
0000
0330
0000
,
0001
0000
0001
0000
,
0100
0000
0001
0000
,
0010
0010
0010
0000
,
0100
0000
1000
0000
,
1001
0000
0000
0000
,
0110
0000
0000
0000
,
1001
0000
0000
0000
,
1000
0000
0010
0000
,
1001
0000
0000
0000
,
0110
0000
0000
0000
,
1001
0000
0000
0000
,
0001
0000
0010
0000
,
0100
0000
0100
0000
,
1000
0000
0010
0000
,
0100
0000
0001
0000
,
1000
1000
0010
0000
,
1000
0000
0100
0000
,
0010
0000
0100
0000
,
1000
0000
0001
0000
,
0100
0010
0100
0010
,
0100
0000
0001
0000
,
0010
0000
0001
0000
,
1000
0000
0100
0000
,
1000
1000
0001
0000
,
0100
0000
0010
0000
,
1000
0000
0010
0000
,
0100
0000
0001
0000
,
0010
0010
0001
0000
,
1001
0000
1000
0000
,
0010
0000
0100
0000
,
0001
0000
0010
0010
,
0000
0000
0002
2003
,
3000
0000
0000
0000
;

//--------------- dance-single - forcednature ----------------
#NOTEDATA:;
#STEPSTYPE:dance-single;
#DESCRIPTION:forcednature;
#DIFFICULTY:Easy;
#METER:7;
#RADARVALUES:0,0,0,0,0;
#CREDIT:forcednature;
#NOTES:
0000
0000
0000
0000
,
0000
0000
0000
0000
,
0000
0000
0000
0000
,
1001
0000
1000
0100
,
1000
0000
0010
0000
,
0100
0000
0001
0010
,
0001
0000
0100
0000
,
0010
0010
1000
1000
,
0010
0100
0001
1000
,
0020
0000
0130
0001
,
1000
0000
0100
0000
,
0010
0010
0001
0001
,
0010
0100
1000
0001
,
0020
0000
0130
1000
,
0001
0100
0010
1000
,
0001
0000
0010
0100
,
1000
0000
0010
0100
,
0001
0000
1000
0100
,
0010
0010
0001
0001
,
1000
0000
0010
0100
,
0001
0000
0010
0100
,
1000
0000
0001
0100
,
0010
1000
0001
0100
,
1001
0000
1000
0100
,
1001
0000
0001
0100
,
1001
0000
1000
0010
,
0100
0001
0010
0000
,
0110
0000
1000
0010
,
0110
0000
0001
0010
,
0110
0000
1000
0010
,
0100
0001
1000
0100
,
0110
0000
0001
0001
,
0010
0010
0100
0000
,
1000
0000
0001
0001
,
0100
0100
0010
0000
,
1000
0100
1000
0000
,
0010
1000
0010
0000
,
0110
0000
0001
0100
,
0001
0000
0010
0000
,
0001
1000
0001
0000
,
1000
0100
1000
0000
,
0110
0000
0001
0010
,
0001
0000
0100
0010
,
0000
1000
1000
0000
,
0100
1000
0001
0000
,
0100
0010
1000
0000
,
0001
0010
0100
1000
,
0000
0001
0100
0001
,
1000
0010
1000
0000
,
0001
0010
0100
1000
,
0020
0000
0000
0030
,
1001
0000
1000
0100
,
1001
0000
0001
0010
,
1001
0000
1000
0010
,
0220
0000
0330
0000
,
0001
0001
0010
0001
,
1000
1000
0010
1000
,
0100
0000
0000
0100
0000
0000
0100
0000
,
0000
0010
0001
1000
,
1001
0000
1000
0010
,
1001
0000
0001
0100
,
1001
0000
1000
0100
,
0010
0001
1000
0010
,
0110
0000
0001
0010
,
0110
0000
1000
0100
,
0110
0000
0001
0100
,
0010
1000
0001
0010
,
1001
1000
0100
0010
,
1001
0001
0100
0010
,
1001
1000
0100
0010
,
0001
0100
0010
1000
,
0110
0001
0010
0100
,
0110
1000
0010
0100
,
0110
0001
0010
0100
,
2000
3020
0230
0302
,
1003
0000
0100
1000
0000
0000
0001
0000
,
0010
0000
0100
0010
0000
0000
0001
0000
,
1000
0000
0010
1000
0000
0000
0001
0000
,
0010
0010
0100
1000
,
0010
0000
0010
0100
0000
0000
0001
0000
,
0010
0110
0100
0110
,
1000
0000
1000
0100
0000
0000
1000
0000
,
0010
0100
0001
0010
,
1001
2000
3020
0230
,
0302
2003
3200
0320
,
0032
0203
0320
2030
,
3000
0000
0200
0320
,
0030
0000
0000
0000
;

//--------------- dance-single - forcednature ----------------
#NOTEDATA:;
#STEPSTYPE:dance-single;
#DESCRIPTION:forcednature;
#DIFFICULTY:Medium;
#METER:10;
#RADARVALUES:0,0,0,0,0;
#CREDIT:forcednature;
#NOTES:
0000
0000
0000
0000
,
0000
0000
0000
0000
,
0000
0000
0000
0000
,
0001
0100
0001
0100
,
0010
1000
0001
0000
,
1000
0100
1000
0100
,
0010
0001
1000
0000
,
0010
0100
0001
0100
,
0010
1000
0001
0010
,
0200
0300
0010
0001
,
2000
3000
0001
1000
,
0010
0100
0001
0100
,
0010
1000
0001
0010
,
0200
0300
1000
0001
,
0100
0010
1000
0001
,
0010
0001
0010
0000
0100
0000
1000
0000
,
0010
1000
0010
0000
0100
0000
0001
0000
,
1000
0100
1000
0000
0001
0000
0100
0000
,
0020
1030
2000
3100
,
1000
0001
1000
0000
0010
0000
0100
0000
,
0001
0010
0001
0000
0010
0000
0100
0000
,
1000
0000
1000
0010
0000
0010
0100
0000
,
0001
1000
0100
0010
,
0110
0000
1000
0001
0000
0000
0100
0000
,
0110
0000
0001
1000
0000
0000
0100
0000
,
0110
0000
1000
0001
0000
0000
0100
0000
,
0002
0023
0230
1300
,
1001
0000
1000
0010
0000
0000
0100
0000
,
1001
0000
0001
0010
0000
0000
0100
0000
,
1001
0000
1000
0010
0000
0000
0100
0000
,
0002
0023
0230
2300
,
3010
0100
0001
0100
,
0010
1000
0010
0000
1000
0000
0100
0000
,
1000
0001
0010
0001
,
0100
0001
0100
0000
0010
0100
0010
0000
,
1001
1000
0100
1000
,
0010
0100
0001
0010
,
0200
0300
1000
0001
,
0020
0030
0100
1000
,
0001
1000
0010
1000
,
0001
0100
0010
0100
,
0002
0003
1000
0100
,
0010
0001
1000
0010
,
0000
0100
0000
0100
0000
0100
0001
0000
,
1000
0010
1000
0001
,
0010
0001
0010
0000
0100
0000
1000
0000
,
0020
0230
0302
2003
,
3000
0001
0000
0001
0000
0010
0001
0000
,
1000
0100
1000
0000
0001
1000
0001
0000
,
0100
0001
0100
0000
0010
0000
1000
0000
,
0002
0003
0020
0030
0200
0300
2000
3000
,
0202
0303
1000
0010
,
2020
3030
0001
0010
,
0022
0033
1000
0100
,
1000
0010
1000
0000
0010
0100
0010
0000
,
0110
0001
0010
0100
,
0110
1000
0010
0100
,
0001
0000
0001
1000
0000
1000
0100
0000
,
0110
0000
0001
0100
0000
0100
0010
0000
,
1001
0000
1000
0100
0000
1000
0010
0000
,
1001
0000
0001
0100
0000
0001
0010
0000
,
1001
0000
1000
0100
0000
1000
0010
0000
,
0100
0010
0100
0000
0001
0000
0010
0000
,
1001
0000
0001
0010
0000
0001
0100
0000
,
1001
0000
1000
0010
0000
1000
0100
0000
,
1001
0000
0001
0010
0000
0001
0100
0000
,
0010
0100
0010
0000
1000
0000
0001
0000
,
0010
0001
0010
0100
0000
1000
0100
0000
,
1000
0010
0100
0010
0000
0100
0001
0000
,
1000
0100
1000
0001
0000
0100
0001
0000
,
0100
0010
0100
0000
0010
1000
0010
0000
,
1001
0000
0001
0010
0000
0100
0010
0000
,
1001
0000
1000
0010
0000
0100
0010
0000
,
1001
0000
1000
0100
0000
0010
0100
0000
,
0011
0101
0110
1010
,
1000
0100
1000
0001
0000
0001
0010
0000
,
0001
0100
0001
1000
0000
1000
0010
0000
,
0100
0001
0010
0001
0000
0001
1000
0000
,
0100
0010
0001
0000
0100
0010
1000
0000
,
0001
0010
0100
0010
0000
0010
0001
0000
,
0101
0101
1010
1010
,
0001
1000
0100
1000
0000
1000
0010
0000
,
0100
0001
0100
0000
0001
0010
0001
0000
,
1001
2000
3200
0320
,
0032
2003
3020
0230
,
0302
0000
0013
0100
0010
0000
0220
0000
,
0330
0000
0001
0100
0020
0000
2030
0000
,
3000
0000
0000
0000
;

//--------------- dance-single - forcednature ----------------
#NOTEDATA:;
#STEPSTYPE:dance-single;
#DESCRIPTION:forcednature;
#DIFFICULTY:Hard;
#METER:14;
#RADARVALUES:0,0,0,0,0;
#CREDIT:forcednature;
#NOTES:
0000
0000
0000
0000
,
0000
0000
0000
0000
,
0000
0000
0000
0000
,
1000
0100
1000
0100
0010
0001
0010
0001
,
1000
0010
0100
0001
0010
0000
1001
0000
,
0001
0010
0001
0010
0100
1000
0100
1000
,
0001
0000
0000
0100
0001
0000
0000
0100
0010
0000
0000
1000
0100
0000
0000
0000
,
1000
0010
0100
0010
1000
0001
0100
0010
,
1000
0001
0010
0100
0010
0001
1000
0010
,
0200
0000
0301
1000
0100
1000
0001
0010
,
0200
2300
3002
0203
,
0310
1000
0001
1000
0010
0100
0001
0100
,
0010
1000
0001
0010
0001
1000
0100
0010
,
0002
0000
1003
0010
1000
0001
0100
0010
,
2000
3200
0320
0032
,
0103
0010
1000
0010
0100
0001
1000
0100
,
1000
0010
0001
0000
0010
1000
0001
0100
,
0001
0010
1000
0000
0010
0001
1000
0100
,
2000
3020
0230
0302
,
1003
0100
0010
0100
1000
0001
0010
0001
,
1000
0100
0001
0000
0100
1000
0001
0010
,
0001
0000
0100
0010
0000
1000
0100
0000
,
0010
0001
0100
0010
1000
0100
0010
0000
,
1001
0000
0001
0100
1000
0100
0001
0000
,
1001
0000
1000
0100
0001
0100
1000
0000
,
1001
0000
0001
0010
1000
0010
0001
0000
,
1000
0010
0100
0010
0001
0010
1000
0001
,
0100
0000
0001
0010
1000
0010
0001
0000
,
1001
0000
1000
0010
0001
0010
1000
0000
,
1001
0000
0001
0100
1000
0100
0001
0000
,
1000
0100
0010
0100
0001
0100
1000
0001
,
0010
0000
0100
0010
0100
1000
0010
1000
,
0010
0100
0001
0100
0001
0010
0100
1000
,
0000
0001
0100
0010
0100
0010
1000
0001
,
0010
0000
0000
0100
0010
0000
0000
0100
1000
0000
0000
0001
0010
0000
0000
0000
,
0001
0100
0001
0100
1000
0100
1000
0100
,
0001
1000
0010
0100
0001
0100
0010
1000
,
0002
0000
0013
0100
1000
0010
0100
0001
,
0010
0101
0110
1001
,
1000
0100
1000
0100
0001
0100
0001
0100
,
1000
0001
0010
0100
1000
0100
0010
0001
,
2000
0000
3010
0100
0001
0010
0100
1000
,
0010
1100
0110
1001
,
0001
0100
0000
0110
0000
0010
1000
0001
,
0010
0100
1000
0000
0010
0100
0001
0000
,
1000
0001
1000
0000
0010
0000
0000
0000
0100
0000
0001
0000
1000
0000
0100
0000
,
0010
0000
0000
0010
0001
0000
0000
0001
0100
0000
0000
0100
0010
0000
0000
0000
,
1000
0100
1000
0001
0100
0000
0110
0000
,
0010
0000
0000
0010
1000
0000
0000
1000
0001
0000
0000
0001
0010
0000
0000
0000
,
0100
1000
0010
0100
0001
0010
0100
1000
,
0002
0003
0200
0300
0020
0030
2000
3000
,
0100
0100
0020
0000
0031
1000
0010
0100
,
0001
0001
1000
0000
0100
0010
0001
0100
,
0010
0010
2000
0000
3001
0010
0100
1000
,
0020
0000
0130
0001
1000
0100
0010
0001
,
0100
0010
1000
0010
0100
0001
1000
0001
,
0100
0000
0110
0000
0010
1000
0001
0010
,
0100
1000
1000
0010
0100
0100
0001
0010
,
0010
0000
0001
0100
0010
1000
0100
0000
,
1001
0000
1000
0100
0001
0100
1000
0000
,
0110
0000
0001
0100
1000
0100
0001
0000
,
0110
0000
1000
0010
0001
0010
1000
0100
,
1000
0001
0010
0001
1000
0010
0100
0001
,
1001
0000
1000
0100
0001
0100
1000
0000
,
1001
0000
0001
0100
1000
0100
0001
0000
,
1001
0000
1000
0010
0001
0010
1000
0001
,
0100
0010
0010
1000
0100
0100
0010
0001
,
0100
0010
1000
1100
0000
0001
0010
0100
,
0010
0001
0100
0101
0000
0001
0010
0100
,
0010
0001
1000
1010
0000
0001
0100
0001
,
1000
0010
0001
0010
1000
0001
0100
0001
,
1000
0100
0010
0110
0000
1000
0001
0100
,
0001
1000
0010
0110
0000
0001
1000
0100
,
1000
0001
0010
0110
0000
0001
1000
0010
,
1000
0100
0000
0000
0100
0010
0000
0000
0010
0001
0000
0000
0001
1000
0000
0000
,
0010
0100
0001
0011
1000
0100
0010
0001
,
1000
0010
0100
0110
0001
1000
0100
1000
,
0010
0100
0001
0011
1000
0010
0100
0001
,
1000
0100
0001
0100
1000
0010
0001
0010
,
1000
0100
1000
1010
0001
0100
0010
1000
,
0001
0010
0100
0110
0001
1000
0100
1000
,
0010
0100
0001
0011
1000
0010
0100
0001
,
1000
0010
0001
0010
1000
0100
0001
0100
,
0010
0000
0000
0001
0000
0001
0100
0000
0100
0010
0000
1000
,
0001
0000
0000
0010
0000
0010
0100
0000
0100
1000
0000
0001
,
0100
0000
0001
0010
1000
0000
0110
0000
,
0000
0000
0000
0000
1000
0001
1000
0000
0002
0000
0000
0000
0023
0000
0000
0000
,
0030
0000
0000
0000
;

//--------------- dance-single - forcednature ----------------
#NOTEDATA:;
#STEPSTYPE:dance-single;
#DESCRIPTION:forcednature;
#DIFFICULTY:Challenge;
#METER:17;
#RADARVALUES:0,0,0,0,0;
#CREDIT:forcednature;
#NOTES:
0000
0000
0000
0000
,
0000
0000
0000
0000
,
0000
0000
0000
0000
,
0001
0100
0010
0100
0001
1000
0010
1000
,
0001
0010
0100
1000
1001
0000
0110
0000
,
1000
0100
0010
0100
1000
0001
0010
0001
,
1000
0000
0010
1000
0010
0000
0100
0010
0100
0000
0001
0100
0001
0000
0010
0000
,
0001
0100
0010
0100
1000
0100
0001
0100
,
0010
1000
0001
0010
0100
1000
0001
0100
,
0120
0000
1030
0100
0001
0100
1000
0001
,
0010
0000
0000
0010
0001
0000
0000
0001
1000
0000
0000
1000
0010
0000
0000
0010
,
1000
0100
0010
0100
0001
0100
1000
0100
,
0010
0001
1000
0010
0100
0001
1000
0100
,
0120
0000
0031
0100
1000
0100
0001
1000
,
0010
0000
0000
0010
0100
0000
0000
0100
0001
0000
0000
0001
0020
0000
0000
0000
,
0130
1000
0100
0000
1000
0000
0100
0000
1000
0010
1000
0000
0010
0000
0100
0000
,
0001
0000
0010
0000
0011
0000
0000
0000
0001
0100
0001
0000
1000
0000
0010
0000
,
1000
0100
1001
0000
1000
0010
0100
0001
,
0010
0000
0001
0010
0001
0000
0100
0000
0010
1000
0010
1000
0001
0010
0100
1000
,
0010
1000
0010
1000
0001
0010
0100
1000
,
0010
0100
0101
0000
1000
0100
1000
0001
,
0010
0001
0010
0100
0010
0000
0001
1000
0100
1000
0001
0000
0100
0010
1000
0001
,
0100
0010
0000
0010
0100
0000
0001
0010
0100
0000
1000
0010
0100
0000
0001
0000
,
0110
0000
0000
1000
0100
0000
1000
0001
0010
0000
0001
1000
0100
0000
0010
0000
,
0110
0000
0000
0001
0100
0000
0001
1000
0010
0000
1000
0001
0100
0000
0010
0000
,
0110
0000
0000
1000
0100
0000
1000
0001
0010
0000
0001
1000
0100
0000
0010
0000
,
0001
0000
0100
0001
0100
0000
0010
0100
0010
0000
1000
0010
1000
0000
0100
0000
,
1001
0000
0000
0001
0010
0000
0100
0010
0001
0000
1000
0100
0010
0000
0100
0000
,
1001
0000
0000
1000
0010
0000
0100
0010
1000
0000
0001
0100
0010
0000
0100
0000
,
1001
0000
0000
0001
0010
0000
0100
0010
0001
0000
1000
0100
0010
0000
0100
0000
,
1000
0000
0010
1000
0010
0000
0100
0010
0000
0100
0001
0000
1000
0001
1000
0001
,
0100
0010
1000
0100
0010
0100
1000
0010
,
0100
0001
0010
0001
1000
0010
0100
0001
,
0000
0010
0100
0010
0001
0100
0010
0100
,
0001
0000
1000
0100
1000
0100
1000
0100
0010
0001
0000
0001
0100
0000
0010
1000
,
0001
0100
1000
0100
0010
0100
1000
0100
,
0001
0000
1000
0000
0010
0000
0100
0000
0001
0000
0010
0000
0100
0000
1000
0001
,
0020
0000
0031
0100
0001
0010
1000
0010
,
0001
0000
0100
0001
0100
0000
0010
0100
0010
0000
1000
0010
1000
0000
0001
0000
,
1000
0100
0001
0100
0010
0100
0001
0100
,
1000
0000
0001
0000
0010
0000
0100
0000
1000
0000
0010
0100
0010
0000
0100
0001
,
0200
0000
0310
1000
0001
0010
0100
1000
,
1100
0000
0000
0000
0001
0000
0100
0000
0010
0000
1000
0001
1000
0001
0100
0010
,
1000
0100
0000
1100
0000
0001
0010
0100
,
1000
0010
0002
0000
1003
0100
0002
0000
,
1003
0010
0100
0001
2000
0000
0000
0000
3001
0000
0010
0000
0100
0000
1000
0000
,
0010
0100
0001
0100
0010
1000
0001
1000
0010
0100
0010
0100
0001
1000
0001
0100
,
0000
0001
0010
1000
0001
0100
1000
0000
,
0001
0010
0001
0010
0100
1000
0100
1000
0001
0100
0010
0100
0001
1000
0010
1000
,
0001
0000
0010
0100
1000
0000
0010
0000
0100
0001
1000
0001
0100
0010
1000
0010
,
0200
0300
0002
0003
2000
3000
0020
0030
,
1001
0001
0020
0000
0130
1000
0001
0100
,
0110
1000
0100
0000
0010
0001
1000
0010
,
1001
1000
0200
0000
0310
0001
1000
0010
,
1000
0100
1000
0001
0010
0001
1000
0001
0100
0010
0100
0010
1000
0001
0100
0010
,
1000
0001
0010
0001
0011
1000
0100
1000
,
0010
0100
0000
0000
1001
0000
0000
0000
0001
0000
0100
0000
0010
0000
1000
0000
,
0001
0010
0001
1000
0100
0000
1000
0010
1000
0001
0100
0000
0010
1000
0001
0100
,
0010
0000
1000
0000
0100
1000
0001
0000
1000
0100
0010
0001
0100
0000
0010
0000
,
1001
0000
0000
1000
0100
0000
0010
0001
1000
0000
0100
1000
0010
0000
0100
0000
,
1001
0000
0000
0001
0100
0000
0010
1000
0001
0000
0100
0001
0010
0000
0100
0000
,
1001
0000
0000
1000
0100
0000
0010
0001
1000
0000
0100
1000
0010
0000
0100
0000
,
0001
0000
0010
0001
0010
0000
0100
0010
0100
0000
1000
0001
0100
0000
0010
0000
,
0110
0000
0000
1000
0100
0000
0010
0001
0100
0000
0010
1000
0001
0000
0010
0000
,
0110
0000
0000
0001
0100
0000
0010
1000
0100
0000
0010
0001
1000
0000
0010
0000
,
0110
0000
0000
1000
0100
0000
0010
0001
0100
0000
0010
1000
0001
0000
0010
0000
,
0001
0100
0000
0010
0100
0000
0010
1000
0000
0001
0010
0000
0100
1000
0100
1000
,
0002
0000
1003
0100
0001
0000
0100
1000
0001
0000
0010
0001
0100
0000
0010
0000
,
2010
0000
3001
0100
1000
0000
0100
0001
1000
0000
0010
0100
0001
0000
0010
0000
,
1002
0000
1003
0100
0001
0000
0100
1000
0001
0000
0010
0001
0100
0000
0010
0000
,
1000
0100
0000
0010
0100
0000
0010
0001
1000
0001
0010
0000
0100
1000
0010
0100
,
0002
0000
1003
0010
0100
0000
1000
0100
0001
0000
0010
0001
1000
0000
0100
0000
,
2001
0000
3001
0010
0100
0000
0001
0100
1000
0000
0010
1000
0001
0000
0010
0000
,
1002
0000
1003
0100
0010
0000
1000
0010
0001
0000
0100
0001
1000
0000
0100
0000
,
0020
0031
0010
0001
0200
0310
0100
0010
2000
3100
0010
0001
0200
0000
0300
0000
,
0002
0000
1003
0010
0100
0010
0001
0000
0010
1000
0001
0000
0100
0000
0010
0000
,
2000
0000
3001
0010
0100
0010
1000
0000
0010
0001
1000
0000
0010
0000
0100
0000
,
0002
0000
1003
0100
0010
0100
0001
0000
0100
1000
0001
0000
0100
0000
0010
0000
,
1000
0100
0000
1000
0001
0000
0010
0001
0010
0100
0010
0000
0001
1000
0010
0100
,
0001
0000
1000
0010
0100
0010
0001
0000
0010
1000
0001
0000
0100
0000
0010
0000
,
2000
3100
0010
0001
2000
3010
0100
0001
2000
3100
0010
0001
2000
3010
0100
0001
,
1000
0000
0100
0010
0100
0010
0001
0010
0001
0010
0100
1000
0001
0000
0100
0000
,
0010
1000
0010
0100
0001
0000
0010
0001
1000
0100
1000
0100
0010
0001
0100
0010
,
1000
0000
0001
0010
0000
0100
1000
1000
0001
0100
0000
0010
,
1000
0000
0100
1000
0000
0010
0100
0100
0001
0010
0000
0001
,
1000
0000
0011
0110
1100
0000
2002
0000
,
3003
0000
0000
0000
0001
1000
0100
0010
0002
0000
0000
0000
0203
0000
0000
0000
,
0300
0000
0000
0000
;

//--------------- dance-double - forcednature ----------------
#NOTEDATA:;
#STEPSTYPE:dance-double;
#DESCRIPTION:forcednature;
#DIFFICULTY:Easy;
#METER:8;
#RADARVALUES:0,0,0,0,0;
#CREDIT:forcednature;
#NOTES:
00000000
00000000
00000000
00000000
,
00000000
00000000
00000000
00000000
,
00000000
00000000
00000000
00000000
,
00011000
00000000
00100000
00010000
,
00100000
00000000
01000000
00000000
,
10000000
00000000
00010000
01000000
,
00010000
00000000
00100000
00000000
,
00001000
00001000
00010000
00010000
,
00000000
00000100
00001000
00000100
,
00002000
00000000
00003010
00000100
,
00000001
00000000
00001000
00000000
,
00000100
00000100
00010000
00010000
,
00001000
00100000
00010000
00100000
,
02000000
00000000
13000000
00010000
,
01000000
00010000
01000000
00001000
,
00010000
00000000
00000010
00001000
,
00000001
00000000
00000100
00000001
,
00001000
00000000
00000100
00010000
,
00001000
00001000
00100000
00100000
,
00010000
00000000
01000000
00100000
,
10000000
00000000
01000000
00100000
,
00010000
00000000
00100000
00001000
,
00010000
00000100
00001000
00000010
,
00001001
00000000
00001000
00000100
,
00001001
00000000
00010000
00001000
,
00011000
00000000
00100000
00010000
,
01000000
00100000
10000000
00000000
,
10010000
00000000
00010000
01000000
,
10010000
00000000
00001000
00010000
,
00011000
00000000
00000010
00001000
,
00000001
00000100
00000010
00000000
,
00000110
00000000
00001000
00001000
,
00000100
00000100
00010000
00000000
,
00001000
00000000
00100000
00100000
,
00010000
00010000
01000000
00000000
,
00100000
10000000
00100000
00000000
,
10000000
01000000
10000000
00000000
,
01100000
00000000
00010000
00100000
,
00001000
00000000
00010000
00000000
,
00000010
00001000
00000010
00000000
,
00001000
00000100
00001000
00000000
,
00000110
00000000
00000001
00000010
,
00000001
00000000
00000100
00000010
,
00000000
00001000
00001000
00000000
,
00000100
00010000
00001000
00000000
,
00100000
00010000
01000000
00000000
,
00100000
10000000
00010000
01000000
,
00000000
00001000
00010000
00001000
,
00010000
00000100
00001000
00000000
,
00000010
00000100
00000001
00001000
,
00000020
00000000
00000000
00000030
,
00001001
00000000
00001000
00000100
,
00001001
00000000
00010000
00001000
,
00011000
00000000
00100000
00010000
,
02000000
00000000
03000000
00000000
,
00010000
00010000
00100000
00010000
,
10000000
10000000
00100000
10000000
,
01000000
00000000
00000000
01000000
00000000
00000000
01000000
00000000
,
00000000
00010000
00001000
00100000
,
10010000
00000000
00010000
01000000
,
10010000
00000000
00001000
00010000
,
00011000
00000000
00000010
00001000
,
00000001
00000100
00000010
00001000
,
00001001
00000000
00000001
00000010
,
00001001
00000000
00010000
00001000
,
00011000
00000000
00100000
00010000
,
01000000
00100000
10000000
01000000
,
10010000
00010000
00100000
00001000
,
00011000
00000010
00001000
00000100
,
00001001
00000001
00000010
00000100
,
00001000
00000010
00010000
00001000
,
00011000
00100000
00010000
01000000
,
01100000
00010000
10000000
01000000
,
01100000
00100000
00001000
00010000
,
00000200
00002300
00003020
00000230
,
00000301
00000000
00000001
00000010
00000000
00000000
00000100
00000000
,
00001000
00000000
00001000
00000100
00000000
00000000
00010000
00000000
,
00001000
00000000
00001000
00100000
00000000
00000000
00010000
00000000
,
01000000
01000000
00100000
10000000
,
01000000
00000000
01000000
00100000
00000000
00000000
00001000
00000000
,
00010000
00011000
00001000
00011000
,
00000100
00000000
00000100
00001000
00000000
00000000
00000010
00000000
,
00000100
00000001
00001000
00000100
,
00000010
00000002
00000203
00000320
,
00020030
00032000
02003000
03200000
,
20300000
32000000
03200000
00320000
,
00030000
00000000
02000000
03002000
,
00003000
00000000
00000000
00000000
;

//--------------- dance-double - forcednature ----------------
#NOTEDATA:;
#STEPSTYPE:dance-double;
#DESCRIPTION:forcednature;
#DIFFICULTY:Medium;
#METER:11;
#RADARVALUES:0,0,0,0,0;
#CREDIT:forcednature;
#NOTES:
00000000
00000000
00000000
00000000
,
00000000
00000000
00000000
00000000
,
00000000
00000000
00000000
00000000
,
00001000
00010000
00001000
00010000
,
00100000
10000000
01000000
00000000
,
00010000
00001000
00010000
00001000
,
00000010
00000001
00000100
00000000
,
00001000
00010000
00001000
00100000
,
00010000
01000000
00100000
10000000
,
02000000
03000000
00100000
00001000
,
00020000
00030000
00000100
00000100
,
00001000
00000010
00001000
00000010
,
00000100
00001000
00010000
00100000
,
02000000
03000000
00010000
10000000
,
01000000
00100000
00001000
00010000
,
00000100
00001000
00000100
00000000
00000010
00000000
00000001
00000000
,
00000100
00000001
00000100
00000000
00001000
00000000
00010000
00000000
,
00001000
00100000
00001000
00000000
00100000
00000000
00010000
00000000
,
02000000
03100000
00200000
10300000
,
01000000
10000000
01000000
00000000
00010000
00000000
00001000
00000000
,
00100000
00010000
00100000
00000000
00001000
00000000
00010000
00000000
,
00000010
00000000
00000010
00001000
00000000
00001000
00000100
00000000
,
00000010
00000001
00000100
00001000
,
00011000
00000000
00100000
00010000
00000000
00000000
01000000
00000000
,
00011000
00000000
00000010
00001000
00000000
00000000
00000100
00000000
,
00011000
00000000
00100000
00010000
00000000
00000000
01000000
00000000
,
00200000
20300000
32000000
03010000
,
00011000
00000000
00000100
00001000
00000000
00000000
00000010
00000000
,
00011000
00000000
01000000
00010000
00000000
00000000
00100000
00000000
,
00011000
00000000
00000100
00001000
00000000
00000000
00000010
00000000
,
00000200
00000302
00002003
00003020
,
00010030
00001000
00010000
00001000
,
00100000
00010000
00100000
00000000
01000000
00000000
10000000
00000000
,
00010000
01000000
00010000
01000000
,
00001000
00010000
00001000
00000000
00010000
00000100
00001000
00000000
,
00001001
00000001
00000010
00000001
,
00000100
00001000
00010000
00100000
,
02000000
03000000
00010000
10000000
,
02000000
03000000
00100000
00100000
,
00001000
00010000
00000100
00010000
,
00000010
00001000
00000001
00000100
,
00000020
00000030
00001000
00000100
,
00010000
00001000
00100000
00010000
,
00000000
01000000
00000000
01000000
00000000
01000000
00100000
00000000
,
10000000
01000000
00010000
00001000
,
00100000
00010000
00100000
00000000
00001000
00000000
00010000
00000000
,
00000020
00002030
00003002
00000203
,
00000300
00001000
00000000
00001000
00000000
00010000
00001000
00000000
,
00100000
00010000
00100000
00000000
01000000
00100000
01000000
00000000
,
10000000
01000000
10000000
00000000
00010000
00000000
01000000
00000000
,
00002000
00003000
00020000
00030000
00000020
00000030
00002000
00003000
,
00002002
00003003
00010000
00001000
,
00022000
00033000
10000000
00010000
,
20020000
30030000
00010000
00100000
,
00001000
00010000
00001000
00000000
00010000
00000100
00010000
00000000
,
00001100
00000001
00000010
00000100
,
00000110
00001000
00000010
00010000
,
00001000
00000000
00001000
00100000
00000000
00100000
00010000
00000000
,
01000000
00000000
00100000
10000000
00000000
10000000
01000000
00000000
,
10010000
00000000
00010000
00100000
00000000
00001000
00010000
00000000
,
00011000
00000000
00000010
00001000
00000000
00000001
00000100
00000000
,
00001001
00000000
00001000
00000100
00000000
00010000
00001000
00000000
,
00100000
00010000
00100000
00000000
01000000
00000000
10000000
00000000
,
10010000
00000000
00010000
00100000
00000000
00001000
00010000
00000000
,
00011000
00000000
00000010
00001000
00000000
00000100
00000010
00000000
,
00001001
00000000
00001000
00000010
00000000
00010000
00001000
00000000
,
00100000
00010000
00100000
00000000
01000000
00000000
10000000
00000000
,
00100000
01000000
00010000
01000000
00000000
00001000
00010000
00000000
,
00000100
00001000
00000010
00001000
00000000
00000010
00000100
00000000
,
00000001
00000010
00000001
00001000
00000000
00000100
00010000
00000000
,
00001000
00010000
00001000
00000000
00100000
00010000
00100000
00000000
,
10010000
00000000
00010000
01000000
00000000
00001000
00010000
00000000
,
00011000
00000000
00000010
00001000
00000000
00000001
00000100
00000000
,
00000110
00000000
00001000
00000100
00000000
00010000
00001000
00000000
,
00011000
00101000
00110000
01010000
,
01000000
00100000
10000000
01000000
00000000
10000000
00010000
00000000
,
00100000
00001000
00010000
00001000
00000000
00010000
00000100
00000000
,
00001000
00000010
00000100
00000001
00000000
00000010
00000001
00000000
,
00001000
00000100
00010000
00000000
00001000
00100000
00010000
00000000
,
01000000
00100000
10000000
01000000
00000000
00100000
00010000
00000000
,
00101000
00101000
00010100
00010100
,
00000100
00001000
00000010
00001000
00000000
00000001
00000100
00000000
,
00000001
00000010
00000001
00000000
00000010
00000100
00010000
00000000
,
00011000
00200000
00320000
20030000
,
32000000
03020000
00032000
00003200
,
00000302
00000013
00000100
00000220
,
00000330
00000000
00001000
00000100
00020000
00000000
00032000
00000000
,
00003000
00000000
00000000
00000000
;

//--------------- dance-double - forcednature ----------------
#NOTEDATA:;
#STEPSTYPE:dance-double;
#DESCRIPTION:forcednature;
#DIFFICULTY:Hard;
#METER:15;
#RADARVALUES:0,0,0,0,0;
#CREDIT:forcednature;
#NOTES:
00000000
00000000
00000000
00000000
,
00000000
00000000
00000000
00000000
,
00000000
00000000
00000000
00000000
,
00001000
00010000
00001000
00010000
00000010
00001000
00000010
00001000
,
00000001
00000100
00001000
00010000
00000010
00000000
00001001
00000000
,
00010000
00001000
00010000
00001000
00100000
00010000
00100000
00010000
,
10000000
00000000
00000000
10000000
01000000
00000000
00000000
01000000
00010000
00000000
00000000
00010000
00001000
00000000
00000000
00000000
,
00000010
00000001
00000100
00000001
00001000
00000010
00000100
00000010
,
00001000
00000001
00000100
00001000
00010000
00001000
00100000
00010000
,
02000000
00000000
03100000
10000000
01000000
00010000
00001000
00100000
,
00010000
01010000
11000000
10100000
,
00100000
10000000
01000000
10000000
00010000
00100000
01000000
00100000
,
00010000
10000000
01000000
00010000
00001000
00010000
00000010
00001000
,
00000200
00000000
00000310
00000001
00000100
00001000
00010000
00000010
,
00001000
00001100
00000101
00000011
,
00001000
00000100
00010000
00001000
00100000
00010000
01000000
00100000
,
10000000
01000000
00010000
00000000
00001000
00010000
00000010
00001000
,
00000001
00000100
00001000
00000000
00010000
00001000
00100000
00010000
,
02000000
03200000
00320000
00032000
,
00003100
00000010
00001000
00000010
00000100
00000001
00001000
00000010
,
00010000
00001000
00000010
00000000
00000100
00010000
00001000
00100000
,
00010000
00000000
00010000
01000000
00000000
01000000
00100000
00000000
,
10000000
01000000
10000000
00010000
00100000
00001000
00010000
00000010
,
00002000
00000100
00000001
00000010
,
00023000
01000000
10000000
00100000
,
00032000
00000100
00000001
00000010
,
00013000
01000000
00010000
10000000
00100000
00010000
00001000
00100000
,
00020000
01000000
10000000
00100000
,
00032000
00000100
00000001
00000010
,
00023000
01000000
10000000
00100000
,
00031000
00000100
00010000
00000010
00000100
00001000
00000100
00000001
,
00001000
00000100
00000010
00000001
00000100
00000001
00000100
00000001
,
00000100
00001000
00010000
00100000
01000000
00010000
10000000
00100000
,
00000000
10000000
01000000
10000000
01000000
00010000
00001000
00010000
,
00000010
00000000
00000000
00001000
00000010
00000000
00000000
00000100
00000010
00000000
00000000
00000100
00000001
00000000
00000000
00000000
,
00000010
00001000
00000010
00001000
00010000
00001000
00010000
00001000
,
00100000
00010000
01000000
00100000
10000000
01000000
00010000
00001000
,
00200000
00000000
00310000
01000000
00001000
00010000
00000010
00001000
,
00000100
00000110
00000011
00001001
,
00001000
00000010
00001000
00000010
00000100
00001000
00000100
00001000
,
00010000
00100000
01000000
00010000
10000000
01000000
00010000
00001000
,
00200000
00000000
00310000
01000000
00001000
00010000
00000010
00001000
,
00000100
00000110
00000011
00001001
,
00001000
00000100
00000000
00011000
00000000
00100000
00010000
01000000
,
00100000
00010000
00002000
00000000
00003010
00001000
00020000
00000000
,
00031000
00100000
00000000
00000000
00110000
00000000
00000000
00000000
01000000
00000000
00010000
00000000
10000000
00000000
01000000
00000000
,
00010000
00000000
00000000
00010000
00001000
00000000
00000000
00001000
00000010
00000000
00000000
00000010
00000001
00000000
00000000
00000001
,
00000000
00000100
00001000
00010000
00001000
00000000
00011000
00000000
,
00100000
00000000
00000000
00100000
00010000
00000000
00000000
00010000
01000000
00000000
00000000
01000000
00100000
00000000
00000000
00000000
,
10000000
01000000
00010000
00001000
00100000
00001000
00010000
00000100
,
00002000
00003000
00000020
00000030
00020000
00030000
00002000
00003000
,
01000000
01000000
00200000
00000000
10300000
01000000
00010000
00001000
,
00000010
00000010
00000100
00000000
00010000
00000010
00001000
00000001
,
00000100
00000100
00002000
00000000
00013000
00100000
01000000
00100000
,
20000000
00000000
31000000
00010000
00001000
00010000
00001000
00000010
,
00000001
00001000
00000100
00010000
00001000
00100000
00010000
01000000
,
00100000
00000000
10010000
00000000
10000000
01000000
00010000
00001000
,
00100000
00010000
00010000
01000000
00001000
00001000
00010000
00000010
,
00000010
00000000
00001000
00000001
00000100
00001000
00010000
00000010
,
00002000
00000000
00000100
00000001
00000001
00000000
00003010
00001000
,
00020000
00000000
01000000
10000000
10000000
00000000
00130000
00010000
,
00002000
00000000
00000100
00000001
00000001
00000000
00003010
00001000
,
00010000
01000000
00100000
10000000
01000000
00010000
00001000
00100000
,
00020000
00000000
01000000
10000000
10000000
00000000
00130000
00010000
,
00002000
00000000
00000100
00000001
00000001
00000000
00003010
00001000
,
00020000
00000000
01000000
10000000
10000000
00000000
00130000
00010000
,
00001000
00000100
00000100
00001000
00000001
00000001
00000010
00000100
,
00010000
00001000
00100000
00110000
00000000
10000000
00100000
01000000
,
00001000
00010000
00000100
00001100
00000000
00010000
00000010
00001000
,
00000001
00000010
00000100
00001100
00000000
00010000
00001000
00100000
,
00010000
01000000
10000000
01000000
00010000
00100000
00001000
00010000
,
00000010
00001000
00000100
00000110
00000000
00000010
00000001
00001000
,
00000100
00010000
00001000
00101000
00000000
01000000
00010000
10000000
,
00100000
01000000
00001000
00011000
00000000
00000010
00001000
00000001
,
00000010
00000100
00000000
00000000
00000100
00010000
00000000
00000000
00010000
00001000
00000000
00000000
00001000
00100000
00000000
00000000
,
00010000
01000000
00100000
10010000
00000000
10000000
01000000
00010000
,
00001000
00100000
00010000
00101000
00000000
00000100
00010000
00001000
,
00000010
00000001
00000100
00001010
00000000
00010000
00001000
00100000
,
00010000
01000000
10000000
01000000
00010000
00100000
01000000
00010000
,
00001000
00000010
00000100
00000011
00000000
00001000
00000100
00010000
,
00001000
01000000
00010000
00101000
00000000
01000000
00010000
10000000
,
01000000
00010000
00001000
00110000
00000000
00001000
00010000
00000010
,
00001000
00000100
00000001
00000100
00001000
00000010
00000100
00001000
,
00010000
00000000
00000000
00100000
00000000
00100000
10000000
00000000
10000000
01000000
00000000
01000000
,
00010000
00000000
00000000
00001000
00000000
00001000
00000010
00000000
00000010
00000001
00000000
00000001
,
00000100
00000000
00001000
00010000
00100000
00000000
01100000
00000000
,
00000000
00000000
10000000
01000000
00020000
00000000
00032000
00000000
,
00003000
00000000
00000000
00000000
;

//--------------- dance-double - forcednature ----------------
#NOTEDATA:;
#STEPSTYPE:dance-double;
#DESCRIPTION:forcednature;
#DIFFICULTY:Challenge;
#METER:18;
#RADARVALUES:0,0,0,0,0;
#CREDIT:forcednature;
#NOTES:
00000000
00000000
00000000
00000000
,
00000000
00000000
00000000
00000000
,
00000000
00000000
00000000
00000000
,
00001000
00010000
00000100
00010000
00001000
00000010
00000001
00000010
,
00000100
00010000
00000010
00001000
00000100
00000000
00011000
00000000
,
00010000
00001000
01000000
00001000
00010000
00100000
10000000
00100000
,
01000000
00000000
00001000
00000000
00010000
00000000
00000010
00000000
00001000
00000000
00000100
00001000
00000001
00000000
00000000
00000000
,
00000010
00001000
00010000
00001000
01000000
00001000
00010000
00001000
,
00100000
01000000
10000000
00100000
01000000
00001000
00010000
00000010
,
00002000
00000000
00003001
00000100
00001000
00010000
01000000
10000000
,
00100000
00000000
00000000
00100000
01000000
00000000
00000000
01000000
00001000
00000000
00000000
00001000
00010000
00000000
00000000
00010000
,
00100000
00010000
00001000
00010000
00000100
00010000
00001000
00010000
,
00000010
00000100
00000001
00000010
00000100
00010000
00001000
00100000
,
00020000
00000000
10030000
01000000
00010000
00001000
00000100
00000001
,
00000010
00000000
00000000
00000010
00000100
00000000
00000000
00000100
00010000
00000000
00000000
00010000
00002000
00000000
00000000
00000000
,
00103000
00100000
00010000
01000000
00100000
10000000
01000000
00010000
,
00001000
00100000
00110000
00000000
00001000
00000010
00000001
00000100
,
00000010
00010000
00011000
00000000
01000000
00100000
00010000
00001000
,
01000000
00000000
00010000
01000000
00010000
00000000
00100000
00010000
00100000
00000000
00001000
00010000
00001000
00000000
00000010
00000000
,
00000100
00010000
00001000
00000010
00000001
00000100
00001000
00000100
,
00000001
00000010
00000110
00000000
00010000
00001000
00100000
00010000
,
01000000
00010000
01000000
00000000
00100000
00000000
10000000
00100000
10000000
00000000
01000000
00000000
00100000
00010000
00100000
00000000
,
00001000
00000000
00000000
00000000
00000100
00000000
00000010
00000100
00000010
00000000
00000100
00000001
00001000
00000000
00000010
00000000
,
00000110
00000000
00000001
00001000
00010000
00000000
01000000
00100000
,
10010000
00000000
10000000
00010000
00001000
00000000
00000100
00000010
,
00000110
00000000
00000001
00001000
00010000
00000000
01000000
00100000
,
10000000
00000000
01000000
10000000
01000000
00000000
00010000
00001000
00010000
00000000
00000100
00001000
00000010
00000000
00000100
00000000
,
00000110
00000000
00000001
00000010
00010000
00000000
01000000
00100000
,
01100000
00000000
10000000
00100000
00001000
00000000
00000100
00000010
,
00000110
00000000
00000001
00000010
00010000
00000000
01000000
00100000
,
00010000
00000000
01000000
00100000
01000000
00000000
00100000
10000000
00010000
00000000
00100000
00001000
00010000
00000000
00000100
00000000
,
00001100
00000001
00000010
00000100
00001000
00000010
00000100
00001000
,
00010000
00000100
00001000
00010000
00100000
01000000
00010000
00001000
,
00000000
10000000
00100000
01000000
00010000
00100000
01000000
00010000
,
00001000
00000000
00000010
00000100
00000010
00000000
00000100
00001000
00000001
00000000
00000000
00000000
00000011
00000000
00000000
00000000
,
00000010
00000100
00010000
00000100
00000001
00000100
00001000
00000010
,
00000100
00000000
00001000
00000000
00010000
00000000
00100000
00000000
01000000
00000000
00010000
00000000
10000000
00000000
01000000
00100000
,
00020000
00000000
01030000
10000000
01000000
00001000
00100000
00010000
,
01000000
00000000
00010000
01000000
00001000
00000000
00010000
00001000
00010000
00000000
00001000
01000000
00010000
00000000
10000000
00000000
,
00100000
01000000
00001000
01000000
10000000
01000000
00010000
00100000
,
01000000
00000000
00010000
00000000
00001000
00000000
00000010
00000000
00000100
00000000
00001000
00000001
00000100
00000000
00000001
00001000
,
00000020
00000000
00000130
00010000
00000100
00000001
00001000
00000010
,
00010000
00000000
00001000
00100000
00010000
00000000
00100000
00010000
01000000
00000000
00100000
10000000
00010000
00000000
00100000
00010000
,
00000000
00101000
00000000
00010010
00000000
00001000
00000001
00000100
,
00001000
00010000
00200000
00000000
00310000
00001000
00000020
00000000
,
00001030
00000100
00001000
00000001
00000020
00000000
00000000
00000000
00000130
00000000
00010000
00000000
00001000
00000000
00100000
00000000
,
00010000
01000000
00010000
01000000
00100000
10000000
00100000
10000000
00010000
00100000
00010000
00100000
00001000
00010000
00000100
00010000
,
00000000
00001000
00000010
00001000
00010000
00100000
00010000
00000000
,
00001000
00000000
00010000
00000010
00001000
00000000
00000100
00001000
00000010
00000000
00000100
00000001
00000010
00000001
00000010
00000000
,
00000100
00000000
00010000
00001000
00100000
00000000
00010000
00000000
01000000
00010000
01000000
00010000
10000000
00100000
01000000
00010000
,
20000000
30000000
02000000
03000000
00020000
00030000
00002000
00003000
,
00011000
00000010
00002000
00000000
00003001
00000100
00001000
00010000
,
00011000
00100000
00010000
00000000
10000000
01000000
00010000
00001000
,
00011000
00000100
00002000
00000000
00003001
00000010
00001000
00010000
,
00012000
00000000
00000000
00000000
00103000
00010000
00100000
00010000
01000000
00100000
01000000
00100000
10000000
01000000
00100000
00010000
,
01000000
00001000
00010000
00001000
00011000
00000010
00001000
00000100
,
00000010
00000001
00000000
00000000
00000110
00000000
00000000
00000000
00001000
00000000
00000100
00000000
00010000
00000000
00001000
00000000
,
00100000
00010000
00100000
00010000
00100000
00000000
00001000
00010000
00001000
00010000
00000100
00000000
00001000
00000010
00001000
00000010
,
00000100
00000000
00001000
00000000
00000100
00000001
00000100
00000000
00000001
00000000
00000010
00000100
00001000
00000000
00000010
00000000
,
00001001
00000000
00000000
00000001
00000010
00000000
00001000
00000000
01000000
00000000
00000000
00000000
00100000
00000000
01000000
00000000
,
10010000
00000000
00000000
10000000
00100000
00000000
00010000
00000000
00000100
00000000
00000000
00000000
00000010
00000000
00000100
00000000
,
00001001
00000000
00000000
00000001
00000010
00000000
00001000
00000000
01000000
00000000
00000000
00000000
00100000
00000000
01000000
00000000
,
00010000
00000000
00100000
00001000
00010000
00000000
00001000
00010000
00000100
00000000
00001000
00000010
00000100
00000000
00000001
00000000
,
00001001
00000000
00000000
00000001
00000100
00000000
00001000
00000000
00100000
00000000
00010000
00000000
01000000
00000000
00100000
00000000
,
10010000
00000000
00000000
10000000
01000000
00000000
00010000
00000000
00000010
00000000
00001000
00000000
00000100
00000000
00000010
00000000
,
00001001
00000000
00000000
00000001
00000100
00000000
00001000
00000000
00100000
00000000
00010000
00000000
01000000
00000000
00100000
00000000
,
10000000
01000000
00000000
00100000
01000000
00000000
00100000
00001000
00000000
00010000
00000100
00000000
00001000
00000010
00000100
00000000
,
00001001
00000000
00000000
00000001
00000100
00000000
00001000
00010000
00100000
00000000
01000000
00000000
00010000
00000000
00100000
00000000
,
10010000
00000000
00000000
10000000
01000000
00000000
00010000
00001000
00000010
00000000
00000100
00000000
00001000
00000000
00000010
00000000
,
00001001
00000000
00000000
00000001
00000100
00000000
00001000
00010000
00100000
00000000
01000000
00000000
00010000
00000000
00100000
00000000
,
01000000
10000000
00000000
01000000
00010000
00000000
00001000
00010000
00000100
00001000
00000100
00000000
00000010
00000001
00001000
00000000
,
00001001
00000000
00000000
00000001
00000010
00000000
00001000
00010000
01000000
00000000
00100000
00000000
00010000
00000000
01000000
00000000
,
10010000
00000000
00000000
10000000
00100000
00000000
00010000
00001000
00000100
00000000
00000010
00000000
00001000
00000000
00000100
00000000
,
00001001
00000000
00000000
00000001
00000010
00000000
00001000
00010000
01000000
00000000
00100000
00000000
00010000
00000000
01000000
00000000
,
00200000
00310000
00001000
00000000
00020000
00031000
00000100
00000000
00000020
00001030
00000001
00000000
00000020
00000130
00001000
00000000
,
00001001
00000000
00000001
00000100
00001000
00000000
00010000
00100000
10000000
00000000
01000000
00000000
00100000
00000000
00010000
00000000
,
10010000
00000000
10000000
01000000
00010000
00000000
00001000
00000010
00000001
00000000
00000100
00000000
00000010
00000000
00001000
00000000
,
00001001
00000000
00000001
00000100
00001000
00000000
00010000
00100000
10000000
00000000
01000000
00000000
00100000
00000000
00010000
00000000
,
00100000
00001000
00000000
00010000
00001000
00000000
00010000
00000100
00001000
00000100
00001000
00000000
00000010
00000100
00000001
00000000
,
00001001
00000000
00000001
00000010
00001000
00000000
00010000
01000000
10000000
00000000
00100000
00000000
01000000
00000000
00010000
00000000
,
00200000
01300000
00100000
01000000
00020000
00031000
00010000
00001000
00000020
00000130
00000010
00000100
00002000
00003001
00001000
00000001
,
00000010
00000000
00000001
00000100
00001000
00000000
00010000
01000000
10000000
00000000
00100000
00000000
01000000
00000000
00010000
00000000
,
10000000
01000000
00000000
00100000
01000000
00000000
00100000
00001000
00000000
00010000
00001000
00000000
00010000
00000100
00001000
00000100
,
00000010
00000000
00000001
00000100
00000000
00001000
00010000
00001000
00010000
00100000
00000000
10000000
,
00010000
00000000
10000000
01000000
00000000
00010000
00001000
00100000
00001000
00010000
00000000
00000100
,
00001000
00000000
00000000
00000000
00010010
00000000
00011000
00000000
01001000
00000000
00000000
00000000
20020000
00000000
00000000
30000000
,
00000000
00030000
00000000
00000000
01000000
00100000
00010000
00001000
00000200
00000000
00000000
00000000
00000320
00000000
00000000
00000000
,
00000030
00000000
00000000
00000000
;
