#VERSION:0.83;
#TITLE:CODE 2;
#SUBTITLE:;
#ARTIST:HEXA;
#TITLETRANSLIT:;
#SUBTITLETRANSLIT:;
#ARTISTTRANSLIT:;
#GENRE:HARD TECHNO;
#CREDIT:;
#MUSIC:CODE 2.ogg;
#BANNER:CODE 2.png;
#BACKGROUND:CODE 2-bg.png;
#CDTITLE:./CDTitles/REFLEC BEAT VOLZZA.png;
#SAMPLESTART:81.510;
#SAMPLELENGTH:15.000;
#SELECTABLE:YES;
#OFFSET:0.546;
#BPMS:0.000=155.000;
#STOPS:;
#TIMESIGNATURES:0.000=4=4;
#BGCHANGES:0.000=../BGAs/29cy.mp4=1.000=0=0=0=StretchNoLoop====,
99999.000=-nosongbg-=1.000=0=0=0=StretchNoLoop====
;
#FGCHANGES:;

//--------------- dance-single - forcednature ----------------
#NOTEDATA:;
#STEPSTYPE:dance-single;
#DESCRIPTION:forcednature;
#DIFFICULTY:Beginner;
#METER:3;
#RADARVALUES:0,0,0,0,0;
#CREDIT:forcednature;
#NOTES:
0000
0000
0000
0000
,
0000
0000
0000
0000
,
0000
0000
0000
0000
,
0000
0000
0000
0000
,
0000
0000
0000
0000
,
0001
0000
0000
0000
,
0100
0000
0000
0000
,
0001
0000
0000
0000
,
0010
0000
0000
0000
,
0001
0000
0000
0000
,
1000
0000
0000
0000
,
0001
0000
0000
0000
,
0100
0000
0000
0000
,
0010
0000
0000
0000
,
1000
0000
0000
0000
,
0100
0000
0000
0000
,
1000
0000
0000
0000
,
0001
0000
0000
0000
,
1000
0000
0000
0000
,
0100
0000
0000
0000
,
0010
0000
0000
0000
,
0001
0000
0000
0001
,
0000
0000
0100
0000
,
0001
0000
0000
0001
,
0000
0000
0010
0000
,
1000
0000
0000
1000
,
0000
0000
0100
0000
,
1000
0000
0000
1000
,
0000
0000
0010
0000
,
0001
0000
0000
0100
,
0000
0000
0001
0000
,
1000
0000
0000
0100
,
0000
0000
1000
0000
,
0001
0000
0000
0010
,
0000
0000
0001
0000
,
1000
0000
0000
0010
,
0000
0000
1000
0000
,
0002
0000
0000
0000
,
0000
0000
0003
0000
,
0020
0000
0000
0000
,
0000
0000
0030
0000
,
0200
0000
0000
0000
,
0000
0000
0300
0000
,
2000
0000
0000
0000
,
0000
0000
3000
0000
,
0020
0000
0000
0000
,
0000
0000
0030
0000
,
0200
0000
0000
0000
,
0000
0000
0300
0000
,
0002
0000
0000
0000
,
0000
0000
0003
0000
,
2000
0000
0000
0000
,
3000
0000
0000
0000
,
0010
0000
0100
0000
,
0010
0000
0000
0000
,
1000
0000
0001
0000
,
0010
0000
0000
0000
,
0100
0000
0010
0000
,
0100
0000
0000
0000
,
1000
0000
0001
0000
,
0100
0000
0100
0000
,
0010
0000
1000
0000
,
0010
0000
0000
0000
,
1000
0000
0001
0000
,
0010
0000
0000
0000
,
0100
0000
1000
0000
,
0100
0000
0000
0000
,
0010
0000
0001
0000
,
1000
0000
0000
0000
,
0010
0000
0010
0000
,
0100
0000
0010
0000
,
1000
0000
1000
0000
,
0001
0000
1000
0000
,
0100
0000
0100
0000
,
0010
0000
0100
0000
,
1000
0000
1000
0000
,
0001
0000
1000
0000
,
1001
0000
0000
0000
;

//--------------- dance-single - forcednature ----------------
#NOTEDATA:;
#STEPSTYPE:dance-single;
#DESCRIPTION:forcednature;
#DIFFICULTY:Easy;
#METER:8;
#RADARVALUES:0,0,0,0,0;
#CREDIT:forcednature;
#NOTES:
0000
0000
0000
0000
,
0000
0000
0000
0000
,
0000
0000
0000
0000
,
0000
0000
0000
0000
,
0000
0000
0000
0000
,
1000
1000
0001
0100
,
0010
1000
0001
0010
,
0100
0100
0010
0001
,
1000
0000
0010
0000
0100
0010
0100
0000
,
0001
0001
1000
0001
,
0010
0100
1000
0010
,
0100
0100
0001
0100
,
0020
0030
2000
3000
,
0001
0010
1000
0010
,
0001
0100
0010
1000
,
0100
0001
0100
1000
,
0010
0000
0100
0000
0001
0100
0001
0000
,
0100
0010
1000
0100
,
0010
0100
1000
0001
,
0100
0000
0010
0000
1000
0001
1000
0001
,
2000
0000
3000
0000
,
0001
0000
0000
0010
0000
0000
0001
0000
0000
0010
0000
0000
0100
0000
0000
1000
,
0000
0000
0100
0000
0000
1000
0000
0000
0002
0000
0000
0000
0003
0000
0000
0000
,
1000
0000
0000
0010
0000
0000
1000
0000
0000
0010
0000
0000
0100
0000
0000
0001
,
0000
0000
0100
0000
0000
0001
0000
0000
1000
0000
0000
0000
1001
0000
0000
0000
,
0001
0000
0000
0010
0000
0000
0100
0000
0000
0010
0000
0000
0001
0000
0000
0010
,
0000
0000
0100
0000
0000
1000
0000
0000
0002
0000
0000
0000
0003
0000
0000
0000
,
1000
0000
0000
0010
0000
0000
0100
0000
0000
0001
0000
0000
0100
0000
0000
0000
,
1001
0000
0110
0000
1000
0001
1000
0000
,
0001
0000
0001
0100
0000
0100
0001
0000
,
0001
1000
0000
1000
0001
0000
0010
0000
,
0001
0000
0001
1000
0000
1000
0001
0000
,
0001
0100
0000
0100
0002
0000
0003
0000
,
1000
0000
1000
0100
0000
0100
1000
0000
,
1000
0001
0000
0001
1000
0000
0010
0000
,
1000
0000
1000
0001
0000
0001
1000
0000
,
0100
0010
0110
1001
,
0020
0000
0000
0000
,
0000
0000
0000
0030
,
2000
0000
0000
0000
,
0000
0000
0000
3000
,
0200
0000
0000
0000
,
0000
0000
0000
0300
,
0020
0000
0000
0000
,
0000
0000
0000
0030
,
0002
0000
0000
0003
,
0200
0000
0000
0300
,
0020
0000
0000
0030
,
2000
0000
0000
3000
,
0002
0000
0000
0003
,
0020
0000
0000
0030
,
0200
0000
0000
0300
,
2000
3000
0002
0003
,
1001
1000
0010
0100
,
0001
0100
0001
0000
0010
0000
0100
0000
,
0110
0010
0001
1000
,
0010
1000
0010
0000
0100
0000
0001
0000
,
1001
1000
0100
0010
,
0001
0010
0001
0000
1000
0000
0010
0000
,
0110
0100
0001
0010
,
0100
1000
0100
0000
1000
0001
1000
0000
,
0010
0000
0100
0010
0100
0000
0001
0100
,
0001
0010
0100
1000
,
0010
0000
1000
0001
1000
0000
0001
0010
,
0001
1000
0010
0100
,
0001
0000
0010
0001
0010
0000
0100
0010
,
0100
1000
0001
0100
,
0010
0000
1000
0010
1000
0000
0100
1000
,
0200
0300
0020
0030
,
0001
0000
0001
0100
0000
0100
1000
0000
,
1000
0100
0000
0100
0002
0000
0003
0000
,
1000
0000
1000
0100
0000
0100
0001
0000
,
0001
0100
0000
0100
1000
0000
1001
0000
,
0001
0000
0001
0010
0000
0010
1000
0000
,
1000
0010
0000
0010
0002
0000
0003
0000
,
1000
0000
1000
0010
0000
0010
0001
0000
,
0010
0110
1000
0001
,
2002
0000
0000
0000
,
3003
0000
0000
0000
;

//--------------- dance-single - forcednature ----------------
#NOTEDATA:;
#STEPSTYPE:dance-single;
#DESCRIPTION:forcednature;
#DIFFICULTY:Medium;
#METER:12;
#RADARVALUES:0,0,0,0,0;
#CREDIT:forcednature;
#NOTES:
0000
0000
0000
0000
,
0000
0000
0000
0000
,
0000
0000
0000
0000
,
0000
0000
0000
0000
,
0000
0000
0000
0000
,
1001
0000
1100
0000
0001
0010
0100
0000
,
0010
0001
0100
0001
0100
0010
1000
0000
,
1100
0000
0101
0000
0001
0010
0100
0000
,
0010
0001
0010
0001
1000
0010
0100
0000
,
0101
0000
1100
0000
1000
0001
0100
0000
,
0010
1000
0010
1000
0100
1000
0001
0000
,
0101
0000
1100
0000
1000
0010
0100
0000
,
0001
1000
0002
0000
0013
0100
2000
0000
,
3010
0100
0010
0100
0001
0010
0100
0010
,
0001
0100
0010
1000
0100
0010
0001
0000
,
0100
0010
0100
0010
1000
0100
0010
0100
,
1000
0010
0100
0001
0010
0100
0010
0000
,
0001
0100
0001
0100
0010
1000
0100
0010
,
0001
1000
0010
0001
0010
1000
0001
0000
,
1000
0100
1000
0001
0010
0010
0100
0010
,
0002
0000
0003
0000
,
1001
0000
0000
0100
0000
0000
0110
0000
0000
0010
0000
0000
1001
0000
0000
0100
,
0000
0000
0110
0000
0000
0010
0000
0000
2002
0000
0000
0000
3003
0000
0000
0000
,
1100
0000
0000
0001
0000
0000
0101
0000
0000
1000
0000
0000
1100
0000
0000
0001
,
0000
0000
0101
0000
0000
1000
0000
0000
0010
0000
0100
0000
0010
0000
0100
0000
,
0001
0000
0000
0010
0000
0000
0110
0000
0000
1000
0000
0000
1010
0000
0000
0010
,
0000
0000
0110
0000
0000
0001
0000
0000
0020
0000
0000
0000
0030
0000
0000
0000
,
1001
0000
0000
0001
0000
0000
0101
0000
0000
1000
0000
0000
1010
0000
0000
0010
,
0100
0000
0000
0010
0100
0000
0000
0010
1000
0000
0001
0000
1000
0000
0001
0000
,
0010
0000
0010
0100
1000
0010
0100
0001
,
0010
0100
1000
0010
0100
0000
0110
0000
,
1001
0000
0001
0010
0100
1000
0010
0100
,
0001
0010
0100
1000
0010
0000
0110
0000
,
1001
0000
1000
0100
0010
0001
0100
0010
,
1000
0100
0010
0001
0100
0000
0110
0000
,
0001
1000
0001
1000
0100
0100
0100
1000
,
0010
0000
0100
0000
0000
0001
0000
0000
0010
0000
0000
0110
0000
0000
1000
0000
,
0002
0100
0000
0100
,
0000
0010
0000
0010
,
2003
0100
0000
0100
,
0000
0010
0000
0010
,
3002
0010
0000
0010
,
0000
1000
0000
0100
,
2003
0010
0000
0010
,
0000
0001
0000
3100
,
0110
0000
0010
0001
0010
0000
0001
0100
,
0001
0000
0100
0010
0100
0000
0010
0000
,
1000
0000
0100
1000
0100
0000
1000
0010
,
1000
0000
0010
0100
0010
0000
0100
0000
,
1001
0000
0001
0010
0001
0000
1000
0010
,
1000
0000
0100
0010
0001
0000
0100
0000
,
0110
0000
0010
1000
0010
0000
0100
0001
,
0100
0000
0010
0010
2000
0000
3002
0000
,
0013
0100
1000
0100
0010
0001
0100
0010
,
1000
0001
0010
0100
1000
0010
0100
0000
,
0001
1000
0100
1000
0010
0100
0001
0010
,
0100
1000
0001
0100
0001
0010
0010
0000
,
0001
0100
0010
1000
0100
0010
0001
0100
,
1000
0100
0001
1000
0010
0100
0001
0000
,
1000
0100
0010
0001
1000
0100
0001
0100
,
1000
1000
0001
0001
0100
0100
0010
0010
,
1000
0001
0010
0001
0100
0001
0010
0001
,
1000
0010
0100
0001
0010
0100
1000
0000
,
0001
1000
0010
1000
0100
1000
0010
1000
,
0001
0010
0100
1000
0010
0100
0100
0000
,
0001
1000
0100
0001
0100
1000
0001
1000
,
0010
0100
0001
0010
0100
1000
0010
0000
,
1010
0000
0101
0000
0001
0010
0100
1000
,
0020
0030
2002
3003
,
1100
0000
0000
0001
0000
0000
0011
0000
0000
1000
0000
0000
1100
0000
0000
0001
,
0000
0000
0011
0000
0000
1000
0000
0000
1001
0000
0000
0000
0010
0000
0000
0000
,
0101
0000
0000
1000
0000
0000
1010
0000
0000
0001
0000
0000
0101
0000
0000
1000
,
0000
0000
1010
0000
0000
0001
0000
0000
0100
0000
0100
0000
0010
0000
0010
0000
,
1000
0000
0000
0100
0000
0000
0110
0000
0000
0001
0000
0000
0101
0000
0000
0100
,
0000
0000
0110
0000
0000
1000
0000
0000
1100
0000
0000
0000
0001
0000
0000
0000
,
0011
0000
0000
1000
0000
0000
1010
0000
0000
0001
0000
0000
0100
0000
0000
0001
,
1000
1000
0100
1000
0001
0020
0030
0100
,
2002
0000
0000
0000
,
3003
0000
0000
0000
;

//--------------- dance-single - forcednature ----------------
#NOTEDATA:;
#STEPSTYPE:dance-single;
#DESCRIPTION:forcednature;
#DIFFICULTY:Hard;
#METER:15;
#RADARVALUES:0,0,0,0,0;
#CREDIT:forcednature;
#NOTES:
0000
0000
0000
0000
,
0000
0000
0000
0000
,
0000
0000
0000
0000
,
0000
0000
0000
0000
,
0000
0000
0000
0000
,
1010
0000
0011
0000
0001
0010
0100
0000
,
0010
0001
0100
0001
1000
0100
0010
0000
,
0011
0000
1010
0000
1000
0010
0100
0000
,
0010
0000
1000
0000
0100
0000
1000
0000
0001
0000
0010
0001
0010
0000
0000
0000
,
0101
0000
1100
0000
1000
0100
0010
0000
,
0100
1000
0010
1000
0001
0010
0100
0000
,
1100
0000
0101
0000
0001
0100
0010
0000
,
0100
0001
0020
0000
0130
1000
0020
0000
,
0130
0000
0001
0000
1000
0001
1000
0000
0100
0000
0010
0000
0100
0000
0000
0000
,
0010
0000
0001
0000
0100
0010
0100
0000
0010
0000
1000
0000
0001
0000
0000
0000
,
0010
0000
0001
0000
0100
0001
0100
0000
0010
0000
1000
0000
0100
0000
0000
0000
,
0010
0000
0100
0000
1000
0100
1000
0000
0001
0000
0100
0001
0100
0010
0000
0000
,
1000
0000
0001
0000
0010
0001
0010
0000
0100
0000
1000
0000
0010
0000
0000
0000
,
0100
0000
0001
0000
1000
0001
1000
0000
0010
0000
0100
0000
0001
0000
0000
0000
,
1000
0000
0100
0000
0010
0100
0010
0000
0001
0000
0001
0000
1000
0000
0001
0000
,
2002
0000
3003
0000
,
1000
0010
0000
0100
0001
0000
1000
0100
0000
0010
0001
0000
1000
0010
0000
0100
,
0001
0000
1000
0100
0000
0010
0001
0000
0100
0000
0010
0000
0200
0000
0000
0000
,
0301
0010
0000
0100
1000
0000
0001
0100
0000
0010
1000
0000
0001
0010
0000
0100
,
1000
0000
0001
0100
0000
0010
1000
0000
0100
0000
0100
0000
0100
0000
0010
0000
,
0001
1000
0000
0010
0100
0000
0001
1000
0000
0100
0010
0000
0001
1000
0000
0010
,
0100
0000
0001
1000
0000
0100
0010
0000
0001
0000
1000
0000
0010
0000
0000
0000
,
0100
0001
0000
1000
0100
0000
0010
0001
0000
1000
0010
0000
0100
0001
0000
0010
,
0100
0000
0000
0010
0100
0000
0000
0010
0100
0000
0100
0000
0100
0000
0100
0000
,
1000
0001
1000
0000
0001
0000
0100
0001
0100
0000
0001
0000
1000
0001
1000
0000
,
0001
0000
0010
0001
0010
0000
0001
0000
1000
0010
1000
0000
0001
0100
0000
0000
,
0001
1000
0001
0000
1000
0000
0100
1000
0100
0000
1000
0000
0001
1000
0001
0000
,
1000
0000
0010
1000
0010
0000
1000
0000
0100
0000
0010
0100
0000
0010
0001
0000
,
1000
0010
1000
0000
0010
0000
0100
0001
0100
0000
0001
0000
1000
0100
1000
0000
,
0100
0000
0010
0001
0010
0000
0001
0000
1000
0010
1000
0000
0001
0010
0000
0000
,
0100
0000
0100
0000
0010
0000
0010
0000
0001
1000
0001
1000
0001
1000
0001
1000
,
0010
0000
0010
0000
0000
0100
0000
0000
0110
0000
0000
1001
0000
0000
0001
0000
,
0020
0100
0000
0100
,
0000
0001
0000
0001
,
0230
1000
0000
1000
,
0000
0010
0000
0010
,
2300
0010
0000
0010
,
0000
0100
0000
0100
,
3002
0010
0000
0010
,
0000
0100
0000
0203
,
0320
0000
0000
1000
0000
0000
1000
0000
2030
0000
0000
0001
0000
0000
0001
0000
,
3002
0000
0000
0010
0000
0000
0010
0000
0023
0000
0000
0100
0000
0000
0100
0000
,
0230
0000
0000
1000
0000
0000
1000
0000
2300
0000
0000
0010
0000
0000
0010
0000
,
3020
0000
0000
0100
0000
0000
0100
0000
0230
0000
0000
0001
0000
0000
0001
0000
,
0302
0000
0000
0010
0000
0000
0010
0000
2003
0000
0000
0010
0000
0000
0010
0000
,
3002
0000
0000
0100
0000
0000
0100
0000
2003
0000
0000
0100
0000
0000
0100
0000
,
3002
0000
0000
0010
0000
0000
0100
0000
2003
0000
0000
0010
0000
0000
0100
0000
,
3001
0000
0001
0000
0010
0000
0100
1000
0020
0000
0000
0000
0230
0000
0000
0000
,
0301
1000
0001
1000
0000
0100
1000
0000
0010
1000
0010
1000
0000
0010
0100
0000
,
0001
0000
0010
0100
1000
0000
0100
0000
0010
0000
0001
1000
0010
0000
0000
0000
,
1000
0001
1000
0001
0000
0100
0001
0000
0010
0001
0010
0001
0000
0010
0100
0000
,
1000
0000
0010
0100
0001
0000
0100
0000
0010
0000
1000
0001
0010
0001
0000
0000
,
1000
0010
1000
0010
0000
0100
0010
0000
1000
0001
1000
0001
0000
0010
0001
0000
,
0100
0000
0010
1000
0001
0000
0010
0000
0100
0000
1000
0001
0100
0000
0000
0000
,
0001
0010
0001
0010
0000
0100
0010
0000
0001
1000
0001
1000
0000
0010
1000
0000
,
0100
1000
0100
0000
0010
0001
0010
0000
0001
0100
0001
0000
1000
0010
1000
0000
,
0001
0010
0100
0010
0000
0001
0100
0000
0010
1000
0100
1000
0000
0100
0010
0000
,
0001
0000
0100
0001
0010
0000
0100
1000
0010
0000
0100
0001
1000
0000
0000
0000
,
0100
0010
0001
0010
0000
0100
1000
0000
0001
0100
0010
0100
0000
0010
1000
0000
,
0001
0000
0010
0100
1000
0000
0010
0100
0001
0000
0010
0001
1000
0001
0000
0000
,
0100
0010
1000
0010
0000
0100
0001
0000
0010
0100
1000
0100
0000
0010
0001
0000
,
1000
0000
0010
0100
0001
0000
0010
0100
1000
0000
0001
0100
0010
0100
0000
0000
,
0001
1000
0010
0000
1000
0001
0010
0000
0100
1000
0010
0000
0100
0001
0010
0000
,
0220
0330
2002
3003
,
1000
0100
0000
0010
0001
0000
0100
1000
0000
0100
0001
0000
1000
0100
0000
0010
,
0001
0000
0100
1000
0000
0100
0001
0000
0010
0100
1000
0000
0100
0010
0000
0000
,
0001
0100
0000
0010
1000
0000
0100
0001
0000
0100
1000
0000
0001
0100
0000
0010
,
1000
0000
0100
0001
0000
0100
1000
0000
0010
0100
0010
0100
0001
1000
0001
0000
,
0100
0010
0000
1000
0100
0000
0010
1000
0000
0010
0001
0000
0100
0010
0000
1000
,
0100
0000
0010
1000
0000
0010
0001
0000
0100
0010
1000
0000
0100
0000
0010
0100
,
0010
0001
0000
0100
0010
0000
1000
0100
0000
0001
0100
0000
1000
0001
1000
0001
,
0100
0000
0010
0100
0010
0000
0100
0010
0000
0000
1000
0100
0010
0000
0001
0100
,
0020
0000
0000
0000
,
0030
0000
0000
0000
;

//--------------- dance-double - forcednature ----------------
#NOTEDATA:;
#STEPSTYPE:dance-double;
#DESCRIPTION:forcednature;
#DIFFICULTY:Easy;
#METER:8;
#RADARVALUES:0,0,0,0,0;
#CREDIT:forcednature;
#NOTES:
00000000
00000000
00000000
00000000
,
00000000
00000000
00000000
00000000
,
00000000
00000000
00000000
00000000
,
00000000
00000000
00000000
00000000
,
00000000
00000000
00000000
00000000
,
00001000
00001000
00010000
00001000
,
00100000
00010000
01000000
00100000
,
10000000
10000000
01000000
10000000
,
00100000
00000000
01000000
00000000
00010000
01000000
00010000
00000000
,
00100000
00100000
00001000
00010000
,
00000010
00001000
00000100
00000010
,
00000001
00000001
00000100
00000001
,
00000020
00000030
00000200
00000300
,
00001000
00000010
00010000
00000010
,
00001000
00000100
00010000
00000100
,
00001000
00000010
00010000
00001000
,
00100000
00000000
00010000
00000000
01010000
00010000
01000000
00000000
,
00100000
10000000
01000000
10000000
,
00100000
01000000
00010000
01000000
,
00001000
00000000
00100000
00000000
00001000
00010000
00001000
00000000
,
00020000
00000000
00030000
00000000
,
00000100
00000000
00000000
00000100
00000000
00000000
00001000
00000000
00000000
00000100
00000000
00000000
00010000
00000000
00000000
00010000
,
00000000
00000000
00001000
00000000
00000000
00010000
00000000
00000000
00002000
00000000
00000000
00000000
00003000
00000000
00000000
00000000
,
01000000
00000000
00000000
01000000
00000000
00000000
00010000
00000000
00000000
01000000
00000000
00000000
00001000
00000000
00000000
00001000
,
00000000
00000000
00010000
00000000
00000000
00001000
00000000
00000000
00010000
00000000
00000000
00000000
00011000
00000000
00000000
00000000
,
00000100
00000000
00000000
00001000
00000000
00000000
00000100
00000000
00000000
00000010
00000000
00000000
00000100
00000000
00000000
00001000
,
00000000
00000000
00000100
00000000
00000000
00010000
00000000
00000000
00002000
00000000
00000000
00000000
00003000
00000000
00000000
00000000
,
01000000
00000000
00000000
00010000
00000000
00000000
01000000
00000000
00000000
00100000
00000000
00000000
10000000
00000000
00000000
00000000
,
10010000
00000000
10010000
00000000
00010000
10000000
00010000
00000000
,
00100000
00000000
00100000
00001000
00000000
00001000
00010000
00000000
,
00010000
00000100
00000000
00000100
00001000
00000000
00000001
00000000
,
00001000
00000000
00001000
00000010
00000000
00000010
00010000
00000000
,
00010000
00001000
00000000
00001000
02000000
00000000
03000000
00000000
,
00010000
00000000
00010000
00100000
00000000
00100000
00001000
00000000
,
00001000
00010000
00000000
00010000
00000100
00000000
00001000
00000000
,
00000010
00000000
00000010
00000100
00000000
00000100
00000010
00000000
,
00001000
00000001
00000010
00000110
,
00000002
00000000
00000000
00000000
,
00000000
00000000
00000000
00000003
,
00000200
00000000
00000000
00000000
,
00000000
00000000
00000000
00000300
,
00002000
00000000
00000000
00000000
,
00000000
00000000
00000000
00003000
,
00020000
00000000
00000000
00000000
,
00000000
00000000
00000000
00030000
,
00200000
00000000
00000000
00300000
,
20000000
00000000
00000000
30000000
,
02000000
00000000
00000000
03000000
,
00200000
00000000
00000000
00300000
,
00020000
00000000
00000000
00030000
,
02000000
00000000
00000000
03000000
,
00002000
00000000
00000000
00003000
,
00020000
00030000
00002000
00003000
,
00011000
00010000
00000100
00001000
,
00000010
00001000
00000010
00000000
00000100
00000000
00000001
00000000
,
00001001
00001000
00000100
00010000
,
00001000
00010000
00001000
00000000
01000000
00000000
00010000
00000000
,
10010000
10000000
01000000
00100000
,
00010000
00100000
00010000
00000000
01000000
00000000
00001000
00000000
,
00011000
00010000
00000010
00001000
,
00000100
00001000
00000100
00000000
00000010
00000001
00000010
00000000
,
00000001
00000000
00000100
00000001
00000100
00000000
00000010
00000100
,
00000010
00001000
00000100
00010000
,
00001000
00000000
00100000
00010000
00100000
00000000
00010000
10000000
,
00010000
10000000
00100000
01000000
,
00010000
00000000
00100000
00010000
00100000
00000000
00001000
00010000
,
00001000
00010000
00000010
00001000
,
00000001
00000000
00000010
00000001
00000010
00000000
00000100
00001000
,
00000200
00000300
00020000
00030000
,
00001000
00000000
00001000
01000000
00000000
01000000
00010000
00000000
,
00010000
01000000
00000000
01000000
00002000
00000000
00003000
00000000
,
00010000
00000000
00010000
00000100
00000000
00000100
00001000
00000000
,
00001000
00000100
00000000
00000100
00010000
00000000
00011000
00000000
,
00001000
00000000
00001000
00100000
00000000
00100000
01000000
00000000
,
01000000
00100000
00000000
00100000
00002000
00000000
00003000
00000000
,
00010000
00000000
00010000
00000010
00000000
00000010
00000100
00000000
,
00001000
00010000
00100000
01100000
,
20020000
00000000
00000000
00000000
,
30030000
00000000
00000000
00000000
;

//--------------- dance-double - forcednature ----------------
#NOTEDATA:;
#STEPSTYPE:dance-double;
#DESCRIPTION:forcednature;
#DIFFICULTY:Medium;
#METER:12;
#RADARVALUES:0,0,0,0,0;
#CREDIT:forcednature;
#NOTES:
00000000
00000000
00000000
00000000
,
00000000
00000000
00000000
00000000
,
00000000
00000000
00000000
00000000
,
00000000
00000000
00000000
00000000
,
00000000
00000000
00000000
00000000
,
00011000
00000000
00101000
00000000
00100000
00010000
01000000
00000000
,
00100000
10000000
00010000
10000000
01000000
00100000
00010000
00000000
,
00110000
00000000
00101000
00000000
00001000
00010000
00000100
00000000
,
00001000
00000010
00001000
00000010
00000100
00000001
00000010
00000000
,
00000110
00000000
00001100
00000000
00001000
00000010
00010000
00000000
,
00001000
00010000
00001000
00100000
00010000
00100000
01000000
00000000
,
11000000
00000000
10100000
00000000
00100000
01000000
00010000
00000000
,
00100000
00001000
00020000
00000000
00030010
00010000
00002000
00000000
,
00013000
00000100
00001000
00000100
00010000
00000010
00001000
00000010
,
00010000
00001000
01000000
00010000
00100000
01000000
10000000
00000000
,
00010000
01000000
00001000
00010000
00001000
00100000
00010000
00100000
,
00001000
00010000
00000010
00001000
00000100
00000010
00000001
00000000
,
00000100
00000010
00000100
00000010
00001000
00000100
00000010
00000100
,
00010000
00001000
00100000
00010000
00100000
01000000
10000000
00000000
,
00100000
01000000
00010000
01000000
00001000
00001000
00010000
00001000
,
00000020
00000000
00000030
00000000
,
00000001
00000000
00000000
00000100
00000000
00000000
00001000
00000000
00000000
00010000
00000000
00000000
01000000
00000000
00000000
10000000
,
00000000
00000000
00100000
00000000
00000000
01000000
00000000
00000000
20020000
00000000
00000000
00000000
30030000
00000000
00000000
00000000
,
10000000
00000000
00000000
01000000
00000000
00000000
00010000
00000000
00000000
00001000
00000000
00000000
00000100
00000000
00000000
00000001
,
00000000
00000000
00000010
00000000
00000000
00000100
00000000
00000000
00001000
00000000
00001000
00000000
00001000
00000000
00001000
00000000
,
00000001
00000000
00000000
00000010
00000000
00000000
00001000
00000000
00000000
00010000
00000000
00000000
00100000
00000000
00000000
10000000
,
00000000
00000000
01000000
00000000
00000000
00100000
00000000
00000000
20020000
00000000
00000000
00000000
30030000
00000000
00000000
00000000
,
10000000
00000000
00000000
00100000
00000000
00000000
00010000
00000000
00000000
00001000
00000000
00000000
00000010
00000000
00000000
00000001
,
00000010
00000000
00000000
00000001
00000010
00000000
00000000
00000001
00000010
00000000
00000010
00000000
00000010
00000000
00000010
00000000
,
00000001
00000000
00000001
00000100
00000010
00010000
00001000
00000000
,
01000000
00010000
00100000
01000000
10000000
00000000
11000000
00000000
,
10100000
00000000
00100000
01000000
00001000
00010000
00000010
00000000
,
00001000
00000001
00000010
00000100
00001000
00000000
00001100
00000000
,
00001010
00000000
00000010
00000100
00001000
00000100
00000001
00000000
,
00000010
00000100
00010000
00001000
00100000
00000000
01100000
00000000
,
01000000
10000000
01000000
10000000
00100000
00100000
00100000
10000000
,
01000000
00000000
00010000
00000000
00000000
00001000
00000000
00000000
00000100
00000000
00000000
00000001
00000000
00000000
00000010
00000000
,
00000200
00001000
00000000
00001000
,
00000000
00000010
00000000
00000010
,
00002300
00000100
00000000
00000100
,
00000000
00000001
00000000
00000001
,
00003020
00001000
00000000
00001000
,
00000000
00010000
00000000
00010000
,
00020030
00001000
00000000
00001000
,
00000000
00000100
00000000
00030100
,
00011000
00000000
00100000
00010000
00100000
00000000
00010000
01000000
,
00010000
00000000
01000000
00100000
01000000
00000000
00100000
00000000
,
10000000
00000000
01000000
10000000
01000000
00000000
10000000
00100000
,
10000000
00000000
00100000
01000000
00100000
00000000
01000000
00000000
,
10010000
00000000
00010000
00100000
00010000
00000000
00100000
00001000
,
00100000
00000000
00001000
00010000
00001000
00000000
00010000
00000000
,
00011000
00000000
00000100
00001000
00000100
00000000
00001000
00000010
,
00001000
00000000
00000001
00000001
00000020
00000000
00000230
00000000
,
00001300
00000010
00010000
00001000
00010000
00000100
00001000
00000000
,
00000010
00000100
00001000
00000000
00010000
00100000
01000000
00000000
,
00100000
10000000
00010000
00100000
00010000
10000000
00100000
00000000
,
10000000
01000000
00010000
00000000
00001000
00000010
00000010
00000000
,
00000100
00000010
00000001
00001000
00000010
00010000
00001000
00000000
,
00000010
00000001
00000100
00000000
00001000
00010000
00100000
00000000
,
01000000
00010000
00100000
00010000
10000000
00100000
00010000
00000000
,
00001000
00001000
00010000
00010000
00001000
00001000
00010000
00010000
,
00000010
00000100
00001000
00000100
00000010
00000100
00001000
00000000
,
00010000
00100000
01000000
00000000
00100000
10000000
00010000
00000000
,
00100000
01000000
00010000
01000000
00100000
01000000
00010000
00000000
,
00001000
00000010
00000100
00000000
00001000
00000001
00000001
00000000
,
00000100
00001000
00010000
00001000
00000100
00001000
00010000
00000000
,
00100000
10000000
01000000
00000000
00100000
00010000
01000000
00000000
,
01001000
00000000
00011000
00000000
00010000
00000010
00001000
00000001
,
00000200
00000300
00002002
00003003
,
00000001
00000000
00000000
00000010
00000000
00000000
00001000
00000000
00000000
00010000
00000000
00000000
01000000
00000000
00000000
10000000
,
00000000
00000000
00100000
00000000
00000000
00010000
00000000
00000000
01100000
00000000
00000000
00000000
10010000
00000000
00000000
00000000
,
10000000
00000000
00000000
00100000
00000000
00000000
00010000
00000000
00000000
00001000
00000000
00000000
00000100
00000000
00000000
00000001
,
00000000
00000000
00000010
00000000
00000000
00001000
00000000
00000000
00000010
00000000
00000010
00000000
00000100
00000000
00000010
00000000
,
00000001
00000000
00000000
00000100
00000000
00000000
00001000
00000000
00000000
00010000
00000000
00000000
01000000
00000000
00000000
10000000
,
00000000
00000000
00100000
00000000
00000000
00010000
00000000
00000000
01100000
00000000
00000000
00000000
10010000
00000000
00000000
00000000
,
10000000
00000000
00000000
01000000
00000000
00000000
00010000
00000000
00000000
00001000
00000000
00000000
00000100
00000000
00000000
00000001
,
00001000
00001000
00000001
00001000
00000010
00000200
00000300
00000010
,
00002002
00000000
00000000
00000000
,
00003003
00000000
00000000
00000000
;

//--------------- dance-double - forcednature ----------------
#NOTEDATA:;
#STEPSTYPE:dance-double;
#DESCRIPTION:forcednature;
#DIFFICULTY:Hard;
#METER:16;
#RADARVALUES:0,0,0,0,0;
#CREDIT:forcednature;
#NOTES:
00000000
00000000
00000000
00000000
,
00000000
00000000
00000000
00000000
,
00000000
00000000
00000000
00000000
,
00000000
00000000
00000000
00000000
,
00000000
00000000
00000000
00000000
,
00011000
00000000
00101000
00000000
00100000
00010000
01000000
00000000
,
00100000
10000000
00010000
10000000
01000000
00010000
00001000
00000000
,
00011000
00000000
00010010
00000000
00000010
00001000
00000100
00000000
,
00000010
00000000
00000001
00000000
00001000
00000000
00000001
00000000
00000100
00000000
00000010
00001000
00000010
00000000
00000000
00000000
,
00001100
00000000
00010100
00000000
00010000
00001000
00100000
00000000
,
00010000
01000000
00100000
10000000
01000000
00010000
00001000
00000000
,
00101000
00000000
00011000
00000000
00010000
00001000
00000010
00000000
,
00000100
00000010
00000002
00000000
00000103
00000010
00002000
00000000
,
00003100
00000000
00010000
00000000
00001000
00010000
00001000
00000000
01000000
00000000
00010000
00000000
00100000
00000000
00000000
00000000
,
01000000
00000000
10000000
00000000
00100000
10000000
00100000
00000000
01000000
00000000
00010000
00000000
00100000
00000000
00000000
00000000
,
00001000
00000000
00010000
00000000
00000100
00001000
00000100
00000000
00001000
00000000
00000001
00000000
00000100
00000000
00000000
00000000
,
00000010
00000000
00001000
00000000
00000100
00001000
00000100
00000000
00010000
00000000
00001000
00010000
00001000
00100000
00000000
00000000
,
00010000
00000000
01000000
00000000
00100000
01000000
00100000
00000000
10000000
00000000
01000000
00000000
00010000
00000000
00000000
00000000
,
00001000
00000000
00100000
00000000
00001000
00010000
00001000
00000000
00010000
00000000
00000100
00000000
00000010
00000000
00000000
00000000
,
00000001
00000000
00000100
00000000
00000010
00000100
00000010
00000000
00001000
00000000
00001000
00000000
00000100
00000000
00010000
00000000
,
00022000
00000000
00033000
00000000
,
01000000
00100000
00000000
00010000
00001000
00000000
00010000
00100000
00000000
00010000
00001000
00000000
00000100
00000010
00000000
00000100
,
00001000
00000000
00010000
00100000
00000000
10000000
00100000
00000000
00010000
00000000
00001000
00000000
00000200
00000000
00000000
00000000
,
00000301
00000010
00000000
00001000
00000010
00000000
00000100
00000010
00000000
00000100
00010000
00000000
00001000
00100000
00000000
01000000
,
00100000
00000000
00010000
10000000
00000000
01000000
00010000
00000000
00001000
00000000
00001000
00000000
00001000
00000000
00001000
00000000
,
00010000
00100000
00000000
10000000
00100000
00000000
01000000
00100000
00000000
00010000
00001000
00000000
00000100
00001000
00000000
00010000
,
00100000
00000000
00010000
00001000
00000000
00000100
00000001
00000000
00000100
00000000
00000010
00000000
00000000
00000000
00010000
00000000
,
00001000
00000010
00000000
00000001
00000010
00000000
00000100
00010000
00000000
00001000
00100000
00000000
01000000
00010000
00000000
01000000
,
10000000
00000000
00000000
00100000
10000000
00000000
00000000
01000000
10000000
00000000
10000000
00000000
10000000
00000000
10000000
00000000
,
10000000
00100000
10000000
00000000
00100000
00000000
01000000
00010000
01000000
00000000
00010000
00000000
00001000
00000010
00001000
00000000
,
00000010
00000000
00000100
00000001
00000100
00000000
00000001
00000000
00000010
00000001
00000100
00000000
00000100
00000010
00001000
00000000
,
00000001
00000010
00000001
00000000
00000010
00000000
00000100
00001000
00000100
00000000
00001000
00000000
00010000
00100000
00010000
00000000
,
00100000
00000000
01000000
10000000
01000000
00000000
10000000
00000000
00100000
00000000
00000000
01100000
00000000
00000000
10010000
00000000
,
10000000
00100000
10000000
00000000
00100000
00000000
00010000
00001000
00010000
00000000
00001000
00000000
00000010
00000001
00000010
00000000
,
00000001
00000000
00000100
00000010
00000100
00000000
00000010
00000000
00001000
00000100
00000010
00000000
00000001
00000100
00000000
00000000
,
00001000
00000000
00001000
00000000
00010000
00000000
00010000
00000000
00100000
01000000
00100000
01000000
00100000
01000000
00100000
01000000
,
00010000
00000000
01010000
00000000
00000000
00011000
00000000
00000000
00001010
00000000
00000000
00000110
00000000
00000000
00000101
00000000
,
00002000
00000100
00000000
00000100
,
00000000
00000001
00000000
00000010
,
00023000
01000000
00000000
01000000
,
00000000
10000000
00000000
00100000
,
00032000
00000100
00000000
00000100
,
00000000
00000001
00000000
00000010
,
00023000
01000000
00000000
01000000
,
00000000
10000000
00000000
00100000
,
00032000
00000000
00000000
00000100
00000000
00000000
00000100
00000000
00003200
00000000
00000000
00000010
00000000
00000000
00000010
00000000
,
00000320
00000000
00000000
00000001
00000000
00000000
00000001
00000000
00000032
00000000
00000000
00000100
00000000
00000000
00000100
00000000
,
00000203
00000000
00000000
00001000
00000000
00000000
00001000
00000000
00002300
00000000
00000000
00010000
00000000
00000000
00010000
00000000
,
00023000
00000000
00000000
00100000
00000000
00000000
00100000
00000000
00230000
00000000
00000000
10000000
00000000
00000000
10000000
00000000
,
20300000
00000000
00000000
01000000
00000000
00000000
01000000
00000000
30020000
00000000
00000000
00100000
00000000
00000000
00100000
00000000
,
02030000
00000000
00000000
00010000
00000000
00000000
00010000
00000000
03002000
00000000
00000000
00100000
00000000
00000000
00100000
00000000
,
00023000
00000000
00000000
00000100
00000000
00000000
00001000
00000000
00030020
00000000
00000000
00001000
00000000
00000000
00000100
00000000
,
00001030
00000000
00001000
00000000
00000001
00000000
00000010
00000100
00020000
00000000
00000000
00000000
00032000
00000000
00000000
00000000
,
01003000
00010000
01000000
00010000
00000000
01000000
00100000
00000000
10000000
00100000
10000000
00100000
00000000
10000000
01000000
00000000
,
00100000
00000000
01000000
00100000
00001000
00000000
00010000
00000000
00000100
00000000
00001000
00000010
00000100
00000000
00000000
00000000
,
00000001
00000010
00000001
00000010
00000000
00000100
00000010
00000000
00000001
00000100
00000001
00000100
00000000
00001000
00000100
00000000
,
00001000
00000000
00010000
00001000
00010000
00000000
00100000
00000000
01000000
00000000
00010000
10000000
00100000
10000000
00000000
00000000
,
01000000
10000000
01000000
10000000
00000000
01000000
00100000
00000000
00001000
00100000
00001000
00100000
00000000
00001000
00010000
00000000
,
00000010
00000000
00001000
00000001
00000010
00000000
00000100
00000000
00001000
00000000
00000010
00010000
00001000
00000000
00000000
00000000
,
00100000
00010000
00100000
00010000
00000000
01000000
00010000
00000000
01000000
00100000
01000000
00100000
00000000
10000000
01000000
00000000
,
00100000
00010000
00100000
00000000
00001000
00010000
00001000
00000000
00000100
00000010
00000100
00000000
00000010
00001000
00000001
00000000
,
00000010
00000100
00001000
00000100
00000000
00010000
00001000
00000000
00100000
00010000
00100000
00001000
00000000
00010000
00001000
00000000
,
01000000
00000000
00010000
00100000
01000000
00000000
10000000
00100000
01000000
00000000
00001000
00010000
00001000
00000000
00000000
00000000
,
00010000
00000100
00001000
00000100
00000000
00001000
00000010
00000000
00000100
00000001
00000010
00000001
00000000
00000010
00000100
00000000
,
00001000
00000000
00000010
00010000
00001000
00000000
00100000
00001000
00010000
00000000
00001000
01000000
00010000
01000000
00000000
00000000
,
00100000
10000000
00010000
10000000
00000000
01000000
00100000
00000000
00010000
00100000
00001000
00010000
00000000
00001000
00010000
00000000
,
00000100
00000000
00001000
00000010
00000100
00000000
00000001
00000010
00000100
00000000
00001000
00000010
00010000
00000010
00000000
00000000
,
00010000
00001000
00100000
00000000
00001000
00010000
00000010
00000000
00010000
00001000
01000000
00000000
00010000
00100000
01000000
00000000
,
02200000
03300000
20020000
30030000
,
10000000
01000000
00000000
00100000
00010000
00000000
00001000
00000010
00000000
00000100
00000001
00000000
00000010
00001000
00000000
00000010
,
00000001
00000000
00000100
00001000
00000000
00010000
00001000
00000000
01000000
00010000
01000000
00000000
00100000
10000000
00000000
00000000
,
01000000
00010000
00000000
00001000
00010000
00000000
00000010
00000100
00000000
00001000
00010000
00000000
00000100
00000010
00000000
00000001
,
00000100
00000000
00001000
00010000
00000000
00001000
00100000
00000000
01000000
10000000
01000000
10000000
00010000
01000000
00010000
00000000
,
10000000
01000000
00000000
00010000
00001000
00000000
01000000
00100000
00000000
00010000
00001000
00000000
00000100
00000001
00000000
00000010
,
00001000
00000000
00010000
00000100
00000000
00001000
00000010
00000000
00000100
00000001
00000010
00000000
00000100
00000000
00000010
00000100
,
00001000
00000100
00000000
00010000
00001000
00000000
00000010
00001000
00000000
00010000
00000100
00000000
00001000
00000001
00001000
00000001
,
00000100
00000000
00000010
00000100
00000010
00000000
00010000
00001000
00000000
00000000
00010000
00100000
10000000
00000000
00100000
01000000
,
00020000
00000000
00000000
00000000
,
00030000
00000000
00000000
00000000
;
