#VERSION:0.83;
#TITLE:C18H27NO3;
#SUBTITLE:;
#ARTIST:Team Grimoire;
#TITLETRANSLIT:;
#SUBTITLETRANSLIT:;
#ARTISTTRANSLIT:;
#GENRE:;
#CREDIT:;
#MUSIC:C18H27NO3.ogg;
#BANNER:C18H27NO3.png;
#BACKGROUND:C18H27NO3-bg.png;
#CDTITLE:./CDTitles/SDVX II infinite infection.png;
#SAMPLESTART:90.045;
#SAMPLELENGTH:15.000;
#SELECTABLE:YES;
#OFFSET:1.377;
#BPMS:0.000=105.000
,40.000=210.000
,169.000=105.000
,193.000=210.000
,245.000=420.000
,257.000=210.000
,321.000=52.500
,325.750=210.000
,330.750=105.000
;
#STOPS:40.000=0.857
,253.000=0.035
,253.250=0.036
,253.500=0.036
,253.750=0.035
,254.000=0.036
,254.250=0.036
,254.500=0.036
,254.750=0.035
,255.000=0.036
,255.250=0.036
,255.500=0.036
,255.750=0.035
,256.000=0.036
,256.250=0.036
,256.500=0.036
,256.750=0.035
;
#TIMESIGNATURES:0.000=4=4,
40.000=1=4,
41.000=4=4,
321.000=5=4
;
#DISPLAYBPM:105.000:210.000;
#BGCHANGES:4.000=../BGAs/21he.mp4=1.000=0=0=0=StretchNoLoop====,
99999.000=-nosongbg-=1.000=0=0=0=StretchNoLoop====
;
#FGCHANGES:;

//--------------- dance-single - forcednature ----------------
#NOTEDATA:;
#STEPSTYPE:dance-single;
#DESCRIPTION:forcednature;
#DIFFICULTY:Beginner;
#METER:6;
#RADARVALUES:0,0,0,0,0;
#CREDIT:forcednature;
#NOTES:
0000
0000
0000
0000
,
0000
0000
0000
0000
,
0000
0000
0000
0000
,
0000
0000
0000
0000
,
0000
0000
0000
0000
,
0000
0000
0000
0000
,
2002
0000
0000
0000
,
0000
0000
3003
0000
,
0001
0000
0100
0000
,
0010
0010
1000
0001
,
0100
0001
0000
0010
,
0000
0100
0000
0010
,
0000
0001
0001
0001
,
0000
1000
0000
0100
,
0000
1000
1000
1000
,
0000
0010
0000
0100
,
0000
0001
0001
0001
,
0000
0010
0000
0100
,
0000
1000
1000
1000
,
0000
0001
0000
0100
,
0000
0010
0010
0010
,
0000
1000
0000
0001
,
0000
0010
0010
0010
,
0000
0100
0100
0100
,
0000
1000
0000
1001
,
0000
0001
0000
0100
,
0000
0010
0000
0100
,
0000
0010
0000
1000
,
0000
0001
0000
0100
,
0000
0010
0000
1000
,
0000
0001
0000
1001
,
0000
1000
0000
0100
,
0000
1000
0000
0001
,
0000
0010
0010
0010
,
0000
0110
0000
1000
,
0000
0001
0000
0100
,
0000
0010
0000
1000
,
0000
0001
0001
0001
,
0000
0110
0000
1000
,
0000
0001
0000
0010
,
0000
0110
0000
1000
,
0000
0001
0001
0100
,
0000
2002
3003
0000
,
1000
0220
0330
0000
,
0010
2002
3003
0000
,
0001
0220
0330
0010
,
0100
2002
3003
0000
,
0001
0220
0330
0000
,
0100
1001
0000
1000
,
0000
0010
0000
0100
,
0000
0001
0001
0001
,
0000
0010
0100
0010
,
0000
0220
0000
0330
,
0000
2002
0000
3003
,
0000
0220
0000
0330
,
0000
2002
0000
3003
,
0000
0110
0000
1001
,
0000
0110
0000
1001
,
0000
0001
1000
0001
,
1000
0010
0100
0010
,
0100
0001
0001
1000
,
1000
0020
0000
0000
,
0000
0000
0000
0000
,
0000
0030
0000
0000
,
0000
1000
0000
0100
,
0000
1000
0000
0001
,
0000
0010
0000
0100
,
0000
0010
0001
1000
,
0000
0001
0000
0100
,
0000
0010
0000
0100
,
0000
0001
0000
1000
,
0000
0010
0100
0001
,
0000
1000
0000
0100
,
0000
0010
0000
0100
,
0000
1000
0000
0001
,
0000
0010
0100
1000
,
0000
0001
0000
0100
,
0000
0010
0000
0100
,
0000
0001
1000
0010
,
0000
1000
0001
0010
,
0000
2002
0000
0000
,
0000
0000
0000
0000
,
0000
0000
0000
0000
0000
0000
0000
0000
0000
0000
0000
3003
0000
0000
0000
0000
;

//--------------- dance-single - forcednature ----------------
#NOTEDATA:;
#STEPSTYPE:dance-single;
#DESCRIPTION:forcednature;
#DIFFICULTY:Easy;
#METER:9;
#RADARVALUES:0,0,0,0,0;
#CREDIT:forcednature;
#NOTES:
0000
0000
0000
0000
,
0000
0000
0000
0000
,
0000
0000
0000
0000
,
0000
0000
0000
0000
,
0000
0000
0000
0000
,
0000
0000
0000
0000
,
0002
0000
0203
0000
,
0320
0000
2030
0000
,
3002
0023
0230
2300
,
3020
0230
0302
2003
,
3200
0300
0000
0000
0010
0000
0000
0000
0001
0000
0000
0000
0100
0000
0000
0000
,
0001
0000
0100
0010
0100
0000
0010
0000
,
1000
0100
1000
0010
,
0100
0000
0001
0100
0001
0000
0010
0000
,
0001
1000
0100
0010
,
0100
0000
0010
0001
0010
0000
0100
0000
,
1000
0000
0001
0000
0100
0000
0010
0100
,
0010
1000
0001
0020
,
0000
0030
0100
0000
1000
0000
0010
1000
,
0010
0100
0001
1000
,
0100
0000
0010
0000
0001
0000
0100
0001
,
0100
0010
1000
0001
,
0010
0000
0110
0000
1000
0000
0001
0100
,
0001
0000
0110
0000
0001
0000
1000
0100
,
1000
1001
0000
0110
,
0000
0000
0001
0000
1000
0000
0001
1000
,
0001
0100
0100
0010
,
0100
0000
0010
1000
0010
0000
0100
0000
,
0001
0010
0010
0100
,
0010
0000
0001
1000
0001
0000
1000
0000
,
0100
0000
1000
0001
1000
0001
0020
0000
,
0030
0000
0100
0000
1000
0000
0010
1000
,
0010
0000
0100
0000
0001
0000
0010
0001
,
0010
0100
1000
0110
,
0110
0000
0001
0000
1000
0000
0100
1000
,
0100
0010
0001
1000
,
0010
0000
0100
0000
0001
0000
0100
0001
,
1000
0010
0100
0001
,
0010
0000
1001
0000
1000
0000
0100
0010
,
0100
0010
0001
0100
,
0010
0110
1000
0110
,
0001
1001
1001
0100
,
0010
0000
0220
0000
0330
0000
1000
1000
,
0001
0100
0020
0000
0030
0000
1000
1000
,
0001
0010
0200
0000
0300
0000
0010
0010
,
0001
1000
0020
0000
0030
0000
0100
0100
,
0001
1000
0200
0000
0300
0000
0010
0001
,
0100
0010
2000
0000
3000
0000
0100
0010
,
0001
1000
0010
0000
0110
0000
0100
0000
,
0110
0001
1001
1000
,
1001
0000
0001
0010
0001
0000
1000
0010
,
1000
0100
0010
0110
,
1000
2002
0000
3003
,
0000
0202
0000
0303
,
0000
2020
0000
3030
,
0000
0220
0000
0330
,
0000
0202
0303
0022
,
0033
2200
3300
2020
,
3030
0100
1001
0010
,
1001
0000
1000
0100
1000
0000
0001
0100
,
0001
0000
0010
0100
0010
0100
0010
0000
,
0100
2002
0000
0000
,
0000
0000
0000
0000
,
0000
3000
0000
0000
,
0000
1003
0100
0010
,
0100
0000
1000
0001
0100
0000
0010
0000
,
1000
0001
0010
0100
,
0010
0000
0001
1000
0100
0000
0010
0000
,
0110
1000
0001
0100
,
0001
0000
1000
0010
0100
0000
0001
0000
,
1000
0100
0010
0100
,
1000
0000
0001
0010
0100
0000
0010
0000
,
0110
0001
1000
0100
,
1000
0000
0001
0100
0010
0000
1000
0000
,
0001
0010
0001
1000
,
0010
0000
0100
0001
1000
0000
0010
0000
,
0110
0000
1000
0001
0100
0000
0001
0000
,
1000
0000
0100
1000
0001
0000
0010
0000
,
0100
0110
1000
1001
,
0001
0000
0110
0000
0001
0000
1000
0010
,
0100
0002
0000
0000
,
0000
0000
0000
0000
0000
0000
0000
0023
0000
0000
0000
0000
0000
0000
0000
0000
,
0000
0000
0000
0000
0000
0000
0000
0000
0000
0030
0000
1001
0000
0000
0000
0000
;

//--------------- dance-single - forcednature ----------------
#NOTEDATA:;
#STEPSTYPE:dance-single;
#DESCRIPTION:forcednature;
#DIFFICULTY:Medium;
#METER:14;
#RADARVALUES:0,0,0,0,0;
#CREDIT:forcednature;
#NOTES:
0000
0000
0000
0000
,
0000
0000
0000
0000
,
0000
0000
0000
0000
,
0000
0000
0000
0000
,
0000
0000
0000
0000
,
0000
0000
0000
0000
,
1001
0000
0100
0000
0010
0001
0010
0000
,
0001
0000
0100
0000
0010
1000
0010
0000
,
1000
0100
1000
0000
0001
0100
0001
0000
,
0010
0000
0100
0000
1000
0000
0001
0000
0100
0010
0100
0010
1000
0000
0001
0000
,
0200
0300
0000
0000
0010
0000
1000
0000
0100
0000
1000
0000
0001
0000
0000
0000
,
0011
0000
1000
0100
0010
0000
0100
1000
,
0001
0000
0100
0010
0100
0001
0010
0000
,
0011
0000
0001
1000
0010
0000
1000
0001
,
0010
0000
0100
1000
0001
1000
0100
0000
,
0110
0000
1000
0001
0100
0000
0001
1000
,
0100
0000
0010
0001
1000
0001
0010
0000
,
0110
0000
0001
1000
0010
0000
1000
0001
,
0100
0000
0010
1000
0100
1000
0001
1000
,
0100
0000
0010
0001
0100
0000
0010
1000
,
0100
0000
0010
0001
0100
0001
1000
0001
,
0100
0000
0010
1000
0100
0000
0010
0001
,
0100
0000
0110
0000
0010
1000
0001
1000
,
0100
0000
0110
0000
0010
0001
1000
0001
,
0100
0000
0010
1000
0010
1000
0001
0100
,
0010
1000
0002
0000
0023
0000
0230
0000
,
2300
0000
3001
0100
0001
0100
0010
1000
,
0010
1000
0001
0100
0010
1000
0010
0100
,
0001
0000
1000
0100
1000
0100
0010
0001
,
0010
0001
1000
0100
0010
0001
0010
0100
,
1000
0000
0010
0010
0010
0100
0001
1000
,
0010
0100
0001
1000
0100
1000
0001
0100
,
0001
0000
0010
0100
0010
0100
1000
0001
,
0100
0001
1000
0100
1000
0000
0110
0000
,
1001
0000
0001
0010
0001
0010
0100
1000
,
0001
0010
0001
1000
0100
0001
0100
1000
,
0001
0000
1000
0010
1000
0010
1000
0001
,
0100
1000
0100
0001
1000
0010
1000
0001
,
0100
0000
0110
0000
0010
1000
0001
1000
,
0100
1000
0010
0100
0001
0010
0100
1000
,
0010
0000
0101
0000
1000
0001
0010
0000
,
0001
1000
0010
0000
0110
0000
1000
0001
,
0100
0000
0000
0000
0220
0000
0330
0000
0001
0001
0001
0000
0010
0010
0010
0000
,
0100
0000
1000
0000
0220
0000
0330
0000
1000
1000
1000
0000
0010
0010
0010
0000
,
0100
0000
0001
0000
0220
0000
0330
0000
0001
0001
0001
0000
1000
1000
1000
0000
,
0100
0000
0010
0000
0220
0000
0330
0000
1000
1000
1000
0000
0001
0000
0100
0001
,
0010
0000
0000
0000
2002
0000
3003
0000
1000
1000
1000
0010
1000
1000
1000
0001
,
0100
0000
0010
0000
2002
0000
3003
0000
0001
0001
0001
0010
0001
0001
0001
1000
,
0100
0010
0110
0000
1100
0000
0001
0001
,
0010
0000
0001
0100
0001
1000
0010
0000
,
0110
0000
1000
1000
1000
0000
0001
0001
,
0001
0000
0100
0010
1000
0001
0010
0100
,
0010
0022
0000
0000
,
0033
2200
0000
0000
,
3300
2020
0000
0000
,
3030
0202
0000
0000
,
0303
0022
0033
2200
,
3300
2020
3030
0202
,
0303
0011
1001
1100
,
1001
0000
0001
0100
0001
0100
0010
1000
,
0010
1000
0001
0010
0100
1000
0001
0100
,
0010
1000
0200
0000
0000
0000
0000
0000
,
0000
0000
0000
0000
,
0000
0000
0000
0000
,
0000
0000
1300
0010
0100
0010
1000
0000
,
0101
0000
0001
1000
0100
0001
0100
0000
,
0110
0000
0010
0001
1000
0100
1000
0000
,
1010
0002
0010
2003
,
3200
0000
0310
0001
0100
1000
0100
0000
,
0110
0000
0001
1000
0010
0100
0001
0000
,
0011
0000
1000
0100
0001
0100
1000
0001
,
0010
0102
1000
0023
,
0230
0000
1300
0001
0010
1000
0010
0001
,
1000
0000
0010
0100
0001
0010
0100
0001
,
0100
0000
1000
0001
0010
0001
1000
0010
,
0100
0102
0010
2003
,
3020
0000
0130
1000
0100
0001
1000
0010
,
0100
0000
0001
0010
1000
0010
0001
1000
,
0100
0000
0110
0000
0010
0001
0100
0000
,
0010
1000
0100
0000
0110
0000
0010
0001
,
1000
0010
0200
0000
0000
0000
0000
0000
,
0000
0000
0000
0000
0000
0000
0000
0302
0000
0000
0000
0000
0000
0000
0000
0000
,
0000
0000
0000
0000
0000
0000
0000
0000
0000
0003
0000
1010
0000
0000
0000
0000
;

//--------------- dance-single - forcednature assist by extraordiberry ----------------
#NOTEDATA:;
#STEPSTYPE:dance-single;
#DESCRIPTION:forcednature assist by extraordiberry;
#DIFFICULTY:Hard;
#METER:17;
#RADARVALUES:0,0,0,0,0;
#CREDIT:forcednature assist by extraordiberry;
#NOTES:
0000
0000
0000
0000
,
0000
0000
0000
0000
,
0000
0000
0000
0000
,
0000
0000
0000
0000
,
0000
0000
0000
0000
,
0000
0000
0000
0000
,
0110
0000
0001
0000
0010
0000
0100
0000
0010
0000
0001
1000
0010
0000
0100
0000
,
0010
0000
1000
0000
0100
0000
1000
0000
0010
0000
0100
0001
1000
0000
0100
0000
,
2000
0000
0010
0000
3020
0000
0100
0000
0230
0000
0001
0001
0302
0000
0010
0000
,
0203
0000
0000
0000
0000
0000
0320
0000
0000
0000
0000
0000
2030
0000
0000
0000
0000
0000
3002
0000
0000
0000
0000
0000
0013
0000
0000
0100
0000
0000
0010
0000
0000
0100
0000
0000
1000
0000
0001
0000
1000
0000
0001
0000
1000
0000
0001
0000
,
0200
0300
0000
0000
0010
0000
1000
0000
0100
0000
1000
0000
0010
0000
1000
0000
,
0100
0001
0100
1000
0001
0010
0100
0010
,
0001
0000
1000
0010
0100
0010
1000
0100
,
0001
0100
1000
0001
0010
0001
1000
0010
,
0001
0000
0010
1000
0100
1000
0001
0010
,
1000
0010
0001
0100
0010
0100
0001
1000
,
0010
0000
0100
1000
0100
0001
1000
0010
,
1000
0001
0010
0001
0100
0010
2000
0000
,
3100
0000
1001
0010
0001
0100
0010
1000
,
0001
0010
1000
0010
0001
0100
0020
1000
,
0130
0000
0001
0010
0001
1000
0100
0001
,
1000
0010
1000
0001
0100
1000
0020
0000
,
0130
0000
1010
0001
0100
0010
1000
0100
,
0001
0100
0011
1000
0100
0010
0001
0100
,
1000
0100
2010
0000
0100
0000
3002
0000
,
0010
0000
0000
0000
1003
0000
0010
1000
0010
0000
0100
0010
0200
0000
0000
0000
,
0000
0000
0301
0010
0001
0010
1000
0010
,
1000
0000
0010
0000
0001
0000
0100
0001
0100
0000
0010
0000
1000
0000
0100
0000
,
0010
0000
0100
0001
0100
0001
0100
1000
,
0100
0000
1000
0000
0010
0000
1000
0010
0100
0000
0001
0000
0010
0000
0100
0000
,
0010
0001
0100
0100
0100
0010
0110
0000
,
0001
0000
0010
0000
0100
1000
0100
0000
1000
0000
0010
0000
0100
0000
1000
0000
,
0100
0000
0001
0000
0010
0000
0001
0010
0001
0000
0100
0000
0010
0000
1000
0000
,
0100
0000
0001
0000
0100
1000
0000
0000
1000
0010
0000
0000
0110
0000
0000
0000
,
0110
0000
0000
0000
0001
0000
0010
0001
0010
0000
0001
0010
0100
0000
1000
0000
,
0100
0001
0100
0100
1000
0010
0100
0000
,
0001
0010
0001
0010
0100
0000
1000
0000
0010
0000
1000
0000
0001
0000
0100
0000
,
1000
0000
0000
0000
0100
0000
0001
0000
0010
0000
0010
0000
0001
1000
0001
1000
,
0010
0000
0110
0001
0010
0100
1000
0010
,
1000
0000
0100
0000
0001
0000
0100
0001
0100
0000
1000
0000
0001
0010
0000
0000
,
0100
0010
0000
0000
1002
0000
0000
0000
0103
0000
0010
0000
2001
0000
0000
0000
,
3100
0010
1001
0100
1001
0010
0110
0100
,
1001
0000
0000
0000
0000
0000
0000
0000
2010
0000
0000
0000
0000
0000
0000
0000
3001
0000
0001
0000
0100
0000
0100
0000
0001
0000
1000
0001
1000
0000
0100
0000
,
0010
0000
0001
0000
0200
0000
0000
0000
0310
0010
1000
0010
1000
0100
0001
0100
,
1000
0000
1000
0000
0010
0000
0000
0000
0200
0000
0000
0000
0000
0000
0000
0000
0301
0000
0001
0000
0010
0000
0001
0000
1000
0000
0100
1000
0100
0000
1000
0000
,
0010
0000
0100
0000
0001
0001
0010
0001
0100
0100
0001
0100
0010
1000
0010
0100
,
1001
0000
0000
0000
0000
0000
0000
0000
2100
0000
0000
0000
0000
0000
0000
0000
3001
0000
0001
0000
0010
0000
0001
0000
0100
0000
0010
0100
0010
0000
1000
0000
,
0100
0000
0010
0000
0002
0000
0000
0000
1003
1000
0010
1000
0100
0100
0100
0100
,
0010
0001
0200
0000
0001
0000
0310
0010
,
1000
0000
0010
0000
1000
0000
0100
1000
0100
0000
0010
0000
0002
0000
0000
0000
,
0203
0000
0000
0000
0310
1000
0010
1000
0010
0000
0100
0000
0001
1000
0001
1000
,
0001
0000
0010
0000
0100
0000
0100
0000
1000
0000
1000
0000
0100
0010
0100
0010
,
0001
1000
0001
1000
0200
0000
0000
0000
0001
0000
0000
0000
0010
0000
0000
0000
,
1300
0001
0200
0000
1000
0000
0010
0000
,
0301
1000
0200
0000
0001
0000
0010
0000
,
1300
0001
0200
0000
1000
0000
0010
0000
,
0301
1000
0200
0000
0310
0001
0201
0000
,
0310
1000
1200
0000
0310
0001
0201
0000
,
0310
1000
1100
0000
0011
0000
1100
0000
,
0011
0000
0000
0000
0001
0000
0001
0000
0100
0000
0001
0000
1000
0010
1000
0000
,
0010
0000
0100
0000
0001
1000
0001
1000
0001
1000
0001
1000
0100
0010
0100
0010
,
0100
0010
0100
0010
0002
0000
0000
0000
0000
0000
0000
0000
0000
0000
0000
0000
,
0000
0000
0000
0000
,
0000
0000
0000
0000
,
0000
0000
1003
0010
0100
0010
1000
0100
,
0001
0000
0100
0000
1000
0000
0001
0010
0100
0000
0010
0001
1000
0000
0010
0100
,
0001
0010
0001
0100
0010
0100
0001
0010
,
1000
0000
0010
0000
0001
0100
0001
0100
0020
0000
0000
0000
1030
0001
1000
0001
,
2000
0000
3100
0010
1000
0010
0001
1000
,
0100
0000
0001
0000
0100
0000
1000
0001
0010
0000
0001
0100
0010
0000
1000
0100
,
0010
0001
0100
1000
0100
0001
0010
1000
,
0010
0000
0001
0000
0201
0000
0000
0000
0010
0000
0000
0000
0301
1000
0001
1000
,
0020
0000
1030
0100
0001
0100
1000
0010
,
0100
0000
0001
0000
0010
0000
0100
0010
0001
0000
0100
0010
1000
0000
0100
1000
,
0001
0010
0100
0001
0100
1000
0010
0100
,
0001
0000
0010
0000
0001
0100
0001
0100
0020
0000
0000
0000
1030
0001
1000
0001
,
0200
0000
0000
0000
0310
1000
0010
0000
0100
0000
0001
0000
0010
0000
0100
0000
,
0010
0000
0001
0000
0100
0010
0100
0000
0010
1000
0010
0000
1000
0100
1000
0100
,
0010
0000
0001
0000
0100
0010
1000
0000
0001
0000
0010
0000
0100
0010
0001
0000
,
1000
0000
0010
0000
0100
0001
0100
0000
0001
0010
0001
0000
1000
0100
1000
0100
,
1000
0010
0100
0010
0200
0000
0000
0000
0000
0000
0000
0000
0000
0000
0000
0000
,
0000
0000
0000
0000
0000
0000
0000
0302
0000
0000
0000
0000
0000
0000
0000
0000
,
0000
0000
0000
0000
0000
0000
0000
0000
0000
0003
0000
0110
0000
0000
0000
0000
;

//--------------- dance-double - forcednature ----------------
#NOTEDATA:;
#STEPSTYPE:dance-double;
#DESCRIPTION:forcednature;
#DIFFICULTY:Easy;
#METER:9;
#RADARVALUES:0,0,0,0,0;
#CREDIT:forcednature;
#NOTES:
00000000
00000000
00000000
00000000
,
00000000
00000000
00000000
00000000
,
00000000
00000000
00000000
00000000
,
00000000
00000000
00000000
00000000
,
00000000
00000000
00000000
00000000
,
00000000
00000000
00000000
00000000
,
00002000
00000000
00023000
00000000
,
00030200
00000000
00002300
00000000
,
00003020
00000230
00000302
00000203
,
00000320
00002030
00003200
00020300
,
00032000
00003000
00000000
00000000
00100000
00000000
00000000
00000000
00010000
00000000
00000000
00000000
01000000
00000000
00000000
00000000
,
00010000
00000000
01000000
00100000
01000000
00000000
00100000
00000000
,
10000000
01000000
10000000
00010000
,
00100000
00000000
00001000
00010000
00001000
00000000
00010000
00000000
,
00000100
00001000
00000010
00000100
,
00000001
00000000
00000010
00000001
00000010
00000000
00000100
00000000
,
00001000
00000000
00000100
00000000
00010000
00000000
00001000
00010000
,
00001000
00100000
00010000
02000000
,
00000000
03000000
00100000
00000000
10000000
00000000
01000000
10000000
,
01000000
00100000
00010000
00100000
,
00001000
00000000
00010000
00000000
00000100
00000000
00010000
00001000
,
00010000
00000010
00001000
00000001
,
00000100
00000000
00000110
00000000
00001000
00000000
00000100
00001000
,
00000100
00000000
00011000
00000000
00001000
00000000
00100000
00010000
,
00100000
10010000
00000000
01100000
,
00000000
00000000
00010000
00000000
01000000
00000000
00010000
01000000
,
00010000
00100000
00100000
00001000
,
00010000
00000000
00001000
00010000
00001000
00000000
00010000
00000000
,
00000100
00001000
00001000
00000010
,
00000100
00000000
00000010
00000100
00000010
00000000
00000100
00000000
,
00000001
00000000
00001000
00000001
00001000
00000000
00002002
00000000
,
00003003
00000000
00001000
00000000
00000100
00000000
00010000
00001000
,
00010000
00000000
00001000
00000000
00100000
00000000
00010000
00100000
,
00010000
01000000
00100000
01100000
,
01100000
00000000
00000000
00000000
10000000
00000000
01000000
10000000
,
01000000
00100000
00010000
00100000
,
00001000
00000000
00010000
00000000
00001000
00000000
00010000
00001000
,
00010000
00000100
00001000
00000100
,
00000010
00000000
00001001
00000000
00000001
00000000
00000100
00000001
,
00000100
00000010
00001000
00000100
,
00010000
00011000
00100000
00011000
,
01000000
01100000
01100000
00010000
,
10000000
00000000
20020000
00000000
30030000
00000000
00010000
00010000
,
10000000
00100000
02000000
00000000
03000000
00000000
00010000
00010000
,
00100000
00001000
00020000
00000000
00030000
00000000
00000100
00000100
,
00001000
00000001
00000020
00000000
00000030
00000000
00000100
00000100
,
00010000
00001000
00200000
00000000
00300000
00000000
00010000
01000000
,
00100000
10000000
00020000
00000000
00030000
00000000
00100000
00001000
,
00010000
00000100
00001000
00000000
00001000
00000000
00000001
00000000
,
00000100
00000110
00000110
00001000
,
00000100
00000000
00010000
00001000
00010000
00000000
00001000
00000000
,
00100000
00000000
00010000
00100000
00010000
00000000
01000000
00000000
,
00100000
20020000
00000000
30030000
,
00000000
02200000
00000000
03300000
,
00000000
00022000
00000000
00033000
,
00000000
00000220
00000000
00000330
,
00000000
00002002
00003003
00002200
,
00003300
00020200
00030300
00022000
,
00033000
00100000
00010000
01000000
,
00010000
00000000
10000000
00100000
10000000
00000000
00010000
00100000
,
00010000
00000000
01000000
00100000
01000000
00000000
00100000
01000000
,
00100000
20020000
00000000
00000000
,
00000000
00000000
00000000
00000000
,
00000000
30000000
00000000
00000000
,
00000000
00130000
00001000
00010000
,
00000100
00000000
00010000
00001000
00010000
00000000
00000010
00000000
,
00001000
00000010
00000100
00000001
,
00000010
00000000
00000100
00001000
00000100
00000000
00010000
00000000
,
00011000
00100000
00010000
01000000
,
00010000
00000000
10000000
00100000
10000000
00000000
00010000
00000000
,
01000000
00010000
00100000
00001000
,
00010000
00000000
00000100
00001000
00000100
00000000
00000010
00000000
,
00000110
00001000
00000100
00001000
,
00000001
00000000
00000010
00000001
00000010
00000000
00000100
00000000
,
00010000
00001000
00010000
00001000
,
00100000
00000000
00010000
01000000
00010000
00000000
10000000
00000000
,
01100000
00000000
00010000
01000000
00010000
00000000
00100000
00000000
,
00001000
00000000
00010000
00001000
00010000
00000000
00000100
00000000
,
00001000
00001001
00000010
00000110
,
00000100
00001001
00001000
00000100
,
00010000
00022000
00000000
00000000
,
00000000
00000000
00000000
00000000
00000000
00000000
00000000
00033000
00000000
00000000
00000000
00000000
00000000
00000000
00000000
00000000
,
00000000
00000000
00000000
00000000
00000000
00000000
00000000
00000000
00000000
00000000
00000000
00100000
00000000
00000000
00000000
00000000
;

//--------------- dance-double - forcednature ----------------
#NOTEDATA:;
#STEPSTYPE:dance-double;
#DESCRIPTION:forcednature;
#DIFFICULTY:Medium;
#METER:14;
#RADARVALUES:0,0,0,0,0;
#CREDIT:forcednature;
#NOTES:
00000000
00000000
00000000
00000000
,
00000000
00000000
00000000
00000000
,
00000000
00000000
00000000
00000000
,
00000000
00000000
00000000
00000000
,
00000000
00000000
00000000
00000000
,
00000000
00000000
00000000
00000000
,
00011000
00000000
01000000
00000000
00010000
01000000
00100000
00000000
,
10000000
00000000
00100000
00000000
10000000
00010000
10000000
00000000
,
00010000
00100000
00010000
00000000
00100000
00001000
00010000
00000000
,
00000100
00000000
00001000
00000000
00000100
00000000
00000010
00000000
00000002
00000000
00000100
00000100
00000203
00000000
00000320
00000000
,
00002030
00003000
00000000
00000000
00000001
00000000
00000010
00000000
00000100
00000000
00000000
00000000
00000110
00000000
00000000
00000000
,
00001000
00000000
00010000
00001000
00100000
00000000
00001000
00010000
,
00000010
00000000
00010000
00001000
01000000
00000000
01010000
00000000
,
10000000
00000000
00100000
01000000
00010000
00000000
00100000
00001000
,
00010000
00000000
00000100
00001000
00000100
00000000
00000110
00000000
,
00000001
00000000
00000100
00000010
00001000
00000000
00000100
00010000
,
00001000
00000000
00100000
00010000
01000000
00000000
01100000
00000000
,
10000000
00000000
00010000
00100000
00001000
00000000
00020000
00000000
,
00030200
00000000
00001300
00000010
00000100
00000010
00001000
00000001
,
00000100
00000000
00001000
00010000
00100000
00000000
01000000
00010000
,
10000000
00000000
01000000
00100000
00010000
00100000
00001000
00010000
,
00000100
00000000
00001000
00000010
00000100
00000000
00000001
00000010
,
00000100
00000000
00000110
00000000
00001000
00000100
00010000
00000000
,
00001000
00000000
00011000
00000000
00100000
00010000
01000000
00000000
,
00100000
00000000
10000000
01000000
10000000
00000000
00010000
01000000
,
00100000
10000000
00020000
00000000
00230000
00000000
00302000
00000000
,
00023000
00000000
00030100
00000100
00001000
00000000
00000010
00000010
,
00000100
00000000
00000001
00000010
00000100
00001000
00000100
00010000
,
00001000
00000000
00100000
00100000
00010000
00000000
01000000
01000000
,
00100000
00000000
10000000
01000000
00100000
00010000
00100000
00001000
,
00010000
00000000
00000100
00000100
00000100
00000000
00001000
00001000
,
00000010
00000000
00000100
00000001
00001000
00000100
00010000
00001000
,
00010000
00000000
00001000
00100000
00010000
00100000
01000000
10000000
,
00010000
00000000
01000000
00100000
01000000
00000000
01100000
00000000
,
10010000
00000000
00010000
00100000
00010000
00100000
00001000
00010000
,
00001000
00010000
00000100
00001000
00000100
00000000
00000010
00000001
,
00000010
00000000
00000100
00001000
00000100
00010000
00001000
00010000
,
00001000
00100000
00010000
00010000
01000000
00000000
00100000
10000000
,
00010000
00000000
01100000
00000000
10000000
01000000
00100000
00000000
,
01000000
10000000
00010000
00000000
00100000
00001000
00010000
00000100
,
00010000
00000000
00011000
00000000
00000010
00001000
00000100
00000000
,
00000010
00000001
00000100
00000000
00000110
00000000
00001000
00000100
,
00010000
00000000
00000000
00000000
00022000
00000000
00033000
00000000
00100000
00100000
00010000
00000000
00100000
00100000
01000000
00000000
,
10000000
00000000
00100000
00000000
02200000
00000000
03300000
00000000
01000000
01000000
00010000
00000000
00100000
00100000
00001000
00000000
,
00010000
00000000
00000100
00000000
00022000
00000000
00033000
00000000
00000010
00000010
00001000
00000000
00000100
00000100
00000010
00000000
,
00000001
00000000
00000100
00000000
00002002
00000000
00003003
00000000
00001000
00001000
00000100
00000000
00010000
00000000
00001000
00100000
,
00010000
00000000
00000000
00000000
20020000
00000000
30030000
00000000
10000000
10000000
00100000
00000000
01000000
01000000
00010000
00000000
,
00100000
00000000
00001000
00000000
00022000
00000000
00033000
00000000
00000100
00000100
00001000
00000000
00000010
00000010
00000100
00000000
,
00000001
00000010
00000110
00000000
00001100
00000000
00010000
00010000
,
00001000
00000000
00100000
00010000
00100000
01000000
10000000
00000000
,
00100000
00000000
01000000
00010000
01000000
00010000
00100000
00010000
,
00100000
00000000
00001000
00010000
00000100
00001000
00000010
00000100
,
00000001
00002002
00000000
00000000
,
00003003
00020200
00000000
00000000
,
00030300
02002000
00000000
00000000
,
03003000
20020000
00000000
00000000
,
30030000
00220000
00330000
00022000
,
00033000
00002200
00003300
00000220
,
00000330
00000011
00000101
00001001
,
00001010
00000000
00010000
00001000
00010000
00001000
00100000
00010000
,
00100000
00000000
00010000
00100000
01000000
10000000
00010000
01000000
,
00100000
10000000
02000000
00000000
00000000
00000000
00000000
00000000
,
00000000
00000000
00000000
00000000
,
00000000
00000000
00000000
00000000
,
00000000
00000000
03100000
00010000
00100000
00001000
00010000
00000000
,
00011000
00000000
00000100
00001000
00000010
00000100
00000001
00000000
,
00000101
00000000
00001000
00000100
00010000
00001000
00010000
00000000
,
00011000
00200000
00010000
02300000
,
23000000
00000000
30100000
01000000
00010000
00100000
00001000
00000000
,
00011000
00000000
00000010
00001000
00000001
00000100
00000010
00000000
,
00001001
00000000
00001000
00000100
00010000
00001000
00010000
00001000
,
00100000
01020000
10000000
00230000
,
00302000
00000000
00013000
00000010
00001000
00000010
00010000
00001000
,
00010000
00000000
00000100
00001000
00000100
00000010
00000001
00000010
,
00000100
00000000
00010000
00001000
01000000
00010000
01000000
00100000
,
10000000
12000000
00100000
23000000
,
30020000
00000000
00130000
00001000
00010000
00001000
00010000
00000100
,
00001000
00000000
00000010
00000100
00000001
00000010
00000100
00001000
,
00000010
00000000
00011000
00000000
00100000
00010000
01000000
00000000
,
00100000
10000000
01000000
00000000
01100000
00000000
00100000
00001000
,
00010000
00000100
00002000
00000000
00000000
00000000
00000000
00000000
,
00000000
00000000
00000000
00000000
00000000
00000000
00000000
00003020
00000000
00000000
00000000
00000000
00000000
00000000
00000000
00000000
,
00000000
00000000
00000000
00000000
00000000
00000000
00000000
00000000
00000000
00000030
00000000
00000101
00000000
00000000
00000000
00000000
;

//--------------- dance-double - forcednature assist by extraordiberry ----------------
#NOTEDATA:;
#STEPSTYPE:dance-double;
#DESCRIPTION:forcednature assist by extraordiberry;
#DIFFICULTY:Hard;
#METER:16;
#RADARVALUES:0,0,0,0,0;
#CREDIT:forcednature assist by extraordiberry;
#NOTES:
00000000
00000000
00000000
00000000
,
00000000
00000000
00000000
00000000
,
00000000
00000000
00000000
00000000
,
00000000
00000000
00000000
00000000
,
00000000
00000000
00000000
00000000
,
00000000
00000000
00000000
00000000
,
00001000
00000000
00100000
00000000
00010000
00000000
00100000
00000000
01000000
00000000
10000000
00010000
01000000
00000000
00100000
00000000
,
00010000
00000000
00100000
00000000
01000000
00000000
00001000
00000000
00010000
00000000
00000010
00001000
00000001
00000000
00000100
00000000
,
00000002
00000000
00000010
00000000
00000023
00000000
00001000
00000000
00002030
00000000
00010000
00010000
00023000
00000000
01000000
00000000
,
02030000
00000000
00000000
00000000
00000000
00000000
23000000
00000000
00000000
00000000
00000000
00000000
30200000
00000000
00000000
00000000
00000000
00000000
02300000
00000000
00000000
00000000
00000000
00000000
03010000
00000000
00000000
00100000
00000000
00000000
00010000
00000000
00000000
00100000
00000000
00000000
00001000
00000000
00010000
00000000
00001000
00000000
00010000
00000000
00000100
00000000
00001000
00000000
,
00000020
00000030
00000000
00000000
00000100
00000000
00000001
00000000
00000010
00000000
00000001
00000000
00000100
00000000
00001000
00000000
,
00010000
00001000
00010000
00100000
10000000
00010000
01000000
00100000
,
10000000
00000000
01000000
10000000
00100000
10000000
01000000
00010000
,
00001000
00010000
00001000
00000010
00000001
00001000
00000100
00000010
,
00000001
00000000
00000010
00000001
00000100
00000001
00000010
00001000
,
00010000
00001000
00010000
01000000
10000000
00010000
00100000
01000000
,
10000000
00000000
00100000
10000000
01000000
10000000
00100000
00010000
,
00001000
00010000
00001000
00000100
00000001
00001000
00000020
00000000
,
00000230
00000000
00000301
00000010
00000001
00000100
00001000
00000100
,
00000001
00000010
00001000
00010000
01000000
10000000
00200000
01000000
,
10300000
00000000
00010000
01000000
00010000
00100000
00001000
00010000
,
00000010
00001000
00000100
00000001
00000100
00001000
00000020
00000000
,
00000130
00000000
00001001
00000000
00001000
00000100
00010000
00001000
,
00100000
00010000
00110000
00000000
10000000
00100000
10000000
01000000
,
00010000
00001000
00200000
00000000
00001000
00000000
00320000
00000000
,
01000000
00000000
10030000
00100000
00010000
00001000
02000000
00000000
,
00000000
00000000
03100000
10000000
00100000
10000000
01000000
00010000
,
01000000
00000000
10000000
00000000
00100000
00000000
01000000
00100000
01000000
00000000
00010000
00000000
00100000
00000000
00001000
00000000
,
00010000
00000000
00001000
00000010
00001000
00000010
00000001
00000100
,
00000001
00000000
00000100
00000000
00000010
00000000
00001000
00000010
00010000
00000000
00001000
00000000
00100000
00000000
00010000
00000000
,
00100000
00001000
00010000
00010000
00010000
01000000
00100000
00000000
,
00010000
00000000
00100000
00000000
00001000
00010000
00001000
00000000
00010000
00000000
00000100
00000000
00001000
00000000
00000010
00000000
,
00000100
00001000
00000100
00000001
00000010
00000010
00000001
00000100
,
00001000
00010000
00000010
00000010
00001000
00000000
00001100
00000000
,
00001100
00000000
00010000
00010000
00010000
00001000
00100000
00010000
,
01000000
00100000
10000000
01000000
10000000
00100000
01000000
00000000
,
00010000
00100000
00010000
00100000
00010000
00000000
00100000
00000000
00001000
00000000
00010000
00000000
00000010
00000000
00001000
00000000
,
00000100
00000000
00000000
00000000
00000010
00000000
00000001
00000000
00000100
00000000
00000010
00000000
00001000
00000000
00000001
00001000
,
00000001
00000000
00000010
00001000
00010000
00001000
00100000
00010000
,
00100000
01000000
10000000
00010000
01000000
00100000
00010000
00001000
,
00010000
00000000
00000200
00000000
00001300
00000010
00000200
00000000
,
00000301
00000010
00001000
00000000
00011000
00000000
00010000
01000000
,
10000000
00000000
00000000
00000000
10020000
00000000
00000000
00000000
00130000
00100000
00010000
01000000
00001000
00010000
00001000
00010000
,
00000010
00000000
00001000
00000000
00000200
00000000
00000000
00000000
00000310
00000010
00000001
00001000
00000100
00010000
00001000
00010000
,
00001000
00000000
00100000
00000000
00020000
00000000
00000000
00000000
01030000
01000000
00100000
10000000
01000000
10000000
00010000
10000000
,
00010000
00000000
00100000
00000000
00001000
00001000
00010000
00000100
00001000
00000100
00001000
00000010
00000100
00000001
00000010
00001000
,
00020000
00000000
00031000
00000000
00200000
00000000
00000000
00000000
01300000
01000000
10000000
00100000
01000000
00010000
01000000
00010000
,
00100000
00000000
00001000
00000000
00020000
00000000
00000000
00000000
00030100
00000100
00001000
00000010
00000100
00000001
00000100
00000001
,
00000010
00000100
00020000
00000000
00000010
00000000
00031000
00010000
,
00001000
00000000
00100000
00000000
00010000
00000000
01000000
00010000
01000000
00000000
00100000
00000000
20000000
00000000
00000000
00000000
,
32000000
00000000
00000000
00000000
03100000
00010000
00100000
00000000
00010000
00000000
00100000
00000000
00001000
00010000
00001000
00000000
,
00010000
00000000
00000100
00000000
00001000
00000000
00000010
00000000
00001000
00000000
00000010
00000000
00000100
00000001
00000100
00000001
,
00001000
00000010
00001000
00000010
00000200
00000000
00000000
00000000
00000001
00000000
00000000
00000000
00000310
00000000
00000000
00000000
,
00001000
00000100
00020000
00000000
00001000
00000000
00030010
00000000
,
00010000
00001000
00200000
00000000
00010000
00000000
01300000
00000000
,
00100000
00010000
20000000
00000000
01000000
00000000
30010000
00000000
,
10000000
00100000
02000000
00000000
03010000
00100000
00002000
00000000
,
00013000
00000010
00002000
00000000
00003100
00000010
00000002
00000000
,
00000103
00001000
00010000
00000000
00010010
00000000
00101000
00000000
,
00010010
00000000
00000000
00000000
00010000
00000000
00010000
00000000
00001000
00000000
00010000
00000000
00001000
00010000
00001000
00000000
,
00100000
00000000
00010000
00000000
01000000
00100000
01000000
00000000
00100000
10000000
00100000
00000000
10000000
01000000
10000000
01000000
,
00100000
01000000
00100000
01000000
00200000
00000000
00000000
00000000
00000000
00000000
00000000
00000000
00000000
00000000
00000000
00000000
,
00000000
00000000
00000000
00000000
,
00000000
00000000
00000000
00000000
,
00000000
00000000
00301000
00010000
00000100
00001000
00000100
00000010
,
00001000
00000000
00000010
00000000
00000001
00000000
00001000
00000000
00000100
00000000
00010000
00001000
00010000
00000000
00001000
00100000
,
00010000
00100000
00010000
01000000
00100000
01000000
00010000
10000000
,
00100000
00000000
10000000
00000000
01000000
00000000
00100000
01000000
00200000
00000000
00000000
00000000
00301000
00000000
00010000
00001000
,
00020000
00000000
00030010
00000100
00001000
00000100
00000010
00001000
,
00000001
00000000
00000100
00000000
00000001
00000000
00000010
00000000
00001000
00000000
00010000
00001000
00010000
00000000
00001000
01000000
,
00010000
00100000
01000000
10000000
01000000
00010000
00001000
00100000
,
00010000
00000000
00100000
00000000
00002000
00000000
00000000
00000000
01000000
00000000
00000000
00000000
00013000
00000000
00001000
00010000
,
00002000
00000000
00003010
00000100
00001000
00000010
00000100
00000001
,
00000010
00000000
00000100
00000000
00010000
00000000
00001000
00010000
00001000
00000000
01000000
00010000
01000000
00000000
00100000
01000000
,
00100000
10000000
01000000
00010000
00001000
00010000
01000000
10000000
,
00010000
00000000
00100000
00000000
00001000
00000000
00010000
00001000
00020000
00000000
00000000
00000000
00030010
00000000
00001000
00000010
,
00002000
00000000
00003100
00000010
00001000
00010000
00001000
00100000
,
00010000
00000000
01000000
00000000
00100000
01000000
00100000
00000000
10000000
00100000
10000000
00000000
01000000
10000000
01000000
00000000
,
00010000
00000000
00001000
00000000
00100000
00010000
00100000
00000000
00001000
00000000
00010000
00000000
00000100
00001000
00000100
00000000
,
00000010
00000000
00000001
00000000
00000100
00000001
00000100
00000000
00000010
00000100
00000010
00000000
00001000
00000010
00001000
00000000
,
00000100
00001000
00000100
00010000
00002000
00000000
00000000
00000000
00000000
00000000
00000000
00000000
00000000
00000000
00000000
00000000
,
00000000
00000000
00000000
00000000
00000000
00000000
00000000
00203000
00000000
00000000
00000000
00000000
00000000
00000000
00000000
00000000
,
00000000
00000000
00000000
00000000
00000000
00000000
00000000
00000000
00000000
00300000
00000000
11000000
00000000
00000000
00000000
00000000
;
