#VERSION:0.83;
#TITLE:Banger Banger Banger Banger;
#SUBTITLE:;
#ARTIST:nora2r;
#TITLETRANSLIT:;
#SUBTITLETRANSLIT:;
#ARTISTTRANSLIT:;
#GENRE:EARLY RAVE;
#CREDIT:;
#MUSIC:Banger Banger Banger Banger.ogg;
#BANNER:Banger Banger Banger Banger.png;
#BACKGROUND:Banger Banger Banger Banger-bg.png;
#CDTITLE:./CDTitles/bm IIDX 29 CastHour.png;
#SAMPLESTART:84.611;
#SAMPLELENGTH:15.000;
#SELECTABLE:YES;
#OFFSET:0.007;
#BPMS:0.000=190.000;
#STOPS:;
#TIMESIGNATURES:0.000=4=4;
#BGCHANGES:0.000=Banger Banger Banger Banger.mp4=1.000=0=0=0=StretchNoLoop====,
99999.000=-nosongbg-=1.000=0=0=0=StretchNoLoop====
;
#FGCHANGES:;

//--------------- dance-single - forcednature ----------------
#NOTEDATA:;
#STEPSTYPE:dance-single;
#DESCRIPTION:forcednature;
#DIFFICULTY:Beginner;
#METER:4;
#RADARVALUES:0,0,0,0,0;
#CREDIT:forcednature;
#NOTES:
0000
0000
0000
0000
,
0000
0000
0000
0000
,
0000
0000
0000
0000
,
0000
0000
0000
0000
,
0000
0000
0000
0000
,
1001
0000
0000
0000
,
0110
0000
0000
0000
,
1000
0000
0001
0000
,
2002
0000
3003
0000
,
0110
0000
0000
0000
,
0001
0000
0001
0000
,
0010
0000
0000
0000
,
0100
0000
1000
0000
,
0100
0000
0000
0000
,
1000
0000
1000
0000
,
0010
0000
0000
0000
,
0100
0100
0100
0000
,
0001
0000
0000
0000
,
0010
0000
0001
0000
,
1000
0000
0000
0000
,
0100
0000
1000
0000
,
0010
0000
0000
0010
,
0000
0000
0000
0100
,
0000
0000
0001
0000
,
0020
0000
0030
0000
,
1001
0000
1000
0000
,
0100
0000
0000
0000
,
1000
0000
1000
0000
,
0010
0000
0000
0000
,
0100
0000
0100
0000
,
0001
0000
0001
0000
,
0010
0000
0100
0000
,
1000
0001
1000
0000
,
0020
0000
0000
0000
,
0030
0000
0000
0000
,
0200
0000
0000
0000
,
0300
0000
0000
0100
,
0002
0000
0000
0000
,
0003
0000
0000
0000
,
2000
0000
0000
0000
,
3000
0000
0000
0100
,
0200
0000
0000
0000
,
0300
0000
0000
0000
,
0020
0000
0000
0000
,
0030
0000
0000
0010
,
0002
0000
0000
0000
,
0003
0000
0000
0000
,
2000
0000
0000
0000
,
3000
0000
0000
0000
,
0010
0000
0010
0000
,
0100
0000
0100
0000
,
0001
0000
1000
0000
,
1000
0000
0001
0000
,
0010
0000
0010
0000
,
0100
0000
0100
0000
,
1000
0000
0001
0000
,
2002
0000
3003
0000
,
1000
0000
0000
0000
,
0010
0000
0000
0000
,
0100
0000
0000
0000
,
0001
0000
0010
0000
,
0100
0000
0100
0000
,
1000
0000
0001
0000
,
0100
0000
0000
0000
,
0010
0000
0010
0000
,
1000
0001
1000
0001
,
0200
0000
0300
0000
,
0001
0000
0001
0000
,
0010
0000
0000
0000
,
0100
0000
1000
0000
,
0100
0000
0000
0000
,
1000
0000
1000
0000
,
0010
0000
0000
0000
,
0100
0000
0001
0000
,
0010
0010
0010
0000
,
0001
0000
1000
0000
,
0001
0000
1000
0000
,
0100
0000
1000
0000
,
0100
0000
1000
0000
,
0010
0000
0100
0000
,
0010
0000
0100
0000
,
0001
0000
0001
0000
,
0020
0000
0030
0000
,
0001
0000
0001
0000
,
0100
0000
0000
0000
,
0010
0000
1000
0000
,
0010
0000
0000
0000
,
1000
0000
1000
0000
,
0100
0000
0100
0000
,
1000
0000
0001
0000
,
0020
0000
0030
0000
,
2002
0000
0000
0000
,
0000
0000
0000
0000
,
3003
0000
0000
0000
;

//--------------- dance-single - forcednature ----------------
#NOTEDATA:;
#STEPSTYPE:dance-single;
#DESCRIPTION:forcednature;
#DIFFICULTY:Easy;
#METER:9;
#RADARVALUES:0,0,0,0,0;
#CREDIT:forcednature;
#NOTES:
0000
0000
0000
0000
,
0000
0000
0000
0000
,
0000
0000
0000
0000
,
0000
0000
0000
0000
,
0000
0000
0000
0000
,
1001
0000
1000
0100
,
1001
0000
0001
0100
,
0001
0010
0100
1000
,
2002
0000
0000
3003
,
1000
0010
0100
0010
,
1000
0001
0100
0000
,
0001
0010
0100
0010
,
0001
1000
0100
0000
,
1000
0001
0100
0010
,
0100
0001
1000
0010
,
2002
3003
1000
0100
,
0110
0110
0110
0010
,
0001
0100
0001
1000
,
0010
0100
0001
1000
,
0100
0010
0001
0010
,
0100
1000
0001
0010
,
1001
0000
1000
0010
,
1001
0000
0001
0010
,
1001
0000
0110
0000
,
2002
0000
0000
3003
,
1000
1000
0100
1000
,
0010
0100
0001
0010
,
0001
0001
0100
0001
,
0010
0100
0220
0330
,
1001
1000
0100
0010
,
1001
0001
0100
0010
,
0110
1000
0110
0001
,
0010
0000
0010
0000
0100
0010
0000
0000
,
0002
0000
0000
0003
,
0200
0000
0000
0300
,
0020
0000
0000
0030
,
2000
0000
0000
3000
,
0200
0000
0000
0300
,
0020
0000
0000
0030
,
0002
0000
0000
0003
,
2002
3003
0110
0110
,
2000
0000
0000
3000
,
0020
0000
0000
0030
,
0200
0000
0000
0300
,
0002
0000
0000
0013
,
2001
0000
0000
3000
,
0200
0000
0000
0300
,
0020
0000
0000
0030
,
2002
0000
0000
3003
,
0110
0001
0001
0100
,
0110
1000
1000
0100
,
0110
0001
0001
0010
,
0110
1000
1000
0010
,
1001
1000
1000
0100
,
1001
0001
0001
0100
,
1001
1000
1000
0010
,
0220
0000
0000
0330
,
1002
0000
0000
0013
,
2001
0000
0000
3010
,
1002
0000
0000
0103
,
2001
0000
3100
0100
,
0110
0000
1001
0000
,
0110
0000
1001
0000
,
0110
0000
0001
0000
,
1000
0000
0010
0000
,
1000
0100
0010
0001
,
2002
0000
0000
3003
,
1001
0001
0010
0100
,
0010
0000
0001
0000
0100
0010
0100
0000
,
0010
1000
0100
0010
,
0001
0000
1000
0000
0010
0100
0010
0000
,
1000
0100
1000
0001
,
0100
0000
0001
0000
0010
0100
0010
0000
,
0001
0000
1000
0000
0001
0100
0001
0000
,
0020
0230
2300
3002
,
1003
0000
0010
0000
0100
0010
0100
0000
,
0001
0000
0010
0000
0100
1000
0100
0000
,
0010
0000
0001
0000
1000
0010
1000
0000
,
0001
0000
0100
0000
0010
0100
0010
0000
,
1000
0000
0100
0000
1000
0001
1000
0000
,
0001
0000
0010
0000
0100
0010
0000
0000
,
0110
1000
1010
0001
,
0201
0001
0010
0310
,
1001
1000
0100
0010
,
0100
1000
0010
0000
,
1001
0001
0100
0001
,
0010
0000
0100
0000
0010
0001
0010
0000
,
0110
1000
0001
0100
,
0110
0001
1000
0100
,
1000
0001
1000
0000
0001
0100
0001
0000
,
0020
0100
0100
0130
,
2002
0000
0000
0000
,
0000
0000
0000
0000
,
3003
0000
0000
0000
;

//--------------- dance-single - forcednature ----------------
#NOTEDATA:;
#STEPSTYPE:dance-single;
#DESCRIPTION:forcednature;
#DIFFICULTY:Medium;
#METER:13;
#RADARVALUES:0,0,0,0,0;
#CREDIT:forcednature;
#NOTES:
0000
0000
0000
0000
,
0000
0000
0000
0000
,
0000
0000
0000
0000
,
0000
0000
0000
0000
,
0000
0000
0000
0000
,
2001
0100
0001
3010
,
1002
0100
1000
0013
,
0001
0100
0001
0000
1000
0100
1000
0000
,
0020
0100
0100
0130
,
1001
0000
1000
0100
0010
0000
0001
0000
,
1000
0000
0010
0100
0001
0100
0010
0000
,
1000
0000
0001
0010
0100
0000
0010
0000
,
0001
0000
0100
0010
1000
0010
0100
0000
,
1001
0000
0001
0010
0100
0000
0010
0000
,
1001
0000
0000
0000
1000
0000
0010
0000
0100
0000
0000
0001
0010
0000
0000
0000
,
1001
0000
0001
0001
1000
0000
0100
0000
,
0210
0010
0010
0310
,
1001
0000
0001
0100
0001
1000
0010
0000
,
1001
0000
1000
0100
1000
0000
0010
0000
,
0110
0000
0001
0010
0001
1000
0100
0000
,
0110
0000
1000
0010
1000
0000
0001
0000
,
0012
0000
1000
0000
0103
0000
0010
0010
,
0000
1010
0000
1000
0001
0000
0010
0000
,
0102
0013
2100
3010
,
0120
0100
0100
0130
,
0001
0000
0000
0001
0000
0000
0100
0000
0001
0000
0000
0000
1010
0000
0000
0000
,
1000
0100
1000
0000
0001
0001
0001
0000
,
1000
0000
0000
1000
0000
0000
0010
0000
1000
0000
0000
0000
0101
0000
0000
0000
,
0001
0010
0001
0000
0100
0100
0010
0000
,
1001
0000
0000
1000
0000
0000
0100
0000
1000
0000
0000
0000
0110
0000
0000
0000
,
1001
0000
0000
0001
0000
0000
0100
0000
0001
0000
0000
0000
0110
0000
0000
0000
,
1001
0000
1000
0100
1000
0001
0010
0010
,
0002
0000
0100
0000
1003
0010
0000
0000
,
2001
0000
0000
0000
,
3200
0000
0000
0000
,
0320
0000
0000
0000
,
0032
0000
0000
0103
,
2001
0010
0000
0010
,
3020
0100
0000
0100
,
0230
0001
0000
0001
,
0320
0100
0100
0130
,
1001
0000
0000
0000
1000
0000
0000
0100
0000
0000
1000
0000
0000
0000
0100
0000
,
0010
0000
0000
0000
0100
0000
0000
0010
0000
0000
0100
0000
0000
0000
0010
0000
,
0001
0000
0000
0000
0010
0000
0000
0001
0000
0000
0010
0000
0000
0000
0001
0000
,
1000
0000
0000
0000
0001
0000
0000
1000
0000
0000
0001
0000
0100
0000
0000
0000
,
0110
0000
0000
0000
0010
0000
0000
1000
0000
0000
0010
0000
0000
0000
1000
0000
,
0001
0000
0000
0000
1000
0000
0000
0001
0000
0000
1000
0000
0000
0000
0001
0000
,
0010
0000
0000
0000
0001
0000
0000
0010
0000
0000
0001
0000
0000
0000
0010
0000
,
0200
0010
0010
0310
,
1001
1100
1001
1100
,
1001
0101
1001
0101
,
1010
1100
1010
1100
,
0011
0101
0011
0101
,
1001
1010
1001
1010
,
1001
0011
1001
0011
,
1100
1010
1100
1010
,
0210
0001
0001
0310
,
1001
0100
0000
0010
,
1001
0100
0000
0010
,
1001
0100
0000
0010
,
1001
0100
0010
0010
,
0110
0001
0110
1000
,
1100
0001
0101
1000
,
1010
0000
0001
0000
0100
0100
0100
0000
,
0100
0000
0001
0000
0010
0010
0010
0000
,
0001
1000
0100
1000
0010
1000
0001
0000
,
0120
0100
0100
0130
,
1001
0000
1000
0100
0010
0100
1000
0001
,
0010
0000
0001
0100
1000
0100
0001
1000
,
0010
0000
1000
0001
0010
0001
0100
0010
,
1000
0000
0001
0010
1000
0010
0001
1000
,
0100
0000
1000
0010
0100
0001
0010
0001
,
1000
0000
0010
0100
0001
0100
1000
0100
,
0001
0000
1000
0010
1000
0001
0010
0100
,
2000
3020
0230
0302
,
1003
0100
1000
0001
0010
0100
0010
0001
,
1000
0100
1000
0001
0010
0010
0001
0010
,
0001
0100
0010
1000
0001
0100
0001
1000
,
0010
0000
1000
0000
0001
0000
0100
0000
0010
0000
0000
0010
1000
0000
0001
0000
,
1000
0100
0010
0100
1000
0001
1000
0100
,
0010
0001
0100
0010
1000
1000
0002
0000
,
0013
0100
0010
0100
1000
1000
0100
1000
,
0002
0203
0320
2030
,
3001
0000
0011
0000
1000
0100
0001
0000
,
0100
1000
0010
1000
0100
1000
0001
0000
,
1000
0000
1010
0000
0001
0100
1000
0000
,
0100
0001
0010
0001
1000
1000
0010
0000
,
0110
0000
0001
0010
0100
0100
1000
0000
,
0110
0000
1000
0010
0100
0100
0001
0000
,
0010
0001
0100
0010
1000
0100
0010
0000
,
2001
0100
0010
3001
,
0220
0000
0000
0000
,
0000
0000
0000
0000
,
0330
0000
0000
0000
;

//--------------- dance-single - forcednature assist by extraordiberry ----------------
#NOTEDATA:;
#STEPSTYPE:dance-single;
#DESCRIPTION:forcednature assist by extraordiberry;
#DIFFICULTY:Hard;
#METER:16;
#RADARVALUES:0,0,0,0,0;
#CREDIT:forcednature assist by extraordiberry;
#NOTES:
0000
0000
0000
0000
,
0000
0000
0000
0000
,
0000
0000
0000
0000
,
0000
0000
0000
0000
,
0000
0000
0000
0000
,
0001
0000
0100
0000
0001
0000
0010
0000
0001
0000
0100
0000
0001
0000
0010
0001
,
1000
0000
0100
0000
1000
0000
0010
0000
1000
0000
0100
0000
1000
0000
0010
1000
,
0001
0001
0010
0010
0100
0100
1000
1000
,
0010
0100
0000
0000
0100
0010
0000
0000
0010
0100
0000
0000
0100
0010
0000
0000
,
1000
0000
0100
0000
1000
0010
1000
0000
0010
0000
0100
0000
0001
0000
0010
0000
,
0001
0000
0100
0000
0010
0100
0010
0000
1000
0000
0100
0000
0001
0000
0000
0000
,
0100
0000
1000
0000
0010
1000
0010
0000
0100
0000
0001
0000
0010
0000
0100
0000
,
0010
0000
0001
0000
0100
0001
0100
0000
0010
1000
0010
1000
0001
0000
0000
0000
,
0010
0000
0001
0000
0100
0001
0100
0000
0010
0000
1000
0000
0100
0000
0001
0000
,
0100
0000
1000
0000
0010
0100
0010
0000
0100
0000
0000
0001
0010
0000
0100
0000
,
0210
1000
1000
0310
,
0001
1000
0000
0000
1000
0001
0000
0000
0001
1000
0000
0000
1000
0001
0000
0000
,
0100
0000
0010
0000
1000
0100
1000
0100
1000
0000
0001
0000
0010
0000
0100
0000
,
0001
0000
0100
0000
1000
0100
1000
0000
0010
0000
0100
0001
0010
0000
0000
0000
,
0001
0000
0100
0000
0010
1000
0010
1000
0010
0000
0100
0000
1000
0000
0100
0000
,
0001
0000
0010
0000
0001
1000
0001
0000
1000
0000
0100
0000
0001
0000
0000
0000
,
2100
0000
0010
0000
0010
0000
3001
0101
,
0000
0000
0011
0000
0000
0000
1000
0000
0010
0000
0100
0000
0001
1000
0001
1000
,
0002
0000
0013
0100
2001
0000
3010
0100
,
0001
0010
0000
0000
1000
0010
0000
0000
0001
0010
0000
0000
1000
0010
0000
0000
,
0001
0000
0100
0001
0000
0100
0010
0000
1000
0000
0100
0000
0001
0000
0100
0000
,
2000
0010
3020
1000
2030
0100
3002
1000
,
0013
0000
0001
0010
0000
0001
0100
0010
0100
0000
0010
0000
1000
0000
0100
0000
,
0020
0001
0230
1000
0310
0100
1001
0000
,
0001
0000
0100
0001
0000
0100
0010
0000
1000
0000
0100
1000
0100
0000
0010
0001
,
1000
0000
0010
0100
0000
0001
0100
0010
0200
0000
0001
0000
0301
0000
1000
0000
,
0001
0000
0001
0000
0010
0000
0001
0010
0100
0000
1000
0000
0010
0100
0010
0100
,
0002
0000
1003
0000
1001
1001
0000
0000
,
0002
0000
0000
0000
0010
0000
0000
0010
0000
0000
0010
0000
0000
0000
0010
0000
,
0023
0000
0000
0000
0100
0000
0000
0100
0000
0000
0100
0000
0000
0000
0100
0000
,
0230
0000
0000
0000
1000
0000
0000
1000
0000
0000
1000
0000
0000
0000
1000
0000
,
2300
0000
0000
0000
0010
0000
0000
0010
0000
0000
3010
0000
1010
0000
0000
0000
,
0102
0000
0000
0000
0010
0000
0000
0010
0000
0000
0010
0000
0000
0000
0010
0000
,
2003
0000
0000
0000
0100
0000
0000
0100
0000
0000
0100
0000
0000
0000
0100
0000
,
3020
0000
0000
0000
0100
0000
0000
0100
0000
0000
0100
0000
0000
0000
0100
0000
,
1030
0001
0000
0000
0001
1000
0000
0000
1000
0001
0000
0000
0001
1000
0000
0000
,
0010
0000
0100
0000
0010
0000
0000
0010
0000
0000
0100
0000
0001
0000
0010
0000
,
0100
0000
1000
0000
0100
0000
0000
0100
0000
0000
1000
0000
0001
0000
0100
0000
,
0010
0000
1000
0000
0010
0000
0000
0010
0000
0000
0100
0000
0001
0000
0010
0000
,
0100
0000
1000
0000
0010
0000
0000
0010
0000
0000
1000
0000
1001
0000
0000
0000
,
0001
0000
0010
0000
0001
0000
0000
0001
0000
0000
0100
0000
0010
0000
1000
0000
,
0100
0000
0010
0000
0100
0000
0000
0100
0000
0000
1000
0000
0001
0000
0100
0000
,
0010
0000
1000
0000
0001
0000
0000
0001
0000
0000
0010
0000
0100
0000
1000
0000
,
0001
0100
0000
0000
1000
0100
0000
0000
0001
0100
0000
0000
1000
0100
0000
0000
,
1001
0000
0000
0000
1001
0000
0000
0001
0010
0000
0100
0000
1000
0000
0010
0000
,
0110
0000
0000
0000
0110
0000
0000
1000
0100
0000
0010
0000
0001
0000
0100
0000
,
1010
0000
0000
0000
1010
0000
0000
0001
0010
0000
0001
0000
0100
0000
0010
0000
,
0101
0000
0000
0000
0101
0000
0000
1000
0010
0000
0010
0000
0100
0000
0001
0000
,
0011
0000
0000
0000
0011
0000
0000
1000
0100
0000
0001
0000
0100
0000
1000
0000
,
1010
0000
0000
0000
1010
0000
0000
0001
0100
0000
1000
0000
0100
0000
0001
0000
,
1001
0000
0000
0000
1001
0000
0000
0001
0010
0000
0100
0000
1000
0000
0010
0000
,
0210
0302
2003
3010
,
2001
0000
0000
0000
0100
0000
0000
3100
0000
0000
0001
0000
0010
0000
0100
0000
,
1002
0000
0000
0000
0100
0000
0000
0103
0000
0000
1000
0000
0010
0000
0100
0000
,
2001
0000
0000
0000
0010
0000
0000
3010
0000
0000
0001
0000
0010
0000
0100
0000
,
1002
0000
0000
0000
0010
0000
0000
0013
0000
0000
0100
0000
0000
0000
0100
0000
,
1001
1000
0010
0100
1001
0001
0010
0100
,
0110
1000
0010
0100
0110
0001
0010
0100
,
2001
0000
0000
0000
0100
0000
0000
0000
3100
0000
1000
0000
0010
0100
0010
0100
,
0002
0000
0000
0000
0013
0000
0000
0000
0001
1000
0001
0000
1000
0000
0000
0000
,
0020
0000
0000
0000
0230
0000
0000
0000
0302
0000
0000
0000
1003
0100
0010
0001
,
0100
0010
0000
0000
0010
0100
0000
0000
0100
0010
0000
0000
0010
0100
0000
0000
,
1001
0000
1000
0000
0100
0000
0010
0100
0010
0000
0001
0000
1000
0000
0010
0000
,
0100
0000
1000
0000
0100
0000
0001
0100
0001
0000
0010
0000
0100
0000
1000
0000
,
0010
0000
0100
0000
0001
0000
0010
0001
0010
0000
0100
0000
1000
0000
0001
0000
,
0010
0000
1000
0000
0010
0000
0001
0010
0001
0000
0100
0001
0100
0000
0010
0000
,
1000
0000
0100
0000
0001
0000
0100
1000
0100
0000
1000
0000
0010
0000
0100
0000
,
0001
0000
0010
0000
0001
0000
0100
0010
0100
0000
0001
0010
0100
0000
1000
0000
,
0010
0000
0100
0000
1000
0000
0100
0001
0100
0000
0001
0000
0010
0001
0010
0001
,
2000
3200
0320
0032
,
0103
0000
0010
0100
0010
0000
0100
0010
1000
0000
0100
1000
0100
0000
0010
0000
,
0001
0000
1000
0010
1000
0000
0010
0100
0010
0000
0100
0000
0100
0000
0001
0000
,
0010
0000
0001
0010
0001
0000
0010
0100
1000
0000
0001
1000
0010
0000
0100
0000
,
0001
0000
0010
0001
0010
0000
0100
1000
0001
0000
0100
0010
1000
0000
0100
0000
,
1001
0000
1000
0000
0010
0000
0100
0001
0100
0000
0010
1000
0001
0000
0010
0000
,
0110
1000
0001
0100
0010
1001
0000
0000
,
1000
0000
0100
0000
1000
0000
0010
0000
0100
0001
0100
0001
1000
0010
1000
0010
,
2000
3200
0320
0032
,
1003
0000
0100
1000
0000
0100
0010
0100
0010
0000
0001
0000
1000
0010
1000
0000
,
0002
0010
0023
0100
0032
0100
2003
0100
,
3001
0000
0010
0001
0000
0100
0010
0100
0010
0000
1000
0000
0100
1000
0100
0000
,
0010
0000
0001
0100
0010
0000
0100
0010
0200
0000
0001
0000
0320
0000
1000
0000
,
0130
0000
0000
0001
0010
0000
0001
1000
0002
0000
0100
0000
2003
0000
0100
0000
,
3001
0000
0000
0010
0100
0000
1000
0010
1000
0000
0001
0000
1001
0000
0000
0000
,
1000
0100
1000
0100
1000
0000
0001
0100
0001
0100
0001
0000
0010
0100
0010
0100
,
0020
0000
0000
0000
0032
0000
0000
0000
2003
0000
0000
0000
3001
0100
0010
1000
,
0200
0000
0000
0000
,
0000
0000
0000
0000
,
0300
0000
0000
0000
;

//--------------- dance-double - forcednature ----------------
#NOTEDATA:;
#STEPSTYPE:dance-double;
#DESCRIPTION:forcednature;
#DIFFICULTY:Easy;
#METER:9;
#RADARVALUES:0,0,0,0,0;
#CREDIT:forcednature;
#NOTES:
00000000
00000000
00000000
00000000
,
00000000
00000000
00000000
00000000
,
00000000
00000000
00000000
00000000
,
00000000
00000000
00000000
00000000
,
00000000
00000000
00000000
00000000
,
00011000
00000000
00000100
00010000
,
00011000
00000000
01000000
00001000
,
00010000
00001000
00100000
00010000
,
20020000
00000000
00000000
30030000
,
10000000
00100000
01000000
00100000
,
10000000
00010000
01000000
00000000
,
00001000
00010000
00000100
00001000
,
00000100
00000010
00000001
00000000
,
00000100
00000001
00000100
00000010
,
00001000
00000100
00010000
00000000
,
00022000
00033000
00100000
00010000
,
01000000
01000000
01000000
00100000
,
10000000
01000000
10000000
00010000
,
00100000
00001000
00010000
00000000
,
00000100
00001000
00000100
00000010
,
00000001
00001000
00000010
00000000
,
00001001
00000000
00001000
00000100
,
00011000
00000000
00100000
00001000
,
00011000
00000000
00100000
00000000
,
20020000
00000000
00000000
30030000
,
10000000
10000000
01000000
10000000
,
00010000
00100000
00001000
00000000
,
00010000
00010000
00000100
00001000
,
00000010
00000100
00000220
00000330
,
00001001
00000000
00001000
00000100
,
00011000
00000000
00100000
00010000
,
01000000
01000000
00100000
10000000
,
00010000
00000000
00010000
00000000
00100000
00010000
00000000
00000000
,
02000000
00000000
00000000
03000000
,
00020000
00000000
00000000
00030000
,
00200000
00000000
00000000
00300000
,
00002000
00000000
00000000
00003000
,
00020000
00000000
00000000
00030000
,
00000200
00000000
00000000
00000300
,
00002000
00000000
00000000
00003000
,
00000020
00000030
00000100
00000100
,
00000002
00000000
00000000
00000003
,
00000020
00000000
00000000
00000030
,
00000200
00000000
00000000
00000300
,
00020000
00000000
00000000
00031000
,
00200000
00000000
00000000
00300000
,
00020000
00000000
00000000
00030000
,
02000000
00000000
00000000
03000000
,
00100000
00100000
00100000
00100000
,
10000000
00000000
01000000
10000000
,
01000000
00000000
00010000
01000000
,
00010000
00000000
00001000
00010000
,
00001000
00000000
00000010
00001000
,
00000010
00000000
00000001
00000010
,
00000001
00000000
00000100
00000001
,
00000100
00000000
00001000
00000100
,
00002000
00000000
00003000
00000000
,
00011000
00000000
00100000
00010000
,
10010000
00000000
00010000
01000000
,
01010000
00000000
00001000
00010000
,
00011000
00000000
00000100
00000100
,
00001000
00000000
00001001
00000000
,
00000110
00000000
00001001
00000000
,
00001000
00000000
00000100
00000000
,
00010000
00000000
00001000
00000000
,
00100000
00010000
01000000
00100000
,
20020000
00000000
00000000
30030000
,
10000000
10000000
00100000
10000000
,
00100000
01000000
00010000
00100000
,
00001000
00010000
00000100
00000100
,
00001000
00000010
00000100
00000010
,
00000100
00000001
00001000
00000100
,
00000010
00000001
00001000
00000100
,
00010000
00001000
00100000
00100000
,
00020000
02030000
03200000
20300000
,
30010000
00100000
00001000
00001000
,
00010000
00000100
00001000
00001000
,
00000010
00000100
00000001
00000001
,
00000010
00000100
00001000
00001000
,
00000100
00010000
00001000
00001000
,
00100000
00000000
00010000
00000000
00100000
00010000
00000000
00000000
,
01100000
00000000
10000000
00010000
,
02000000
00100000
00100000
03100000
,
10000000
00010000
00100000
00001000
,
00010000
00000100
00001000
00000000
,
00000001
00001000
00000010
00010000
,
00001000
01000000
00010000
00000000
,
10010000
00000000
00010000
00100000
,
00011000
00000000
00000010
00001000
,
00000001
00000100
00000001
00000010
,
00000200
00000010
00000010
00000310
,
00002002
00000000
00000000
00000000
,
00000000
00000000
00000000
00000000
,
00003003
00000000
00000000
00000000
;

//--------------- dance-double - forcednature ----------------
#NOTEDATA:;
#STEPSTYPE:dance-double;
#DESCRIPTION:forcednature;
#DIFFICULTY:Medium;
#METER:13;
#RADARVALUES:0,0,0,0,0;
#CREDIT:forcednature;
#NOTES:
00000000
00000000
00000000
00000000
,
00000000
00000000
00000000
00000000
,
00000000
00000000
00000000
00000000
,
00000000
00000000
00000000
00000000
,
00000000
00000000
00000000
00000000
,
00012000
01000000
00010000
00103000
,
00021000
00000100
00001000
00030010
,
00010000
00001000
00100000
00000000
00010000
00100000
01000000
00000000
,
00200000
00001000
00001000
00301000
,
00011000
00000000
00000100
00001000
00000010
00000000
00000100
00000000
,
00000001
00000000
00000010
00000100
00001000
00000100
00010000
00000000
,
00001000
00000000
00100000
00010000
01000000
00000000
00100000
00000000
,
10000000
00000000
00010000
00100000
00001000
00010000
00000100
00000000
,
00011000
00000000
00010000
00000010
00001000
00000000
00000100
00000000
,
00011000
00000000
00000000
00000000
00001000
00000000
00100000
00000000
00010000
00000000
00000000
01000000
00100000
00000000
00000000
00000000
,
10010000
00000000
10000000
01000000
10000000
00000000
00100000
00000000
,
02100000
00010000
00010000
03010000
,
10010000
00000000
00010000
00100000
00001000
00010000
00001000
00010000
,
00000100
00000000
00001000
00000010
00001000
00000000
00000100
00000000
,
00000110
00000000
00000010
00000001
00000010
00000001
00001000
00000100
,
00001000
00000000
00000100
00010000
00001000
00000000
00100000
00000000
,
00120000
00000000
10000000
00000000
01030000
00000000
00100000
00100000
,
00000000
10100000
00000000
10000000
00010000
00000000
01000000
01000000
,
02000000
03000000
00022000
00033000
,
00010200
00001000
00001000
00001300
,
00000001
00000000
00000000
00000001
00000000
00000000
00000010
00000000
00000100
00000000
00000000
00000000
00000110
00000000
00000000
00000000
,
00001000
00000100
00010000
00000000
00001000
00001000
00001000
00000000
,
00100000
00000000
00000000
00100000
00000000
00000000
00010000
00000000
01000000
00000000
00000000
00000000
01100000
00000000
00000000
00000000
,
10000000
00100000
10000000
00000000
00010000
00010000
01000000
00000000
,
00010000
00000000
00000000
00010000
00000000
00000000
00100000
00000000
00001000
00000000
00000000
00000000
00011000
00000000
00000000
00000000
,
00000100
00000000
00000000
00000100
00000000
00000000
00001000
00000000
00000010
00000000
00000000
00000000
00001001
00000000
00000000
00000000
,
00001100
00000000
00010000
00001000
00010000
00000000
00001000
00001000
,
00200000
00000000
00010000
00000000
01300000
10000000
00000000
00000000
,
10020000
00000000
00000000
00000000
,
00230000
00000000
00000000
00000000
,
00302000
00000000
00000000
00000000
,
00023000
00000000
00000000
00030010
,
00002010
00000001
00000000
00000001
,
00003200
00010000
00000000
00010000
,
00020300
00001000
00000000
00031000
,
00002000
00100000
00100000
00103000
,
10010000
00000000
00000000
00000000
10000000
00000000
00000000
01000000
00000000
00000000
10000000
00000000
00000000
00000000
01000000
00000000
,
00100000
00000000
00000000
00000000
01000000
00000000
00000000
00100000
00000000
00000000
01000000
00000000
00000000
00000000
00100000
00000000
,
00001000
00000000
00000000
00000000
00100000
00000000
00000000
00001000
00000000
00000000
00100000
00000000
00000000
00000000
00001000
00000000
,
00010000
00000000
00000000
00000000
00001000
00000000
00000000
00010000
00000000
00000000
00001000
00000000
00010000
00000000
00000000
00000000
,
00011000
00000000
00000000
00000000
00000100
00000000
00000000
00001000
00000000
00000000
00000100
00000000
00000000
00000000
00001000
00000000
,
00000010
00000000
00000000
00000000
00000100
00000000
00000000
00000010
00000000
00000000
00000100
00000000
00000000
00000000
00000010
00000000
,
00000100
00000000
00000000
00000000
00000001
00000000
00000000
00000100
00000000
00000000
00000001
00000000
00000000
00000000
00000100
00000000
,
00000020
00001000
00001000
00001030
,
00000110
00000000
00000000
00000000
00001000
00000000
00000000
00001000
00000000
00000000
00000100
00000000
00010000
00000000
00000000
00000000
,
00011000
00000000
00000000
00000000
00001000
00000000
00000000
00001000
00000000
00000000
00100000
00000000
00010000
00000000
00000000
00000000
,
01010000
00000000
00000000
00000000
10000000
00000000
00000000
10000000
00000000
00000000
00100000
00000000
01000000
00000000
00000000
00000000
,
01010000
00000000
00000000
00000000
00001000
00000000
00000000
00001000
00000000
00000000
00010000
00000000
00000100
00000000
00000000
00000000
,
00001100
00000000
00000000
00000000
00000001
00000000
00000000
00000001
00000000
00000000
00000010
00000000
00000100
00000000
00000000
00000000
,
00000110
00000000
00000000
00000000
00001000
00000000
00000000
00001000
00000000
00000000
00000100
00000000
00010000
00000000
00000000
00000000
,
00011000
00000000
00000000
00000000
00100000
00000000
00000000
00100000
00000000
00000000
00010000
00000000
01000000
00000000
00000000
00000000
,
01200000
10000000
10000000
01300000
,
10010000
01000000
00000000
00100000
,
00011000
00000100
00000000
00000010
,
00001001
00000100
00000000
00000010
,
00011000
01000000
00100000
00100000
,
01100000
00010000
00011000
00001000
,
00000110
00001000
00011000
00100000
,
01100000
00000000
00010000
00000000
10000000
10000000
10000000
00000000
,
01000000
00000000
00010000
00000000
00001000
00001000
00001000
00000000
,
00000010
00000001
00000100
00000001
00001000
00000001
00000100
00000000
,
00000120
00001000
00001000
00001030
,
00000001
00000010
00000100
00000010
00000100
00010000
00001000
00000000
,
00100000
00010000
01000000
00100000
10000000
01000000
00100000
00000000
,
01000000
10000000
00010000
01000000
00010000
01000000
00001000
00000000
,
00010000
00000010
00001000
00000100
00001000
00000001
00000010
00000000
,
00000100
00001000
00000100
00001000
00000100
00010000
00001000
00000000
,
00100000
00010000
00100000
00010000
01000000
00100000
10000000
00000000
,
01000000
00010000
01000000
00010000
00001000
00100000
00010000
00000000
,
02000000
03200000
00320000
00032000
,
00003100
00000010
00001000
00000001
00000100
00000010
00001000
00000100
,
00010000
00001000
00100000
00010000
00100000
00001000
00010000
01000000
,
10000000
00010000
00100000
00010000
10000000
00100000
10000000
00010000
,
01000000
00001000
00010000
00000100
00001000
00000010
00000100
00000001
,
00000010
00000100
00001000
00000100
00010000
00001000
00100000
00010000
,
00100000
00001000
00010000
01000000
10000000
10000000
00020000
00000000
,
00130000
00001000
00100000
00001000
00010000
00010000
00000100
00010000
,
00002000
00003020
00000032
00000203
,
00001300
00000000
00000000
00001000
00000000
00000000
00010000
00000000
00100000
00000000
00000000
00000000
01100000
00000000
00000000
00000000
,
01000000
00010000
00100000
00010000
10000000
01000000
00010000
00000000
,
00001000
00000000
00000000
00001000
00000000
00000000
00000010
00000000
00000100
00000000
00000000
00000000
00000110
00000000
00000000
00000000
,
00000001
00000010
00000001
00001000
00000100
00000100
00010000
00000000
,
00011000
00000000
00001000
00100000
00010000
00010000
01000000
00000000
,
01100000
00000000
00100000
10000000
01000000
01000000
00010000
00000000
,
00001000
00000010
00000100
00000010
00000001
00000100
00000010
00000100
,
00002000
00023000
00230000
01300000
,
20020000
00000000
00000000
00000000
,
00000000
00000000
00000000
00000000
,
30030000
00000000
00000000
00000000
;

//--------------- dance-double - forcednature assist by extraordiberry ----------------
#NOTEDATA:;
#STEPSTYPE:dance-double;
#DESCRIPTION:forcednature assist by extraordiberry;
#DIFFICULTY:Hard;
#METER:16;
#RADARVALUES:0,0,0,0,0;
#CREDIT:forcednature assist by extraordiberry;
#NOTES:
00000000
00000000
00000000
00000000
,
00000000
00000000
00000000
00000000
,
00000000
00000000
00000000
00000000
,
00000000
00000000
00000000
00000000
,
00000000
00000000
00000000
00000000
,
00001000
00010000
00000100
00010000
00001000
00010000
00000100
00010000
,
00001000
00100000
00010000
00100000
00001000
00100000
00010000
00100000
,
01000000
10000000
00100000
01000000
00010000
00100000
00001000
00010000
,
00000010
00001000
00000000
00000000
00001000
00000010
00000000
00000000
00000010
00001000
00000000
00000000
00001000
00000010
00000000
00000000
,
00000100
00000000
00000001
00000000
00000010
00000001
00000010
00000000
00000100
00000000
00001000
00000000
00000100
00000000
00010000
00000000
,
00001000
00000000
01000000
00000000
00010000
01000000
00010000
00000000
00100000
00000000
01000000
00000000
10000000
00000000
00000000
00000000
,
00100000
00000000
01000000
00000000
00010000
01000000
00010000
00000000
00100000
00000000
00001000
00000000
00010000
00000000
00000010
00000000
,
00001000
00000000
00000010
00000000
00000100
00000001
00000100
00000000
00000001
00001000
00000001
00001000
00000010
00000000
00000000
00000000
,
00010000
00000000
00001000
00000000
00100000
00010000
00100000
00000000
01000000
00000000
10000000
00000000
00010000
00000000
00100000
00000000
,
00001000
00000000
00010000
00000000
00000100
00001000
00000100
00000000
00000010
00000000
00000000
00000001
00000100
00000000
00000010
00000000
,
00000210
00000001
00000001
00000310
,
00010000
00001000
00000000
00000000
00001000
00010000
00000000
00000000
00010000
00001000
00000000
00000000
00001000
00010000
00000000
00000000
,
00001000
00000000
00100000
00000000
00010000
00100000
00010000
00000000
01000000
00000000
00100000
00000000
10000000
00000000
01000000
00000000
,
10000000
00000000
00010000
00000000
00100000
00010000
00100000
00000000
00001000
00000000
00010000
00001000
00010000
00000000
00000000
00000000
,
00000010
00000000
00001000
00000000
00000010
00000100
00000010
00000000
00000100
00000000
00000001
00000000
00001000
00000000
00000100
00000000
,
00010000
00000000
00001000
00000000
01000000
00001000
01000000
00000000
00010000
00000000
00100000
00000000
01000000
00000000
00000000
00000000
,
21000000
00000000
00100000
00000000
00100000
00000000
30010000
01010000
,
00000000
00000000
00110000
00000000
00000000
00000000
00001000
00000000
00010000
00000000
00000010
00000000
00001000
00000010
00001000
00000010
,
00000200
00000000
00000301
00001000
00000200
00000000
00000310
00000001
,
00001000
00000100
00000000
00000000
00010000
00000100
00000000
00000000
00001000
00000100
00000000
00000000
00010000
00000100
00000000
00000000
,
00010000
00000000
00001000
00010000
00000000
00001000
00100000
00000000
00010000
00000000
01000000
00000000
00100000
00000000
10000000
00000000
,
01000000
00010000
00001000
00010000
01000000
01000000
00010000
00001000
,
00000010
00000000
00000100
00000010
00000000
00000001
00000010
00000000
00000001
00000000
00000100
00000000
00000010
00000000
00001000
00000000
,
00000100
00000001
00000100
00001000
00000010
00000010
00020000
00000000
,
00130000
00000000
01000000
00100000
00000000
10000000
00100000
00000000
10000000
00000000
01000000
00000000
00100000
00000000
00010000
00000000
,
00100000
00000000
00001000
00010000
00000000
00000100
00001000
00000000
00000100
00000000
00000010
00000000
00000010
00000000
00000001
00000000
,
00000100
00000000
00000010
00000000
00001000
00000000
00000100
00001000
00000100
00000000
00010000
00000000
00001000
00010000
00001000
00010000
,
00002000
00000000
00103000
00000000
00011000
00011000
00000000
00000000
,
02000000
00000000
00000000
00000000
00010000
00000000
00000000
00010000
00000000
00000000
00010000
00000000
00000000
00000000
00010000
00000000
,
03020000
00000000
00000000
00000000
00100000
00000000
00000000
00100000
00000000
00000000
00100000
00000000
00000000
00000000
00100000
00000000
,
00230000
00000000
00000000
00000000
00001000
00000000
00000000
00001000
00000000
00000000
00001000
00000000
00000000
00000000
00001000
00000000
,
00302000
00000000
00000000
00000000
00010000
00000000
00000000
00010000
00000000
00000000
00013000
00000000
00011000
00000000
00000000
00000000
,
00000200
00000000
00000000
00000000
00001000
00000000
00000000
00001000
00000000
00000000
00001000
00000000
00000000
00000000
00001000
00000000
,
00000320
00000000
00000000
00000000
00000001
00000000
00000000
00000001
00000000
00000000
00000001
00000000
00000000
00000000
00000001
00000000
,
00000230
00000000
00000000
00000000
00010000
00000000
00000000
00010000
00000000
00000000
00010000
00000000
00000000
00000000
00010300
00000000
,
00001000
00010000
00000000
00000000
00010000
00001000
00000000
00000000
00001000
00010000
00000000
00000000
00010000
00001000
00000000
00000000
,
00100000
00000000
00010000
00000000
00100000
00000000
00000000
00100000
00000000
00000000
01000000
00000000
10000000
00000000
00100000
00000000
,
01000000
00000000
00010000
00000000
01000000
00000000
00000000
01000000
00000000
00000000
00010000
00000000
00100000
00000000
00001000
00000000
,
00010000
00000000
00000100
00000000
00010000
00000000
00000000
00010000
00000000
00000000
00001000
00000000
00000010
00000000
00000001
00000000
,
00001000
00000000
00000100
00000000
00000010
00000000
00000000
00000010
00000000
00000000
00000001
00000000
00001001
00000000
00000000
00000000
,
00001000
00000000
00000010
00000000
00010000
00000000
00000000
00010000
00000000
00000000
00001000
00000000
01000000
00000000
00010000
00000000
,
10000000
00000000
01000000
00000000
00100000
00000000
00000000
00100000
00000000
00000000
01000000
00000000
10000000
00000000
00010000
00000000
,
00100000
00000000
00001000
00000000
00010000
00000000
00000000
00010000
00000000
00000000
00000100
00000000
00001000
00000000
00000010
00000000
,
00000100
00000001
00000000
00000000
00000010
00000001
00000000
00000000
00000100
00000001
00000000
00000000
00000010
00000001
00000000
00000000
,
00001001
00000000
00000000
00000000
00001100
00000000
00000000
00001000
00000100
00000000
00010000
00000000
00001000
00000000
00100000
00000000
,
00010000
00000000
00000000
00000000
00110000
00000000
00000000
10000000
01000000
00000000
10000000
00000000
00010000
00000000
00100000
00000000
,
00001000
00000000
00000000
00000000
00011000
00000000
00000000
00000010
00001000
00000000
00000100
00000000
00001000
00000000
00000001
00000000
,
00000010
00000000
00000000
00000000
00000110
00000000
00000000
00001000
00000100
00000000
00000100
00000000
00010000
00000000
00001000
00000000
,
00100000
00000000
00000000
00000000
00110000
00000000
00000000
10000000
01000000
00000000
00010000
00000000
00001000
00000000
00100000
00000000
,
00010000
00000000
00000000
00000000
00110000
00000000
00000000
00001000
00010000
00000000
00000010
00000000
00001000
00000000
00000100
00000000
,
00001000
00000000
00000000
00000000
00001100
00000000
00000000
00000001
00000010
00000000
00000100
00000000
00001000
00000000
00000001
00000000
,
00000200
00002300
00023000
00230000
,
20300000
00000000
00000000
00000000
01000000
00000000
00000000
31000000
00000000
00000000
00010000
00000000
00100000
00000000
00001000
00000000
,
00020000
00000000
00000000
00000000
00000100
00000000
00000000
00030100
00000000
00000000
00001000
00000000
00000001
00000000
00000010
00000000
,
00000200
00000000
00000000
00000000
00010000
00000000
00000000
00010300
00000000
00000000
00000010
00000000
00001000
00000000
00000001
00000000
,
00000200
00000000
00000000
00000000
00001000
00000000
00000000
00001300
00000000
00000000
00000100
00000000
00000000
00000000
00010000
00000000
,
01000000
00100000
10000000
00100000
01000000
00010000
00100000
00010000
,
10000000
01000000
00010000
00001000
00100000
00010000
00100000
00001000
,
00020000
00000000
00000000
00000000
00000100
00000000
00000000
00000000
00030100
00000000
00001000
00000000
00000100
00000010
00000100
00000010
,
00000002
00000000
00000000
00000000
00000103
00000000
00000000
00000000
00000001
00001000
00000001
00000000
00001000
00000000
00000000
00000000
,
00000200
00020300
00032000
00203000
,
00310000
10000000
00000000
00000000
10000000
00010000
00000000
00000000
00010000
10000000
00000000
00000000
10000000
00010000
00000000
00000000
,
00100000
00000000
00010000
00000000
00100000
00000000
00001000
00010000
00001000
00000000
00010000
00000000
00000100
00000000
00001000
00000000
,
00000010
00000000
00000100
00000000
00000001
00000000
00000010
00000001
00000010
00000000
00000100
00000000
00010000
00000000
00001000
00000000
,
00100000
00000000
00010000
00000000
00100000
00000000
01000000
10000000
01000000
00000000
10000000
00000000
00100000
00000000
01000000
00000000
,
00010000
00000000
00100000
00000000
00001000
00000000
00010000
00001000
00010000
00000000
00000100
00001000
00000100
00000000
00000010
00000000
,
00000001
00000000
00001000
00000000
00000010
00000000
00000100
00000010
00000100
00000000
00000001
00000000
00001000
00000000
00000100
00000000
,
00010000
00000000
00001000
00000000
00100000
00000000
00010000
00100000
00010000
00000000
00100000
00010000
10000000
00000000
01000000
00000000
,
10000000
00000000
00100000
00000000
01000000
00000000
00100000
01000000
00010000
00000000
00100000
00000000
00010000
00100000
00010000
00100000
,
00002000
00023000
00030200
00002300
,
00003010
00000000
00000100
00000010
00000100
00000000
00000001
00000100
00000001
00000000
00000010
00000000
00000100
00000000
00010000
00000000
,
00001000
00000000
00100000
00010000
00100000
00000000
01000000
00100000
01000000
00000000
10000000
00000000
10000000
00000000
00010000
00000000
,
00100000
00000000
00010000
00100000
00010000
00000000
00100000
00001000
00010000
00000000
00000100
00000000
00001000
00000000
00000010
00000000
,
00000100
00000000
00000001
00000100
00000001
00000000
00000100
00000010
00001000
00000000
00000100
00000000
00010000
00000000
00001000
00000000
,
00011000
00000000
00100000
00000000
00010000
00000000
01000000
00010000
01000000
00000000
00100000
01000000
00100000
00000000
10000000
00000000
,
11000000
00010000
00100000
00001000
00010000
00011000
00000000
00000000
,
00000010
00000000
00001000
00000000
00000100
00000000
00000010
00000000
00000001
00000100
00000001
00000100
00000010
00001000
00000010
00001000
,
00000002
00000023
00000230
00020300
,
00031000
00000000
00010000
00001000
00000000
00100000
00010000
00100000
00010000
00000000
00100000
00000000
01000000
00000000
10000000
00000000
,
00010000
01000000
10000000
01000000
00010000
00100000
00100000
00001000
,
00010000
00000000
00000100
00001000
00000000
00000010
00000100
00000010
00000100
00000000
00000001
00000000
00000010
00000000
00001000
00000000
,
00010000
00000000
00001000
00100000
00010000
00000000
00100000
00010000
00100000
00000000
01000000
00000000
01000000
00000000
00100000
00000000
,
10010000
00000000
00000000
00010000
01000000
00000000
00010000
01000000
00001000
00000000
00010000
00000000
00010000
00000000
00000100
00000000
,
00001100
00000000
00000000
00000001
00000010
00000000
00000100
00000010
00000100
00000000
00001000
00000000
00000020
00000000
00000000
00000000
,
00001030
00000100
00001000
00000000
00000100
00000000
00010000
00001000
00010000
00000000
00001000
00000000
00100000
00010000
00100000
00000000
,
00020000
00000000
00000000
00000000
20030000
00000000
00000000
00000000
32000000
00000000
00000000
00000000
03100000
00000000
00010000
00100000
,
00002000
00000000
00000000
00000000
,
00000000
00000000
00000000
00000000
,
00003000
00000000
00000000
00000000
;
