#VERSION:0.83;
#TITLE:BLAZING_LAZER;
#SUBTITLE:;
#ARTIST:brz1128;
#TITLETRANSLIT:;
#SUBTITLETRANSLIT:;
#ARTISTTRANSLIT:;
#GENRE:BURNING RAVE;
#CREDIT:;
#MUSIC:BLAZING_LAZER.ogg;
#BANNER:BLAZING_LAZER.png;
#BACKGROUND:BLAZING_LAZER-bg.png;
#CDTITLE:./CDTitles/SDVX IV HEAVENLY HAVEN.png;
#SAMPLESTART:31.402;
#SAMPLELENGTH:15.000;
#SELECTABLE:YES;
#OFFSET:-0.001;
#BPMS:0.000=191.000;
#STOPS:;
#TIMESIGNATURES:0.000=4=4;
#BGCHANGES:0.000=../BGAs/26rt.mp4=1.000=0=0=0=StretchNoLoop====,
99999.000=-nosongbg-=1.000=0=0=0=StretchNoLoop====
;
#FGCHANGES:;

//--------------- dance-single - forcednature ----------------
#NOTEDATA:;
#STEPSTYPE:dance-single;
#DESCRIPTION:forcednature;
#DIFFICULTY:Beginner;
#METER:5;
#RADARVALUES:0,0,0,0,0;
#CREDIT:forcednature;
#NOTES:
0000
0000
0000
0000
,
0000
0000
0000
0000
,
0000
0000
0000
0000
,
0000
0000
0000
0000
,
0000
0000
0000
0000
,
0001
0000
0000
0000
,
0100
0000
0000
0000
,
0010
0000
0010
0000
,
2000
0000
3000
0000
,
1001
0000
0000
0000
,
0001
0000
0001
0000
,
0100
0000
0000
0000
,
0001
0000
1000
1000
,
0001
0000
0000
0000
,
0010
0000
0100
0000
,
1000
0000
1000
0000
,
0020
0230
0300
0000
,
1001
0000
0001
0001
,
1000
0000
0000
0000
,
1001
0000
1000
1000
,
0001
0000
0000
0000
,
0100
0000
0100
0100
,
0010
0000
0000
0000
,
2000
0000
0000
3000
,
0001
0001
0010
0000
,
0100
0000
1000
0000
,
0010
1000
0010
0000
,
0100
0000
0010
0000
,
0010
0000
0100
0000
,
0001
0000
0010
0000
,
0100
0010
0100
0000
,
1000
0000
0001
0000
,
0001
0000
1000
0000
,
0010
0000
0100
0000
,
0001
0100
0001
0000
,
0010
0000
0100
0000
,
0100
0000
0010
0000
,
0100
0000
1000
0000
,
0010
1000
0010
0000
,
0100
0100
0010
0000
,
0100
0000
0002
2003
,
3002
0000
0000
0000
,
0000
0000
0000
0000
,
0000
0000
0000
0000
,
0003
0000
0000
0000
,
1001
0000
0000
1000
,
0001
0000
0000
0001
,
0100
0100
0100
0100
,
0000
0000
0000
0000
,
1001
0000
0000
1000
,
0001
0000
0100
0100
,
0001
0000
0000
0001
,
1000
0000
0010
0010
,
0100
0000
0000
0010
,
1000
0000
0100
0000
,
1001
0000
0000
0000
,
0001
0010
0100
1000
,
0001
0000
0001
0000
,
0100
0000
0000
0000
,
0001
0000
0001
0000
,
0010
0000
0000
0000
,
1000
0000
1000
0000
,
0100
0000
1000
0000
,
0020
0000
0030
0000
,
0200
0000
0300
0000
,
2002
0000
0000
0000
,
0000
0000
0000
0000
,
0000
0000
0000
0000
,
3003
0000
0000
0000
,
0220
0000
0000
0000
,
0000
0000
0000
0000
,
0000
0000
0000
0000
,
0330
0000
0000
0000
,
0001
0000
0001
0000
,
0100
0000
0001
0000
,
0000
1000
0001
0000
,
1000
0000
1000
0000
,
0010
0000
1000
0000
,
1000
0000
0010
0000
,
1000
0000
0100
0000
,
0010
0000
0001
0000
,
0100
0000
0010
0000
,
1000
0000
0010
0000
,
0000
0100
0100
0000
,
0001
0000
0010
0000
,
1001
0000
1000
0000
,
0100
0000
1000
0000
,
0010
0010
1000
0000
,
0100
0000
0010
0000
,
0220
0000
0000
0000
,
0000
0000
0000
0000
,
0000
0000
0000
0000
,
0330
0000
0000
0000
,
2002
0000
0000
0000
,
3003
0000
0000
0000
;

//--------------- dance-single - forcednature ----------------
#NOTEDATA:;
#STEPSTYPE:dance-single;
#DESCRIPTION:forcednature;
#DIFFICULTY:Easy;
#METER:8;
#RADARVALUES:0,0,0,0,0;
#CREDIT:forcednature;
#NOTES:
0000
0000
0000
0000
,
0000
0000
0000
0000
,
0000
0000
0000
0000
,
0000
0000
0000
0000
,
0000
0000
0000
0000
,
0001
0100
0100
0001
,
1000
0100
0100
1000
,
0010
0010
0010
0010
,
0200
0000
0000
0301
,
1001
0000
1000
0010
,
1000
0000
0100
0010
,
0001
0000
0100
0001
,
0010
0000
0100
0100
,
0010
0001
0010
0001
,
0100
0010
0100
0010
,
2000
0100
0200
3300
,
0002
2003
3010
0000
,
1001
1000
0010
1000
,
0100
0000
0010
0001
,
1000
0010
1000
1000
,
0001
0000
1000
0100
,
0010
0010
0001
0100
,
0001
0000
1000
0010
,
0200
0000
0000
0300
,
0110
0000
1001
0000
0001
1000
0001
0000
,
0010
0100
0010
0001
,
0100
0010
0100
0001
,
0000
0001
1000
0000
0001
0000
0100
0000
,
0010
1000
0100
0000
,
1000
0010
0100
0010
,
1000
0100
0010
0000
,
0001
0100
0100
0001
,
0000
0010
0100
1000
,
0010
0100
0010
1000
,
0100
0010
0100
1000
,
0000
0001
1000
0000
0001
0000
0100
0000
,
0010
1000
0001
0010
,
0100
0010
0001
0100
,
0010
1000
0010
0100
,
0001
1000
1000
0001
,
0000
0001
0010
0000
0200
0000
0320
0000
,
0032
0000
0000
0000
,
0000
0000
0000
0000
,
0000
0000
0000
0000
,
0000
0000
0000
0003
,
1000
0010
0010
1000
,
0001
0010
0010
0001
,
1001
0110
1001
0110
,
2000
0000
0000
3001
,
1001
0000
1000
1000
,
0010
0000
1000
0100
,
0010
0000
0001
0001
,
0100
0001
0010
0100
,
1000
0001
0001
1000
,
0010
0100
0100
0010
,
2000
0001
0002
3003
,
0000
0001
0000
0010
0000
0100
0000
1000
,
0001
0001
0100
0010
,
1000
0000
0000
0000
0001
1000
0001
0000
,
1000
0100
0010
0001
,
1000
0000
0000
0000
0001
1000
0001
0000
,
0100
0010
1000
0100
,
0010
0000
0000
0000
0100
0010
0100
0000
,
0020
0000
0000
0030
,
2002
0000
0000
3003
,
0002
0000
0000
0003
,
0200
0000
0000
0300
,
0020
0000
0000
0030
,
2000
0000
0000
3000
,
0002
0000
0010
0003
,
0020
0000
0100
0030
,
0200
0000
1000
0300
,
2000
3002
0103
0000
,
0110
0010
1000
0100
,
0010
0010
0100
1000
,
0000
0001
1000
0000
0001
0000
0100
0000
,
0010
0000
1000
0000
0001
1000
0001
0000
,
0010
0001
0100
0001
,
0010
0000
0010
0000
0100
0010
0100
0000
,
1000
0001
0001
0100
,
0000
0010
0100
0000
0220
0000
0330
0000
,
1000
0000
0010
0000
1000
0010
1000
0000
,
0001
0000
0010
0000
0001
0010
0001
0000
,
1000
0000
0010
0000
0100
0000
0001
1000
,
0000
1000
0001
0000
0010
0000
0100
0000
,
0110
0000
0010
0000
0001
0010
0001
0000
,
0100
0000
0001
0000
0100
0010
0100
0000
,
0010
1000
1000
0100
,
0000
0010
0100
0000
2000
0000
3002
0000
,
0203
0000
0000
0000
,
0000
0000
0000
0000
,
0000
0000
0000
0000
,
0020
0000
0330
0000
,
2002
0000
0000
0000
,
3003
0000
0000
0000
;

//--------------- dance-single - forcednature ----------------
#NOTEDATA:;
#STEPSTYPE:dance-single;
#DESCRIPTION:forcednature;
#DIFFICULTY:Medium;
#METER:13;
#RADARVALUES:0,0,0,0,0;
#CREDIT:forcednature;
#NOTES:
0000
0000
0000
0000
,
0000
0000
0000
0000
,
0000
0000
0000
0000
,
0000
0000
0000
0000
,
0000
0000
0000
0000
,
1001
0000
0001
1000
0010
0100
0001
0000
,
1001
0000
1000
0001
0010
0100
1000
0000
,
1100
0101
1100
0101
,
0020
0000
0000
0000
0000
0130
0100
0000
,
1001
0000
1000
0000
1000
0010
0100
0000
,
0001
0010
0100
0000
0010
0001
0100
0000
,
1001
0000
0001
0000
0001
0010
0100
0000
,
0010
0100
1000
0000
1010
0000
1010
0000
,
0010
0100
0001
0100
0010
0100
0001
0000
,
0010
0100
1000
0100
0010
0100
1000
0000
,
0001
0100
0010
1000
0001
0010
0100
1000
,
0020
0230
0301
1000
,
1001
0000
0001
0010
0100
0010
0001
0100
,
0010
0000
1000
0100
0010
0001
0100
0000
,
1001
0000
1000
0010
0100
0010
1000
0100
,
0010
0000
0001
1000
0010
0100
0001
0000
,
1001
0000
1000
0010
0100
0010
1000
0100
,
0010
0000
0100
1000
0010
0100
0001
0010
,
0200
0000
0000
0300
,
1100
0000
0101
0000
0001
0010
0100
1000
,
0010
0000
0100
0000
0001
0000
0100
0000
0010
0000
0000
0010
0000
0000
1000
0000
,
0001
0000
0010
0000
0100
0000
0010
0000
0001
0000
0000
1000
0000
0000
0010
0000
,
0100
0001
0001
0010
0100
1000
0000
1001
,
0000
0001
0100
0010
1000
0010
0100
0000
,
0001
0000
0010
0000
0001
0000
1000
0000
0100
0000
0000
0010
0000
0000
0001
0000
,
0100
0000
0010
0000
1000
0000
0010
0000
0100
0000
0000
0001
0000
0000
1000
0000
,
0100
0000
0100
0010
0100
1000
0001
0100
,
0000
0000
0010
0000
1000
0000
0001
0000
0020
0000
0000
0230
0000
0000
0320
0000
,
0031
0000
1000
0000
0001
0000
1000
0000
0010
0000
0000
0100
0000
0000
0001
0000
,
0010
0000
0100
0000
0010
0000
0001
0000
1000
0000
0000
0010
0000
0000
0100
0000
,
0001
1000
1000
0001
0010
0100
0000
1100
,
0000
1000
0010
0100
0001
0010
0010
0000
,
0001
0000
0100
0000
0001
0000
1000
0000
0100
0000
0000
0010
0000
0000
0100
0000
,
1000
0000
0010
0000
0100
0000
0010
0000
1000
0000
0000
0001
0000
0000
0010
0000
,
0100
1000
0100
1000
0010
0010
0100
0001
,
1000
0000
0100
0010
0002
0000
2003
0000
,
3020
0000
0000
0000
,
0000
0000
0000
0000
,
0000
0000
0000
0000
,
0000
0000
0000
0030
,
1001
0000
1000
0001
0010
0100
1000
0000
,
1001
0000
0001
1000
0010
0100
0001
0000
,
0011
1010
0011
1010
,
0200
0000
0000
0000
0000
0310
0010
0000
,
1001
0000
1000
0010
0100
0000
0100
0001
,
0001
0000
0010
0001
0100
0001
0010
0000
,
1001
0000
0001
0010
0100
0000
0100
1000
,
0010
0100
0100
0000
0001
0010
0100
1000
,
0010
0000
0010
1000
0100
0000
0100
0010
,
0010
0000
0001
0100
0010
1000
0100
0000
,
1002
0100
0100
0013
,
0000
0101
0000
1100
0000
1010
0000
0001
,
0010
0100
0010
0100
1000
0001
1000
0001
,
0010
0000
0100
1000
0010
0100
0001
0000
,
0100
0010
0100
0010
1000
0001
1000
0001
,
0010
0100
0100
0000
0010
0001
0100
0010
,
1000
0000
1000
0100
0010
0100
1000
0001
,
1000
0000
0010
0100
0001
0010
0100
0000
,
0020
0000
0000
0030
,
0001
1000
2002
3003
,
0002
0000
0000
0003
,
0200
0000
0000
0300
,
0020
0000
0000
0030
,
2000
0000
0000
3001
,
1002
0100
0100
0100
,
2003
0100
0100
0100
,
3002
0010
0010
0010
,
0203
0000
0320
0000
1030
0001
1000
0000
,
0001
0000
0010
0000
0100
0000
0010
0000
0001
0000
0000
1000
0000
0000
0001
0000
,
0100
0000
0010
0000
1000
0000
0010
0000
0100
0000
0000
0001
0000
0000
0010
0000
,
0100
1000
1000
0010
0100
0001
0000
0101
,
0000
0100
0010
1000
0001
0010
0100
0000
,
1000
0000
0010
0000
0100
0000
0010
0000
1000
0000
0000
0001
0000
0000
0010
0000
,
0100
0000
1000
0000
0100
0000
0010
0000
0001
0000
0000
1000
0000
0000
0010
0000
,
0100
0001
0001
0010
0100
0010
0001
1000
,
0000
0000
0010
0000
0100
0000
0001
0000
0020
0000
0000
0230
0000
0000
0320
0000
,
0031
0000
1000
0000
0100
0000
1000
0000
0010
0000
0000
0100
0000
0000
0010
0000
,
1000
0000
0100
0000
0010
0000
0100
0000
1000
0000
0000
0001
0000
0000
0100
0000
,
0010
1000
1000
0001
0010
0100
0000
0110
,
0000
0010
0001
1000
0010
0100
0100
0000
,
0010
0000
1000
0000
0100
0000
1000
0000
0001
0000
0000
0010
0000
0000
0001
0000
,
0100
0000
0010
0000
1000
0000
0010
0000
0100
0000
0000
0001
0000
0000
0010
0000
,
0100
1000
0100
1000
0010
0100
0001
0010
,
0000
0001
0100
0010
2000
0000
3002
0000
,
0023
0000
0000
0030
,
0200
0000
0000
0300
,
2000
0000
0000
3000
,
0002
0000
0000
0003
,
2002
0000
0000
0000
,
3003
0000
0000
0000
;

//--------------- dance-single - forcednature ----------------
#NOTEDATA:;
#STEPSTYPE:dance-single;
#DESCRIPTION:forcednature;
#DIFFICULTY:Hard;
#METER:16;
#RADARVALUES:0,0,0,0,0;
#CREDIT:forcednature;
#NOTES:
0000
0000
0000
0000
,
0000
0000
0000
0000
,
0000
0000
0000
0000
,
0000
0000
0000
0000
,
0000
0000
0000
0000
,
1001
0000
0000
0000
0001
0000
0000
1000
0001
0000
0010
0000
0100
0000
1000
0000
,
1001
0000
0000
0000
1000
0000
0000
0001
1000
0000
0010
0000
0100
0000
0001
0000
,
0011
1010
0011
1010
,
0200
0000
0000
0000
0000
0310
0110
0000
,
1000
0000
0001
1000
0001
0000
0010
0000
0001
0000
1000
0001
1000
0000
0000
0000
,
0100
0000
1000
0100
1000
0000
0001
0000
1000
0000
0010
0000
0100
0000
0001
0000
,
1000
0000
0001
1000
0001
0000
0010
0000
0001
0000
1000
0001
1000
0000
0000
0000
,
0010
0000
1000
0010
1000
0000
0001
0010
0002
0000
0003
0000
0002
0000
0003
0000
,
1001
0000
0000
1000
0001
0000
0100
0000
0010
0000
1000
0010
1000
0000
0000
0000
,
1001
0000
0000
0001
1000
0000
0100
0000
0010
0000
0001
0010
0001
0000
0000
0000
,
1000
0000
0010
0100
0010
0000
1000
0000
0001
0000
0010
0100
0010
0000
0001
0000
,
2000
0000
0100
0000
3002
0000
0100
0000
1003
0000
0000
1000
0001
0000
0000
0000
,
0010
0000
0001
0010
0001
0000
0100
0000
0010
0000
0100
0010
1000
0000
0001
0000
,
0010
0000
0000
0000
0100
1000
0001
1000
0100
0000
0010
0000
0001
0000
1000
0000
,
0010
0000
1000
0010
1000
0000
0100
0000
0010
0000
0100
0010
0001
0000
1000
0000
,
0010
0100
0010
0100
0001
0000
0100
0010
1000
0000
0001
0000
0010
0001
0010
0000
,
0100
0000
1000
0100
1000
0000
0010
0000
0100
0000
0010
0100
0001
0000
1000
0000
,
0100
0000
0000
0000
0010
0001
1000
0001
0010
0000
0100
0000
1000
0001
1000
0000
,
0002
0000
0000
0100
0203
0000
0310
0000
,
1010
0000
0011
0000
1001
0001
0010
0100
,
1000
0000
0001
1000
0001
0000
0100
0000
0010
0100
0010
0100
0000
0001
0100
0000
,
0010
0000
1000
0000
0100
0000
1000
0000
0001
1000
0001
0010
0000
0100
0010
0000
,
0001
0000
0010
0100
1000
0000
0001
0000
0100
0000
0110
0000
0000
0000
1010
0000
,
0000
0000
1000
0000
0100
0000
0010
0000
0001
0000
0100
0000
0001
1000
0001
0000
,
0010
0000
0100
1000
0100
0000
1000
0000
0010
1000
0010
1000
0000
0010
0100
0000
,
0001
0000
0010
0000
0100
0000
0010
0000
0001
1000
0010
1000
0000
0001
1000
0000
,
0100
0000
1000
0100
0010
0000
0100
0010
0001
0010
0001
0000
1000
0000
0001
0000
,
0100
0000
0010
0000
1000
0010
1000
0000
0002
0000
0000
0023
0000
0000
0230
0000
,
1300
0000
0010
0000
0100
0000
0010
0000
1000
0001
1000
0001
0000
0010
0001
0000
,
0100
0000
0010
0000
1000
0000
0010
0000
0100
0001
1000
0001
0000
0010
0001
0000
,
0010
0000
0100
0010
0100
0000
1000
0000
0010
0000
0110
0000
0000
0000
0101
0000
,
0000
0000
0001
0000
0010
0000
0100
0000
1000
0000
0001
1000
0001
0000
0000
0000
,
0100
0000
0010
0000
1000
0000
0010
0000
0100
0001
0100
0001
0000
0100
0010
0000
,
1000
0000
0100
0000
0010
0000
0100
0000
1000
0001
0010
0001
0000
0010
0100
0000
,
1000
0000
0100
1000
0001
0000
0100
0001
0100
0001
1000
0000
0010
0000
0100
0000
,
0002
0000
0000
0003
1000
0001
1000
0000
0002
0000
0100
0000
2003
0000
0100
0000
,
3002
0000
0000
0000
,
0000
0000
0000
0000
,
2000
0000
0000
0000
,
0000
0000
0000
3003
,
1001
0000
0000
0000
1000
0000
0000
0001
1000
0000
0010
0000
0100
0000
0001
0000
,
1001
0000
0000
0000
0001
0000
0000
1000
0001
0000
0010
0000
0100
0000
1000
0000
,
1010
0011
1010
0011
,
0200
0000
0000
0000
0000
0310
0110
0000
,
1000
0000
0001
1000
0001
0000
0100
0000
0001
0000
1000
0001
1000
0000
0100
0000
,
1000
0000
0010
0000
0100
0000
0010
1000
0002
0000
0023
0000
0230
0000
2300
0000
,
3001
0000
1000
0001
1000
0000
0010
1000
0002
0000
0000
0003
1000
0001
1000
0001
,
0100
0000
0010
0000
1000
0000
0010
0000
0100
0001
1000
0000
0010
1000
0001
0000
,
1000
0000
0001
1000
0001
0000
0100
0000
0001
0000
1000
0001
1000
0000
0010
0000
,
1000
0000
0100
1000
0100
0000
0010
0100
0010
0000
0001
0000
1000
0000
0010
0000
,
0210
0000
0000
0000
0000
0000
0000
0000
0000
0000
0000
0000
0000
0000
0000
0000
0001
0000
0000
0000
0000
0000
0000
0000
0000
0000
0000
0000
0000
0000
0000
0000
0001
0000
0000
0000
0000
0000
0000
0000
0000
0000
0000
0000
0000
0000
0000
0000
0001
0300
0000
0000
0000
0000
0000
0000
1000
0000
0000
0000
0000
0000
0000
0000
,
0100
0010
0100
1000
0010
0100
0001
0010
,
0100
0000
1000
0100
1000
0000
0010
0000
0100
0000
0010
0100
0001
0000
1000
0000
,
0100
0000
0000
0000
0010
0001
1000
0001
0010
0000
0100
0000
1000
0000
0001
0000
,
0100
0000
0001
0100
0001
0000
0010
0000
0100
0000
0010
0100
1000
0000
0001
0000
,
0100
0010
0100
0010
1000
0000
0010
0100
0001
0000
1000
0000
0100
1000
0100
0000
,
0010
0000
0001
0010
0001
0000
0100
0000
0010
0000
0100
0010
1000
0000
0001
0000
,
0010
0000
0000
0000
0100
1000
0001
1000
0100
0000
0010
0000
0001
1000
0001
0000
,
2000
0000
0000
0010
3020
0000
0230
0000
,
0301
1000
0100
0010
0002
0000
0003
0000
,
0200
0000
0000
0300
,
0020
0000
0000
0030
,
2000
0000
0000
3000
,
0002
0000
0000
1003
,
2000
0000
0000
0000
0100
0000
0000
3100
0000
0000
1000
0000
0010
0000
0100
0000
,
0002
0000
0000
0000
0100
0000
0000
0103
0000
0000
0001
0000
1000
0000
0100
0000
,
0020
0000
0000
0000
0001
0000
0000
0031
0000
0000
0010
0000
0100
0000
1000
0000
,
0002
0000
0100
0000
2003
0000
0100
0000
3001
0000
0000
0001
1000
0000
0000
0000
,
0001
0000
1000
0001
1000
0000
0100
0000
0010
0100
1000
0100
0000
0010
0001
0000
,
0100
0000
0001
0000
0010
0000
0001
0000
1000
0001
1000
0010
0000
0100
0010
0000
,
1000
0000
0010
0100
0001
0000
1000
0000
0100
0000
1100
0000
0000
0000
0011
0000
,
0000
0000
0001
0000
0100
0000
0010
0000
1000
0000
0100
0000
1000
0001
1000
0000
,
0010
0000
0100
0001
0100
0000
0001
0000
0010
0001
0010
0100
0000
1000
0100
0000
,
1000
0000
0010
0000
0100
0000
0010
0000
1000
0001
0010
0001
0000
1000
0010
0000
,
0100
0000
0001
1000
0010
0000
1000
0001
0010
0001
1000
0000
0010
0000
0100
0000
,
0001
0000
0010
0000
0001
1000
0001
0000
0200
0000
0000
0320
0000
0000
2030
0000
,
3001
0000
0010
0000
0100
0000
0010
0000
0001
1000
0010
1000
0000
0001
0010
0000
,
0100
0000
1000
0000
0010
0000
1000
0000
0100
0010
0001
0010
0000
0100
1000
0000
,
0001
0000
0100
0001
0100
0000
0010
0000
1000
0000
1010
0000
0000
0000
0101
0000
,
0000
0000
0001
0000
0010
0000
0100
0000
1000
0000
0001
1000
0001
0000
0100
0000
,
0010
0000
1000
0000
0100
0000
1000
0000
0001
0100
0001
1000
0000
0100
1000
0000
,
0010
0000
0100
0000
0001
0000
0100
0000
0010
1000
0001
0010
0000
0100
0010
0000
,
0001
0000
0100
0001
1000
0000
0001
1000
0100
1000
0001
0000
0100
0000
0010
0000
,
0200
0000
0000
0000
0301
1000
0001
0000
2000
0000
0100
0000
3002
0000
0100
0000
,
2003
0000
0010
0000
3010
1000
0010
0100
,
0002
0000
0010
0000
0013
0001
0010
0100
,
2000
0000
0010
0000
3010
1000
0010
0100
,
0002
0000
0010
0000
0013
0100
1000
0001
,
2002
0000
0000
0000
,
3003
0000
0000
0000
;

//--------------- dance-double - forcednature ----------------
#NOTEDATA:;
#STEPSTYPE:dance-double;
#DESCRIPTION:forcednature;
#DIFFICULTY:Easy;
#METER:8;
#RADARVALUES:0,0,0,0,0;
#CREDIT:forcednature;
#NOTES:
00000000
00000000
00000000
00000000
,
00000000
00000000
00000000
00000000
,
00000000
00000000
00000000
00000000
,
00000000
00000000
00000000
00000000
,
00000000
00000000
00000000
00000000
,
00010000
00001000
00001000
00010000
,
00000100
00001000
00001000
00000100
,
00000110
00001001
00000110
00001001
,
00000000
00000000
00000000
00000000
,
00000001
00000100
00001000
00000000
,
00010000
00001000
00010000
00000000
,
00001000
00010000
00100000
00000000
,
10000000
00010000
00100000
00100000
,
00010000
01000000
00010000
00000000
,
10000000
01000000
00010000
00000000
,
00001000
00010000
00000100
00010000
,
00002000
00023000
00030000
00000000
,
00011000
00000100
00001000
00000010
,
00000100
00000000
00000001
00000010
,
00000100
00001000
00000010
00001000
,
00000001
00000000
00000100
00000010
,
00010000
00001000
01000000
00010000
,
01000000
00000000
00100000
10000000
,
02000000
00000000
00000000
03000000
,
01100000
10010000
01010000
00000000
,
00010000
00000000
00100000
00000000
00001000
00010000
00001000
00000000
,
00010000
00000100
00001000
00000000
,
00000010
00000100
00000001
00000010
,
00000100
00001000
00000010
00000000
,
00001000
00000000
00000100
00000000
00010000
00001000
00010000
00000000
,
00001000
00100000
00010000
00000000
,
01000000
01000000
00010000
00100000
,
00000000
01000000
10000000
00010000
,
01000000
00000000
00001000
00000000
00010000
00001000
00010000
00000000
,
00000010
00001000
00000001
00000000
,
00000010
00000100
00001000
00000010
,
00000100
00000001
00001000
00000000
,
00000100
00000000
00010000
00000000
00001000
00010000
00001000
00000000
,
00100000
00010000
01000000
00000000
,
00100000
10000000
00010000
00100000
,
00000000
01000000
20000000
30020000
,
02030000
00000000
00000000
00000000
,
00000000
00000000
00000000
00000000
,
00000000
00000000
00000000
00000000
,
00000000
00000000
00000000
03000000
,
00100000
10000000
01000000
00000000
,
00100000
00010000
01000000
00000000
,
00001000
00001000
00010000
00001000
,
00020000
00000000
00000000
00030000
,
00011000
00000000
00001000
00010000
,
00000100
00000000
00001000
00001000
,
00000010
00000000
00000100
00000001
,
00000010
00000000
00000100
00010000
,
00001000
00000000
00100000
00010000
,
01000000
00000000
00100000
10000000
,
00020000
00100000
00100000
00130000
,
00000000
00001000
00000000
00001000
00000000
00010000
00000000
00010000
,
00000000
00000000
00000100
00000000
00001000
00000000
00000010
00001000
,
00000010
00000100
00000001
00000000
,
00000010
00000000
00000100
00000000
00001000
00000000
00000100
00010000
,
00000100
00010000
00001000
00000000
,
01000000
00000000
00010000
00000000
00100000
00000000
01000000
00100000
,
01000000
10000000
00010000
00000000
,
02000000
00000000
00000000
00000000
,
00020000
00000000
03030000
00000000
,
00002000
00000000
00000000
00000000
,
00000000
00000000
00000000
00000000
,
00000000
00000000
00000000
00000000
,
00000000
00000000
00000000
00003000
,
00011000
00000000
00010000
00001000
,
00010000
00000000
00000100
00001000
,
00000100
00000000
00001000
00000010
,
00002000
00003002
00000003
00000000
,
00000010
00000001
00000100
00000001
,
00000010
00000001
00000010
00000000
00000100
00000000
00001000
00000000
,
00000000
00000010
00010000
00001000
,
01000000
00001000
00010000
00000000
,
00001000
00000000
00100000
00000000
00010000
00100000
00010000
00000000
,
10000000
00100000
01000000
00000000
,
00010000
00100000
01000000
00100000
,
00000000
00000000
00001000
00000000
00010000
00001000
00010000
00000000
,
00000100
00001000
00000010
00001000
,
00000100
00000010
00000001
00000000
,
00000100
00000000
00000010
00000000
00000100
00000010
00000100
00000000
,
00000001
00001000
00000100
00000000
,
00010000
00001000
01000000
00010000
,
00100000
00010000
00100000
00000000
01000000
00000000
00000000
00000000
,
10000000
00100000
01000000
00010000
,
00100000
00010000
00100000
00000000
00002000
00000000
00023000
00000000
,
00032000
00000000
00000000
00000000
,
00000000
00000000
00000000
00000000
,
00020000
00000000
00000000
00000000
,
00000000
00000000
00000000
00033000
,
00022000
00000000
00000000
00000000
,
00033000
00000000
00000000
00000000
;

//--------------- dance-double - forcednature ----------------
#NOTEDATA:;
#STEPSTYPE:dance-double;
#DESCRIPTION:forcednature;
#DIFFICULTY:Medium;
#METER:13;
#RADARVALUES:0,0,0,0,0;
#CREDIT:forcednature;
#NOTES:
00000000
00000000
00000000
00000000
,
00000000
00000000
00000000
00000000
,
00000000
00000000
00000000
00000000
,
00000000
00000000
00000000
00000000
,
00000000
00000000
00000000
00000000
,
00011000
00000000
00000000
00000000
00001000
00000000
00000000
01000000
00000000
00000000
00010000
00000000
01000000
00000000
00100000
00000000
,
10000000
00000000
00000000
00000000
00010000
00000000
00000000
00100000
00000000
00000000
00010000
00000000
01000000
00000000
00001000
00000000
,
00010000
00011000
00011000
00011000
,
00000020
00000000
00000000
00000000
00000000
00001030
00000001
00000000
,
00001001
00001000
00000100
00000010
,
00000110
00000000
00000100
00000010
00000001
00000000
00000100
00000000
,
00000110
00000010
00010000
00001000
,
00011000
00000000
00010000
00001000
01000000
00000000
01000000
00000000
,
01100000
00000000
00100000
00000000
10000000
00000000
00010000
00100000
,
01000000
00000000
00100000
00000000
00010000
01000000
00001000
00000000
,
00021000
00000100
00000100
00030100
,
00020000
00032000
00023000
00032000
00013000
00000000
00000010
00000000
,
00001001
00000000
00000001
00000010
00000100
00000000
00000010
00000100
,
00001000
00000001
00000100
00001000
,
00011000
00000000
00010000
00001000
01000000
00000000
00010000
01000000
,
00100000
10000000
01000000
00010000
,
00011000
00000000
00001000
00010000
00001000
00000000
00010000
00000010
,
00001000
00000001
00000010
00000100
,
00002000
00000000
00000000
00000001
00003002
00000000
00000103
00000000
,
00000110
00000000
00001001
00000000
00000001
00000010
00000100
00001000
,
00000010
00000000
00000000
00000000
00001000
00000000
00000100
00000000
00010000
00000000
00000000
00010000
00000000
00000000
00001000
00000000
,
01000000
00000000
00010000
00000000
01000000
00000000
00010000
00000000
00100000
00000000
00000000
01000000
00000000
00000000
10000000
00000000
,
00000000
00100000
00100000
01000000
00010000
00100000
00000000
00110000
,
00000000
00010000
01000000
00001000
00010000
00001000
00100000
00000000
,
00001000
00000000
00000000
00000000
00010000
00000000
00000100
00000000
00001000
00000000
00000000
00001000
00000000
00000000
00000010
00000000
,
00000100
00000000
00000001
00000000
00000100
00000000
00000001
00000000
00000010
00000000
00000000
00000100
00000000
00000000
00001000
00000000
,
00000001
00000000
00000001
00000100
00001000
00000100
00000001
00001000
,
00000000
00000000
00000010
00000000
00001000
00000000
00000010
00000000
00010000
00000000
00000000
00010000
00000000
00000000
00001000
00000000
,
00100000
00000000
00000000
00000000
00100000
00000000
00010000
00000000
01000000
00000000
00000000
00100000
00000000
00000000
01000000
00000000
,
00100000
00000000
10000000
00000000
00100000
00000000
10000000
00000000
01000000
00000000
00000000
00100000
00000000
00000000
00010000
00000000
,
00000000
01000000
00010000
01000000
00001000
00010000
00000000
00011000
,
00000000
00001000
00010000
00000100
00001000
00000010
00001000
00000000
,
00000001
00000000
00000000
00000000
00000010
00000000
00000100
00000000
00001000
00000000
00000000
00000010
00000000
00000000
00010000
00000000
,
00001000
00000000
00010000
00000000
00001000
00000000
00100000
00000000
00010000
00000000
00000000
01000000
00000000
00000000
00100000
00000000
,
10000000
00000000
10000000
01000000
00100000
01000000
10000000
00010000
,
00000000
01000000
00010000
01000000
00002000
00023000
00032000
00023000
,
00030020
00000000
00000000
00000000
,
00000000
00000000
00000000
00000000
,
00000000
00000000
00000000
00000000
,
00000000
00000000
00000000
00000030
,
00001001
00000000
00000001
00000000
00000100
00001000
00010000
00000000
,
00001000
00000000
00010000
00000000
00100000
10000000
00010000
00000000
,
10010000
11000000
10010000
01010000
,
00200000
00000000
00000000
00000000
00000000
01300000
00100000
00000000
,
10010000
00000000
10000000
00000000
01000000
00000000
00100000
01000000
,
00100000
00001000
00010000
00000100
,
00001001
00000000
00000001
00000000
00000100
00000000
00000010
00000100
,
00000010
00000000
00001000
00000000
00000100
00010000
00000100
00000000
,
00011000
00000000
00010000
00000000
00001000
00000000
00100000
00010000
,
00100000
00000000
01000000
00000000
10000000
00010000
10000000
00000000
,
00200000
01000000
01000000
10300000
,
00000000
01100000
00000000
01010000
00000000
00110000
00000000
00100000
,
00001000
00010000
00001000
00010000
00000100
00000000
00001000
00000010
,
00000100
00000000
00000001
00000000
00000010
00000100
00001000
00000000
,
00000010
00001000
00000010
00001000
00000001
00000000
00000100
00000010
,
00001000
00000000
00000100
00000000
00010000
00001000
00010000
00000000
,
00001000
00100000
00001000
00100000
00010000
00000000
01000000
00010000
,
10000000
00000000
01000000
00000000
00100000
00010000
00100000
00000000
,
00002000
00000000
00000000
00000000
,
00020000
00000000
00033000
00000000
,
00000200
00000000
00000000
00000300
,
00002000
00000000
00000000
00003000
,
00000020
00000000
00000000
00000030
,
00020000
00000000
00000000
00031000
,
00100000
00100000
00010000
01000000
,
00100000
00100000
10000000
00010000
,
01000000
01000000
00001000
00010000
,
00002000
00023000
00032000
00023000
00030100
00000000
00001000
00000000
,
00001001
00000000
00000000
00000000
00000001
00000000
00000010
00000000
00000100
00000000
00000000
00001000
00000000
00000000
00000100
00000000
,
00010000
00000000
00001000
00000000
00010000
00000000
00001000
00000000
00100000
00000000
00000000
00010000
00000000
00000000
01000000
00000000
,
00000000
00100000
00100000
10000000
00010000
00100000
00000000
01100000
,
00000000
01000000
10000000
00010000
01000000
00010000
00100000
00000000
,
00011000
00000000
00000000
00000000
00001000
00000000
00010000
00000000
00000100
00000000
00000000
00000100
00000000
00000000
00001000
00000000
,
00000010
00000000
00000100
00000000
00000010
00000000
00000100
00000000
00000001
00000000
00000000
00000010
00000000
00000000
00000100
00000000
,
00001000
00000000
00000010
00001000
00000010
00010000
00001000
00100000
,
00000000
00000000
00010000
00000000
01000000
00000000
00010000
00000000
00100000
00000000
00000000
01000000
00000000
00000000
10000000
00000000
,
00000000
00100000
00000000
00100000
01000000
00010000
00000000
10010000
,
00000000
10000000
00000000
10000000
01000000
00100000
00100000
00000000
,
00000000
00010000
00010000
01000000
00001000
00010000
00000000
00011000
,
00000000
00001000
00010000
00000100
00001000
00000010
00000100
00000000
,
00000110
00000000
00000000
00000000
00000010
00000000
00001000
00000000
00000001
00000000
00000000
00000010
00000000
00000000
00000100
00000000
,
00000010
00000000
00000001
00000000
00000010
00000000
00000001
00000000
00000100
00000000
00000000
00000010
00000000
00000000
00001000
00000000
,
00000000
00000100
00010000
00000100
00010000
00001000
00100000
00010000
,
00000000
01000000
00010000
00100000
00002000
00023000
00032000
00023000
,
00030020
00000000
00000000
00000030
,
00002000
00000000
00000000
00003000
,
00000200
00000000
00000000
00000300
,
00020000
00000000
00000000
00030000
,
00022000
00000000
00000000
00000000
,
00033000
00000000
00000000
00000000
;

//--------------- dance-double - forcednature ----------------
#NOTEDATA:;
#STEPSTYPE:dance-double;
#DESCRIPTION:forcednature;
#DIFFICULTY:Hard;
#METER:16;
#RADARVALUES:0,0,0,0,0;
#CREDIT:forcednature;
#NOTES:
00000000
00000000
00000000
00000000
,
00000000
00000000
00000000
00000000
,
00000000
00000000
00000000
00000000
,
00000000
00000000
00000000
00000000
,
00000000
00000000
00000000
00000000
,
00011000
00000000
00000000
00000000
00010000
00000000
00000000
00001000
00010000
00000000
00000100
00000000
00001000
00000000
00000001
00000000
,
00001001
00000000
00000000
00000000
00001000
00000000
00000000
00000001
00001000
00000000
00000010
00000000
00010000
00000000
00001000
00000000
,
00011000
00101000
00110000
01010000
,
02000000
00000000
00000000
00000000
00000000
03100000
00100000
00000000
,
10000000
00000000
00010000
10000000
00010000
00000000
00100000
00000000
01000000
00000000
10000000
01000000
10000000
00000000
00000000
00000000
,
01000000
00000000
00100000
01000000
00100000
00000000
00010000
00000000
01000000
00000000
00001000
00000000
00010000
00000000
00000000
00000000
,
00001000
00000000
00010000
00001000
00010000
00000000
00000100
00000000
00001000
00000000
00000010
00001000
00000010
00000000
00000000
00000000
,
00000100
00000000
00000001
00000100
00000001
00000000
00000010
00000001
00000020
00000000
00000030
00000000
00000020
00000000
00000030
00000000
,
00000110
00000000
00000000
00000100
00001000
00000000
00000100
00000000
00010000
00000000
00001000
00010000
00001000
00000000
00000000
00000000
,
00011000
00000000
00000000
00010000
00001000
00000000
00100000
00000000
00010000
00000000
01000000
00010000
01000000
00000000
00000000
00000000
,
00100000
00000000
10000000
00100000
10000000
00000000
00010000
00000000
00100000
00000000
00001000
00100000
00001000
00000000
00000000
00000000
,
00020000
00000000
00032000
00000000
00023000
00000000
00032000
00000000
00013000
00000000
00000000
00000100
00001000
00000000
00000000
00000000
,
00000010
00000000
00001000
00000010
00001000
00000000
00000001
00000000
00000010
00000000
00000100
00000010
00000001
00000000
00000000
00000000
,
00000100
00000000
00000000
00000000
00000010
00000100
00000010
00000100
00000010
00000000
00001000
00000000
00000100
00000000
00010000
00000000
,
00001000
00000000
00010000
00001000
00010000
00000000
00001000
00000000
00100000
00000000
00010000
00100000
01000000
00000000
00000000
00000000
,
10000000
00010000
10000000
00010000
10000000
00000000
00100000
00000000
01000000
00000000
00010000
00000000
00100000
00010000
00100000
00000000
,
00001000
00000000
00010000
00001000
00010000
00000000
00000010
00000000
00001000
00000000
00000010
00000100
00000001
00000000
00000010
00000000
,
00000001
00000000
00000000
00000000
00000010
00000100
00000010
00000100
00000010
00000000
00000100
00000000
00001000
00000000
00000010
00000000
,
00020000
00000000
00000000
00001000
00032000
00000000
00103000
00000000
,
00110000
00000000
01010000
00000000
01000000
00100000
10000000
01000000
,
00100000
00000000
00010000
00100000
00010000
00000000
01000000
00000000
00100000
01000000
00100000
01000000
00000000
00100000
10000000
00000000
,
01000000
00000000
00100000
00000000
00010000
00000000
00100000
00000000
00001000
00010000
00001000
00010000
00000000
00000100
00001000
00000000
,
00000010
00000000
00001000
00000010
00001000
00000000
00000001
00000000
00000010
00000000
00000100
00000000
00000000
00000000
00000110
00000000
,
00000000
00000010
00001000
00010000
00000100
00010000
00001000
00100000
,
00010000
00000000
01000000
00010000
01000000
00000000
00100000
00000000
10000000
00100000
10000000
00100000
00000000
10000000
01000000
00000000
,
00100000
00000000
01000000
00000000
00100000
00000000
00001000
00000000
00010000
00001000
00010000
00000100
00000000
00001000
00000100
00000000
,
00001000
00000000
00000010
00001000
00000010
00000000
00000100
00000000
00000001
00000100
00000001
00000100
00000010
00000000
00001000
00000000
,
00000000
00000000
00000100
00000000
00000010
00000100
00000010
00000000
00000002
00000000
00000000
00000023
00000000
00000000
00002030
00000000
,
00013000
00000000
00000100
00000000
00010000
00000000
00001000
00000000
00100000
00010000
00100000
00010000
00000000
01000000
00010000
00000000
,
10000000
00000000
00100000
00000000
10000000
00000000
01000000
00000000
00100000
01000000
00100000
00010000
00000000
10000000
00010000
00000000
,
01000000
00000000
00010000
01000000
00010000
00000000
00100000
00000000
00001000
00000000
00010000
00000000
00000000
00000000
00011000
00000000
,
00000000
00000000
00001000
00000000
00000010
00000000
00000001
00000000
00000010
00000000
00000100
00000010
00000001
00000000
00000000
00000000
,
00000100
00000000
00000010
00000000
00001000
00000000
00000010
00000000
00000100
00000001
00000100
00000001
00000000
00000010
00000001
00000000
,
00001000
00000000
00000010
00000000
00000100
00000000
00000010
00000000
00001000
00000100
00001000
00000100
00000000
00010000
00001000
00000000
,
00100000
00000000
00010000
00100000
00010000
00000000
10000000
00010000
10000000
00010000
01000000
00000000
00100000
00000000
10000000
00000000
,
02000000
00000000
00000000
03000000
00100000
00010000
00100000
00000000
00002000
00000000
00023000
00000000
00032000
00000000
00023000
00000000
,
00030200
00000000
00000000
00000000
,
00000000
00000000
00000000
00000000
,
00000020
00000000
00000000
00000000
,
00000000
00000000
00000000
00000330
,
00000110
00000000
00000000
00000000
00001000
00000000
00000000
00000001
00000100
00000000
00001000
00000000
00010000
00000000
00100000
00000000
,
01100000
00000000
00000000
00000000
00010000
00000000
00000000
10000000
01000000
00000000
00010000
00000000
00001000
00000000
00000010
00000000
,
00000110
00010100
00000110
00000011
,
00002000
00000000
00000000
00000000
00000000
00003010
00000010
00000000
,
00010000
00000000
00001000
00010000
00001000
00000000
00100000
00000000
00010000
00000000
01000000
00010000
01000000
00000000
00100000
00000000
,
10000000
00000000
01000000
00000000
00100000
00000000
01000000
00100000
00020000
00000000
02030000
00000000
03002000
00000000
00023000
00000000
,
00030010
00000000
00001000
00000010
00001000
00000000
00000100
00001000
00000002
00000000
00000000
00000003
00000010
00000100
00000010
00000100
,
00001000
00000000
00000001
00000000
00000100
00000000
00000001
00000000
00001000
00000100
00001000
00000000
00000100
00010000
00001000
00000000
,
00010000
00000000
00001000
00010000
00001000
00000000
00100000
00000000
00010000
00000000
01000000
00010000
01000000
00000000
00100000
00000000
,
10000000
00000000
01000000
10000000
01000000
00000000
00100000
01000000
00100000
00000000
00010000
00000000
01000000
00000000
00001000
00000000
,
00020000
00000000
00100000
00000000
00100000
00000000
00130000
00010000
,
00000000
01001000
00000000
00010100
00000000
00101000
00000000
00000010
,
00010000
00000000
00001000
00010000
00001000
00000000
00100000
00000000
00010000
00000000
01000000
00010000
01000000
00000000
00100000
00000000
,
10000000
00000000
00000000
00000000
01000000
00100000
01000000
00100000
00010000
00000000
01000000
00000000
00001000
00000000
00010000
00000000
,
00000100
00000000
00001000
00000100
00001000
00000000
00000010
00000000
00000100
00000000
00000010
00000100
00000001
00000000
00001000
00000000
,
00000100
00001000
00000100
00001000
00000001
00000000
00000100
00000001
00001000
00000000
00000100
00000000
00010000
00001000
00010000
00000000
,
00001000
00000000
00100000
00010000
00100000
00000000
00010000
00000000
01000000
00000000
00100000
01000000
00100000
00000000
10000000
00000000
,
00010000
00000000
00000000
00000000
00100000
01000000
00100000
01000000
10000000
00000000
01000000
00000000
00100000
00010000
00100000
00000000
,
00002000
00000000
00000000
00010000
00023000
00000000
00030020
00000000
,
00001030
00000001
00000100
00001000
00020000
00000000
00030000
00000000
,
00200000
00000000
00000000
00300000
,
20000000
00000000
00000000
30000000
,
02000000
00000000
00000000
03000000
,
00020000
00000000
00000000
00031000
,
00001000
00000000
00000000
00000000
00000010
00000000
00000000
00000001
00000000
00000000
00000010
00000000
00000100
00000000
00001000
00000000
,
00000001
00000000
00000000
00000000
00000100
00000000
00000000
00001000
00000000
00000000
00010000
00000000
00001000
00000000
00010000
00000000
,
00100000
00000000
00000000
00000000
10000000
00000000
00000000
01000000
00000000
00000000
10000000
00000000
00100000
00000000
00010000
00000000
,
00002000
00000000
00023000
00000000
00032000
00000000
00023000
00000000
00031000
00000000
00000000
00010000
00000010
00000000
00000000
00000000
,
00001000
00000000
00000010
00001000
00000010
00000000
00000100
00000000
00000001
00000010
00000001
00000010
00000000
00000100
00000010
00000000
,
00000100
00000000
00010000
00000000
00001000
00000000
00010000
00000000
00001000
00100000
00010000
00100000
00000000
00010000
00100000
00000000
,
01000000
00000000
10000000
01000000
10000000
00000000
00100000
00000000
01000000
00000000
00010000
00000000
00000000
00000000
00110000
00000000
,
00000000
00000000
00100000
00000000
01000000
00000000
00100000
00000000
00001000
00000000
00010000
00000000
00000100
00010000
00000100
00000000
,
00001000
00000000
00000100
00001000
00000100
00000000
00000010
00000000
00000001
00001000
00000001
00001000
00000000
00000100
00001000
00000000
,
00000010
00000000
00010000
00000000
00001000
00000000
00010000
00000000
00001000
00100000
00001000
00100000
00000000
00010000
00100000
00000000
,
01000000
00000000
10000000
01000000
10000000
00000000
00010000
10000000
00100000
10000000
00100000
00000000
01000000
00000000
00010000
00000000
,
00000000
00000000
00100000
00000000
01000000
00100000
01000000
00000000
20000000
00000000
00000000
30200000
00000000
00000000
00320000
00000000
,
00031000
00000000
01000000
00000000
00010000
00000000
01000000
00000000
00001000
00010000
00001000
00010000
00000000
00000100
00001000
00000000
,
00000010
00000000
00000100
00000000
00000001
00000000
00000100
00000000
00000010
00001000
00000010
00001000
00000000
00000100
00001000
00000000
,
00000100
00000000
00010000
00001000
00010000
00000000
00001000
00000000
00100000
00000000
00010000
00000000
00000000
00000000
01100000
00000000
,
00000000
00000000
10000000
00000000
01000000
00000000
10000000
00000000
00100000
00000000
01000000
00100000
01000000
00000000
00010000
00000000
,
00100000
00000000
00001000
00000000
00010000
00000000
00001000
00000000
00010000
00000100
00010000
00000100
00000000
00001000
00000100
00000000
,
00000010
00000000
00000001
00000000
00000100
00000000
00000001
00000000
00000010
00000100
00001000
00000100
00000000
00010000
00001000
00000000
,
00010000
00000000
00001000
00100000
00001000
00000000
00100000
00010000
00100000
00010000
10000000
00000000
00100000
00000000
01000000
00000000
,
00020000
00000000
00000000
00000000
00130000
00010000
00100000
00000000
00002000
00000000
00023000
00000000
00032000
00000000
00023000
00000000
,
00030200
00000000
00001000
00000000
00001300
00000100
00000010
00000001
,
00000200
00000000
00000010
00000000
00000310
00001000
00000100
00010000
,
00002000
00000000
00100000
00000000
00103000
00001000
00010000
00001000
,
02000000
00000000
00010000
00000000
03010000
01000000
00100000
10000000
,
20020000
00000000
00000000
00000000
,
30030000
00000000
00000000
00000000
;
