#VERSION:0.83;
#TITLE:Amulet of Enbarr;
#SUBTITLE:;
#ARTIST:Cororo;
#TITLETRANSLIT:;
#SUBTITLETRANSLIT:;
#ARTISTTRANSLIT:;
#GENRE:;
#CREDIT:;
#MUSIC:Amulet of Enbarr.ogg;
#BANNER:Amulet of Enbarr.png;
#BACKGROUND:Amulet of Enbarr-bg.png;
#CDTITLE:./CDTitles/pnm UniLab.png;
#SAMPLESTART:72.687;
#SAMPLELENGTH:15.000;
#SELECTABLE:YES;
#OFFSET:0.438;
#BPMS:0.000=160.000
,44.000=80.000
,48.000=160.000
,160.000=80.000
,176.000=160.000
,252.000=80.000
;
#STOPS:;
#TIMESIGNATURES:0.000=4=4;
#BGCHANGES:0.000=../BGAs/27em.mp4=1.000=0=0=0=StretchNoLoop====,
99999.000=-nosongbg-=1.000=0=0=0=StretchNoLoop====
;
#FGCHANGES:;

//--------------- dance-single - forcednature ----------------
#NOTEDATA:;
#STEPSTYPE:dance-single;
#DESCRIPTION:forcednature;
#CREDIT:forcednature;
#DIFFICULTY:Beginner;
#METER:3;
#RADARVALUES:0,0,0,0,0;
#NOTES:
0000
0000
0000
0000
,
0000
0000
0000
0000
,
0000
0000
0000
0000
,
0000
0000
0000
0000
,
0000
0000
0000
0000
,
0001
0000
2000
0000
,
3000
0000
0010
0000
,
1000
0000
0002
0000
,
0000
0000
0003
0000
,
1001
0000
0000
1000
,
0001
0000
0000
0001
,
0200
0000
0000
0300
,
0010
0000
0010
0000
,
1000
0000
0010
0000
,
0100
0000
0100
0000
,
0001
0000
1000
0000
,
1001
0000
0000
0000
,
0001
0000
1000
0000
,
0100
0000
1000
0000
,
0010
0000
0000
0000
,
1001
0000
0000
0000
,
1000
0000
0001
0000
,
0100
0000
0001
0000
,
0010
0000
0000
0000
,
0110
0000
0000
0000
,
0100
0000
1000
0000
,
0010
0000
0100
0000
,
0001
0000
0000
0000
,
0110
0000
0000
0000
,
0010
0000
0100
0000
,
0001
0000
1000
0000
,
0010
0000
0000
0000
,
1001
0000
0000
0000
,
1000
1000
1000
0000
,
0001
0000
0000
0000
,
0010
0010
0010
0000
,
0100
0000
1000
0000
,
0100
0000
1000
0000
,
0010
0000
0100
0000
,
0001
0000
0010
0000
,
0200
0000
0300
0000
,
2000
0000
3000
0000
,
0002
0003
0200
0300
,
0020
0030
2000
3000
,
0002
0000
0000
0003
2000
0000
0000
3000
,
0002
0000
0000
0003
0200
0000
0000
0300
,
0010
0000
1000
0010
,
1000
0000
0100
0000
,
0020
0000
0000
0030
0002
0000
0000
0003
,
2000
0000
0000
3000
0020
0000
0000
0030
,
0100
0000
0010
0100
,
0001
0000
1000
0000
,
0200
0000
0000
0300
2000
0000
0000
3000
,
0020
0000
0000
0030
0200
0000
0000
0300
,
0001
0000
0100
0001
,
0100
0000
0001
0000
,
0020
0000
0000
0030
0002
0000
0000
0003
,
2000
0000
0000
3000
0020
0000
0000
0030
,
0100
0000
0001
0100
,
0001
0000
0001
0000
,
1000
0000
0100
0000
,
2000
0000
0001
0000
,
0001
0000
3001
0000
,
2000
0000
0000
3000
0020
0000
0000
0030
,
0200
0000
0000
0300
0002
0000
0000
0000
,
0000
0000
0003
0000
;

//--------------- dance-single - forcednature ----------------
#NOTEDATA:;
#STEPSTYPE:dance-single;
#DESCRIPTION:forcednature;
#CREDIT:forcednature;
#DIFFICULTY:Easy;
#METER:8;
#RADARVALUES:0,0,0,0,0;
#NOTES:
0000
0000
0000
0000
,
0000
0000
0000
0000
,
0000
0000
0000
0000
,
0000
0000
0000
0000
,
0000
0000
0000
0000
,
2000
0000
0002
0000
,
0000
3003
0001
0100
,
0020
0000
2000
0000
,
0000
0000
3030
0000
,
1001
0000
0000
0001
0000
0000
0100
0000
,
1001
0000
0000
1000
0000
0000
0100
0000
,
0020
0000
0002
0033
,
1000
0010
1000
0010
,
0100
0001
0010
0100
,
1000
0001
1000
0001
,
0100
0010
1000
0100
,
0010
0000
0001
1000
,
0010
0100
0001
0010
,
1001
0100
1001
1000
,
0010
0000
0100
0000
0000
0001
1000
0000
,
0001
0010
0100
0010
,
0001
1000
0010
0100
,
1001
0010
1001
0100
,
0001
0000
1000
0000
0000
0010
0100
0000
,
0010
1000
0100
1000
,
0001
0010
0100
0010
,
1001
0100
1001
0010
,
0001
0000
0100
0000
0000
0001
1000
0000
,
0010
1000
0100
1000
,
0001
0010
0100
0010
,
1001
0100
1001
0010
,
0001
0000
0100
0000
0000
0001
1000
0000
,
0010
0100
0010
0100
,
0001
0010
0100
1000
,
0001
0100
0001
0100
,
0010
1000
0001
0010
,
0110
0000
1000
0100
,
1001
0001
0010
0100
,
0110
0000
0001
0100
,
1001
1000
0010
0100
,
2002
0000
3003
0001
2000
0000
3200
0000
,
0320
0000
0030
0001
2000
0000
3010
0100
,
0002
0000
0010
0010
0020
0030
2000
3000
,
0200
0000
0300
1000
2000
0000
3003
0000
,
2000
0100
3002
0100
,
2003
0000
0010
0000
0001
0001
3001
0000
,
1001
1000
0100
0010
,
0001
0000
0010
0000
0100
0010
0100
0000
,
2000
0010
3002
0010
,
2003
0000
0100
0000
0001
0001
3001
0000
,
1001
1000
0010
0100
,
0001
0010
0100
1000
,
0020
0100
2030
0100
,
3002
0000
0100
0000
1000
1000
1003
0000
,
1001
0001
0010
0100
,
1000
0100
1000
0000
0010
0000
0100
0000
,
0002
0010
2003
3020
,
0032
0023
2030
3001
,
1001
0000
0001
0100
0001
0000
0010
0000
,
0210
1000
0010
1000
,
0320
0001
0100
0001
,
0230
1000
1000
0010
,
0302
0203
0320
1030
,
2002
0003
0200
3000
,
0020
0300
0002
0000
,
0000
0000
0033
0000
;

//--------------- dance-single - forcednature ----------------
#NOTEDATA:;
#STEPSTYPE:dance-single;
#DESCRIPTION:forcednature;
#CREDIT:forcednature;
#DIFFICULTY:Medium;
#METER:12;
#RADARVALUES:0,0,0,0,0;
#NOTES:
0000
0000
0000
0000
,
0000
0000
0000
0000
,
0000
0000
0000
0000
,
0000
0000
0000
0000
,
0000
0000
0000
0000
,
2002
3000
0200
0000
,
0000
0303
0100
0010
,
2020
0030
0200
0000
,
0000
0000
0000
0000
3300
0000
1000
0001
,
0200
0000
0310
0010
0000
1000
0001
0010
,
0200
0000
0000
0000
0310
0000
0010
0000
0000
0000
0001
0000
1000
0001
1000
0000
,
0020
0000
0000
0230
0302
2003
0000
0000
,
3100
0000
0010
0100
0000
0010
0001
0000
1000
0100
0000
0000
,
1100
1010
0210
0302
,
0013
0000
0100
0010
0000
0100
1000
0000
0001
0100
0000
0000
,
0110
0000
2010
0000
3001
1000
0100
0000
,
1001
0000
0000
0000
1000
0001
1000
0000
0001
0000
0100
0000
0020
0000
0000
0000
,
2030
0000
3100
1000
0001
0000
1000
0010
,
2010
0000
3001
0010
0012
0000
1003
0100
,
0010
0001
0200
0000
0300
0010
0110
0000
,
1001
0000
0000
0000
0001
1000
0001
0000
1000
0000
0010
0000
0200
0000
0000
0000
,
0302
0000
0013
0001
1000
0000
0001
0100
,
0102
0000
1003
0100
2100
0000
3001
1000
,
0100
0010
0001
1000
0000
0010
0110
0000
,
1001
0000
0000
0000
1000
0001
1000
0000
0001
0000
0010
0000
0200
0000
0000
0000
,
2300
0000
3010
1000
0001
0000
1000
0010
,
0210
0000
0301
0010
0210
0000
1300
0001
,
0100
0010
2000
0000
3000
0100
0110
0000
,
1001
0000
0000
0000
0001
1000
0001
0000
1000
0000
0100
0000
0020
0000
0000
0000
,
0032
0000
0103
0001
1000
0000
0001
0010
,
0210
0000
1300
0010
0210
0000
0301
1000
,
0100
0010
0001
0100
0000
0010
1000
0001
,
0020
0000
0000
0130
0000
0010
0100
0000
1000
0100
0000
1000
,
0001
0000
0000
0101
0000
0000
1100
0000
0000
1000
0010
1000
,
0020
0000
0000
0130
0000
0010
0100
0000
0001
0100
0000
0010
,
1000
0000
0000
1100
0000
0000
0001
0000
0010
0100
0000
1000
,
0002
0000
0000
0103
0001
0100
0001
0000
0000
1000
0010
1000
,
0010
0110
0101
1010
,
1002
0000
0000
1003
0100
1000
0100
0000
0000
0010
0001
0010
,
0001
0000
0000
0110
0000
0000
1001
0000
0000
0001
0100
0010
,
2000
0000
3000
0100
0220
0330
2002
3003
,
2000
0000
0000
0000
3000
0000
0010
0000
0220
0000
0330
0001
0010
0100
1000
0000
,
2002
0000
0000
0000
3003
0000
0001
0000
0202
0000
0303
1000
0020
0000
0130
0000
,
2002
0000
0000
0000
3003
0000
1000
0000
2200
0000
3300
1000
0010
0100
0002
0000
,
0013
0100
1000
0100
0010
0001
1000
0010
,
0100
0001
0010
0100
1000
0001
1000
0000
,
1001
0000
0000
0000
0001
0100
0001
0000
0100
0000
0010
0000
2000
0000
3200
0000
,
0320
0230
2300
3000
0010
0100
0001
1000
,
0100
0010
0001
0010
0100
1000
0001
0100
,
0010
1000
0001
0010
1000
0010
0001
0000
,
1001
0000
0000
0000
1000
0001
1000
0000
0001
0000
0010
0000
0200
0000
2300
0000
,
3020
0000
0030
0000
2020
0000
3030
0000
0202
0000
0303
0000
1000
0001
1000
0000
,
0001
0010
0100
0010
0001
0100
0010
1000
,
0100
0001
0100
1000
0010
0100
0001
0000
,
1001
0000
0000
0000
0001
1000
0001
0000
1000
0000
0010
0000
0200
0000
0302
0000
,
0023
0230
2300
3000
0010
0100
0001
0100
,
0010
1000
0100
0010
0001
0100
0010
1000
,
0001
0010
1000
0010
0002
0000
1003
0000
,
1001
0000
0000
0000
0001
1000
0001
0000
0200
0000
0320
0000
2030
0000
3200
0000
,
0310
0000
0001
0020
0000
0000
0130
0000
1000
0200
0000
0000
,
1300
0000
1000
0010
0000
0010
0100
0000
0100
0001
0000
0000
,
1001
0000
1000
0200
0000
0000
0310
0000
0001
2000
0000
0000
,
3010
0000
0010
1000
0000
1000
0001
0000
0100
0010
0000
0000
,
2002
0000
0000
3003
2200
0000
0000
3300
,
0022
0000
0000
0033
2002
0000
0000
0000
,
0000
0000
3003
0000
;

//--------------- dance-single - forcednature ----------------
#NOTEDATA:;
#STEPSTYPE:dance-single;
#DESCRIPTION:forcednature;
#CREDIT:forcednature;
#DIFFICULTY:Hard;
#METER:16;
#RADARVALUES:0,0,0,0,0;
#NOTES:
0000
0000
0000
0000
,
0000
0000
0000
0000
,
0000
0000
0000
0000
,
0000
0000
0000
0000
,
0000
0000
0000
0000
,
2002
0003
0200
0000
,
0000
3300
2000
3010
,
0202
0300
0020
0000
,
0000
0000
0000
0000
0000
0000
0000
0000
0033
0000
0000
0000
0001
1000
0100
0010
,
0001
0000
0100
0000
0010
0000
0010
0000
1000
0000
0001
0000
1000
0100
0010
0001
,
1000
0000
0010
0000
0100
0000
0100
0000
0010
0000
1000
0000
0001
0010
0100
1000
,
0002
0000
0000
0000
0000
0000
0000
0000
0000
0000
0000
0000
0103
0000
0010
0100
0010
0000
1000
0000
0002
0000
0000
0000
0000
0000
0000
0000
0000
0000
0000
0000
,
1003
0100
1000
0100
0010
0001
1000
0010
1000
0001
0010
0100
,
1000
0001
0100
0001
1000
0100
1000
0010
0100
0001
0000
0010
,
0001
0100
0010
1000
0100
0010
0001
0010
0100
1000
0001
0100
,
0010
0000
0000
0000
1000
0000
0000
0000
0001
0000
0000
0000
0010
0000
0000
0000
0001
0000
0000
0000
1000
0000
0000
0000
0100
0000
0000
0010
0000
0000
0001
0000
0000
0000
0000
0000
1000
0000
0000
0010
0000
0000
0100
0000
0000
0001
0000
0000
,
1000
0000
0000
0000
0100
1000
0100
0010
0001
0000
0100
0000
2000
0000
0000
0000
,
3200
0000
0301
1000
1001
0000
0002
2003
,
3100
0010
0100
0000
2000
0000
3002
0000
0103
0010
0100
0000
0001
0000
1000
0000
,
0010
0000
0100
0000
0001
0010
0100
0000
0000
0000
1100
0000
1000
0001
1000
0000
,
0001
0000
0100
0000
0001
0010
0100
1000
0010
0000
1000
0000
0200
0000
0000
0000
,
0302
0000
0103
0010
0110
0000
2000
3002
,
0103
0010
0100
0000
0002
0000
2003
0000
3100
0010
0100
0000
1000
0000
0001
0000
,
0100
0001
1000
0000
0100
0010
0001
0000
0000
0000
1001
0000
1001
0000
0000
0000
,
1100
0000
0100
0000
1000
0100
0010
0001
1000
0000
0001
0000
0200
0000
0000
0000
,
2300
0000
3100
0001
1001
0000
2000
3020
,
0031
0010
1000
0000
0002
0000
0023
0000
1030
0010
0001
0000
1000
0000
0100
0000
,
0010
0000
0001
0000
0100
0001
0100
0000
0000
0000
0110
0000
1000
0010
1000
0000
,
0010
0000
0100
0000
0001
0010
0100
1000
0001
0000
1000
0000
0200
0000
0000
0000
,
0302
0000
0103
1000
1001
0000
0002
0023
,
1030
0010
0001
0000
2000
0000
3020
0000
0031
0010
1000
0000
0010
0000
0100
0000
,
0001
0010
0100
0000
1000
0100
0010
0000
0000
0000
1001
0000
1000
0010
0100
0001
,
2000
0000
0000
0001
0000
0000
3010
0000
0010
1000
0000
1000
,
0100
0010
0100
0010
0001
0010
0001
0100
0010
1000
0100
0010
,
0002
0000
0000
0100
0000
0000
1003
0000
1000
0010
0000
0010
,
0100
0001
0010
0001
1000
0010
1000
0100
0001
1000
0010
0001
,
2000
0000
0000
3001
0001
0100
0001
0000
0010
0001
0010
0100
,
1000
0010
0100
0001
0010
0100
1000
0010
0001
0010
1000
0001
,
0200
0000
0000
0310
0010
1000
0010
0000
1000
0100
1000
0001
,
0100
0010
0001
0010
0100
0001
1000
0010
0001
1000
0100
0001
,
0020
0000
0030
0100
2200
3300
0022
0033
,
2002
0000
0000
0000
0000
0000
0000
0000
3003
0000
0000
0000
0010
0000
0000
0000
0022
0000
0000
0000
0033
0000
0001
0010
0100
0000
1000
0000
0001
0000
0100
0000
,
0010
0000
0000
0000
0000
0000
1000
0000
0000
0000
0000
0000
0000
0000
0000
0000
0000
0000
0010
0000
0000
1000
0000
0000
0010
0000
0000
0000
0000
0000
0000
0000
0000
0000
0000
0000
0110
0000
0000
0000
0000
0000
0000
0000
0000
0000
0000
0000
0100
0000
0000
0000
0000
0000
0001
0000
0000
0000
0000
0000
0000
0000
0000
0000
0000
0000
0100
0000
0000
0001
0000
0000
0100
0000
0000
0000
0000
0000
0001
0000
0000
0000
0000
0000
0010
0000
0000
0000
0001
0000
0000
0000
0010
0000
0000
0000
,
0100
0000
1000
0000
0000
0000
0100
1000
0100
0000
0000
0000
1010
0000
0000
0000
0110
0000
0000
0000
0000
0000
0100
0001
0100
0000
0010
0000
1000
0100
0010
0001
,
2000
0100
0001
0100
3002
1000
0010
1000
,
0023
0000
0100
0000
0001
0000
0130
0000
0010
0001
1000
0000
1001
0000
0000
0000
,
0001
0000
0100
0000
0010
1000
0100
0010
0001
0000
1000
0000
1001
0000
0001
1000
,
0010
0000
0000
0000
0000
0000
0100
0000
0000
0000
0000
0000
0001
0000
0100
0000
0001
0000
0100
0000
0000
0000
0000
0000
0001
0000
0000
0000
0000
0000
0010
0000
0000
0100
0000
0000
1000
0000
0000
0001
0000
0000
1000
0000
0000
0000
0000
0000
,
0200
0010
1000
0010
2300
0001
0100
0001
,
3020
0000
0100
0000
1000
0000
0100
0000
1030
0001
0010
0000
0110
0000
0000
0000
,
1100
0000
1000
0000
0010
0100
0001
0010
0100
0000
1000
0000
1010
0000
0010
0100
,
0001
1000
0100
0000
0010
0001
0100
0000
1000
0100
0001
0000
0010
0100
1000
0001
,
0200
0010
1000
0010
0302
1000
0100
1000
,
0023
0000
1000
0000
0100
0000
0001
0000
0130
1000
0010
0000
0110
0000
0000
0000
,
0101
0000
1000
0000
0001
0010
0100
1000
0010
0000
0110
0000
0101
0000
0001
1000
,
0100
0000
0000
0000
0000
0000
0010
0000
0000
0000
0000
0000
0001
0000
0100
0000
0001
0000
0100
0000
0000
0000
0000
0000
0010
0000
0000
0000
0000
0000
1000
0000
0000
0001
0000
0000
0010
0000
0000
0100
0000
0000
0010
0000
0000
0000
0000
0000
,
0002
0010
1000
0010
2003
0100
3002
0203
,
2300
0000
3200
0000
0302
0000
0023
0000
0130
1000
0010
0000
0110
0000
0000
0000
,
0101
0000
0001
0000
1000
0010
0100
0001
0010
0000
0100
0000
1001
0000
1000
0001
,
0010
0001
1000
0010
1000
0001
0100
0001
0010
0100
0001
0100
,
1000
0010
0100
0001
0010
0100
1000
0010
0001
0010
0100
0001
,
1001
1000
0100
1000
0001
0100
0001
0010
0100
0001
0100
1000
,
0010
0000
0000
0000
0100
0000
0000
0000
0100
0000
0000
0000
0001
0000
0000
0000
0010
0000
0000
0000
0010
0000
0000
0000
0100
0000
0000
0000
1000
0000
0000
0000
0010
0000
0000
0000
0100
0000
0000
0001
0000
0000
0010
0000
0000
0100
0000
0000
,
2000
0000
0000
3000
0020
0000
0000
0030
,
0200
0000
0000
0300
2002
0000
0000
0000
,
0000
0000
3003
0000
;

//--------------- dance-double - forcednature ----------------
#NOTEDATA:;
#STEPSTYPE:dance-double;
#DESCRIPTION:forcednature;
#CREDIT:forcednature;
#DIFFICULTY:Easy;
#METER:8;
#RADARVALUES:0,0,0,0,0;
#NOTES:
00000000
00000000
00000000
00000000
,
00000000
00000000
00000000
00000000
,
00000000
00000000
00000000
00000000
,
00000000
00000000
00000000
00000000
,
00000000
00000000
00000000
00000000
,
00020000
00000000
00002000
00000000
,
00000000
00033000
00010000
00001000
,
02000000
00000000
00020000
00000000
,
00000000
00000000
03030000
00000000
,
10010000
00000000
00000000
00010000
00000000
00000000
01000000
00000000
,
00011000
00000000
00000000
00010000
00000000
00000000
00000100
00000000
,
00002000
00000000
00000002
00003003
,
00001000
00000010
00001000
00000010
,
00010000
00001000
01000000
00010000
,
00100000
01000000
00100000
01000000
,
10000000
00010000
01000000
00001000
,
00010000
00000000
00001000
00010000
,
00000100
00010000
00001000
00000010
,
00001001
00000100
00001001
00001000
,
00000010
00000000
00010000
00000000
00000000
00001000
00010000
00000000
,
00001000
01000000
00010000
01000000
,
00001000
00010000
00100000
01000000
,
10010000
00100000
10010000
10000000
,
01000000
00000000
00010000
00000000
00000000
00001000
00001000
00000000
,
00010000
00001000
00000010
00000001
,
00000100
00000001
00000010
00000100
,
00011000
01000000
00011000
00001000
,
00010000
00000000
00100000
00000000
00000000
01000000
00100000
00000000
,
01000000
00010000
00100000
00001000
,
00010000
00100000
10000000
01000000
,
00011000
00000100
00011000
00010000
,
00000010
00000000
00001000
00000000
00000000
00000001
00000001
00000000
,
00000100
00001000
00000100
00001000
,
00010000
00001000
00010000
00100000
,
10000000
01000000
10000000
01000000
,
00100000
00001000
00010000
00000100
,
00000110
00000000
00000010
00000001
,
00001001
00001000
00000010
00010000
,
00011000
00000000
00001000
01000000
,
10010000
00010000
00100000
01000000
,
20020000
00000000
30030000
00010000
20000000
00000000
32000000
00000000
,
03020000
00000000
00030000
00001000
00020000
00000000
00030010
00001000
,
00000020
00000000
00000100
00000100
00000200
00000300
00002000
00003000
,
00000200
00000000
00000300
00001000
00002000
00000000
00003030
00000000
,
00000002
00000000
00000203
00000000
,
00002300
00000000
00000000
00000000
00010000
00010000
00013000
00000000
,
00011000
00001000
00010000
00100000
,
10000000
00000000
01000000
00000000
00100000
01000000
00100000
00000000
,
00020000
00000000
02030000
00000000
,
03002000
00000000
00000000
00000000
00010000
00010000
00013000
00000000
,
00011000
00010000
00001000
00000010
,
00000001
00000010
00000100
00001000
,
00000002
00000000
00000203
00000000
,
00002300
00000000
00000000
00000000
00010000
00010000
00013000
00000000
,
00011000
00001000
00010000
00100000
,
10000000
00100000
10000000
00000000
01000000
00000000
00100000
00000000
,
00020000
00000000
02030000
03002000
,
00023000
00030020
00002030
00003001
,
00001001
00000000
00000001
00000100
00000001
00000000
00000010
00000000
,
00000200
00001000
00000010
00001000
,
00020300
00001000
00000010
00001000
,
00030020
00001000
00000100
00001000
,
00020030
00032000
02003000
03010000
,
20020000
00030000
02000000
30000000
,
00200000
03000000
00020000
00000000
,
00000000
00000000
00330000
00000000
;

//--------------- dance-double - forcednature ----------------
#NOTEDATA:;
#STEPSTYPE:dance-double;
#DESCRIPTION:forcednature;
#CREDIT:forcednature;
#DIFFICULTY:Medium;
#METER:12;
#RADARVALUES:0,0,0,0,0;
#NOTES:
00000000
00000000
00000000
00000000
,
00000000
00000000
00000000
00000000
,
00000000
00000000
00000000
00000000
,
00000000
00000000
00000000
00000000
,
00000000
00000000
00000000
00000000
,
00022000
00003000
00200000
00000000
,
00000000
00330000
00010000
00100000
,
20200000
00300000
02000000
00000000
,
00000000
00000000
00000000
00000000
33000000
00000000
01000000
00100000
,
00002000
00000000
00013000
00010000
00000000
00001000
00000010
00000001
,
00000020
00000000
00000000
00000000
00000130
00000000
00000100
00000000
00000000
00000000
00001000
00000000
00000001
00001000
00000001
00000000
,
00000200
00000000
00000000
00002300
00023000
00230000
00000000
00000000
,
01300000
00000000
00100000
01000000
00000000
00100000
10000000
00000000
01000000
10000000
00000000
00000000
,
11000000
10010000
00210000
00302000
,
00013000
00000000
00001000
00010000
00000000
00001000
00000010
00000000
00000001
00000010
00000000
00000000
,
00000110
00000000
00020100
00000000
00031000
00010000
00001000
00000000
,
00011000
00000000
00000000
00000000
00001000
00010000
00001000
00000000
00010000
00000000
01000000
00000000
00200000
00000000
00000000
00000000
,
02300000
00000000
13000000
00010000
10000000
00000000
00100000
00010000
,
00002000
00000000
00003010
00001000
00020000
00000000
01030000
00010000
,
00001000
00010000
00000200
00000000
00000300
00000010
00000110
00000000
,
00001001
00000000
00000000
00000000
00000001
00001000
00000001
00000000
00001000
00000000
00000010
00000000
00000200
00000000
00000000
00000000
,
00002300
00000000
00013000
00001000
00010000
00000000
00100000
01000000
,
01200000
00000000
10300000
00010000
20010000
00000000
31000000
00010000
,
00001000
00010000
00001000
00000010
00000000
00000110
00000110
00000000
,
00001001
00000000
00000000
00000000
00001000
00000001
00001000
00000000
00000001
00000000
00000100
00000000
00002000
00000000
00000000
00000000
,
00023000
00000000
00130000
00010000
00001000
00000000
00010000
00000100
,
00020100
00000000
00031000
01000000
01002000
00000000
00013000
00100000
,
10000000
00100000
02000000
00000000
03000000
00100000
01100000
00000000
,
10010000
00000000
00000000
00000000
00010000
10000000
00010000
00000000
10000000
00000000
01000000
00000000
00020000
00000000
00000000
00000000
,
00032000
00000000
00003010
00001000
00010000
00000000
00000100
00010000
,
00012000
00000000
01003000
00001000
00021000
00000000
00031000
00000010
,
00000001
00000010
00000100
00001000
00000000
00000100
00000010
00000001
,
00000200
00000000
00000000
00001300
00000000
00010000
00001000
00000000
00010000
00100000
00000000
10000000
,
00100000
00000000
00000000
01100000
00000000
00000000
01010000
00000000
00000000
00010000
00100000
00010000
,
00200000
00000000
00000000
01300000
00000000
00100000
01000000
00000000
00100000
00001000
00000000
00010000
,
00001000
00000000
00000000
00011000
00000000
00000000
00000100
00000000
00001000
00000100
00000000
00000010
,
00000002
00000000
00000000
00000103
00000001
00000100
00000001
00000000
00000000
00001000
00000010
00001000
,
00000010
00001010
00001100
00010100
,
00012000
00000000
00000000
00103000
00010000
00100000
00010000
00000000
00000000
10000000
01000000
10000000
,
01000000
00000000
00000000
01100000
00000000
00000000
00101000
00000000
00000000
00001000
00010000
00000100
,
00002000
00000000
00003000
00000001
00002002
00003003
10000220
00000330
,
00002000
00000000
00000000
00000000
00003000
00000000
00000100
00000000
00020200
00000000
00030300
00010000
00001000
00100000
00010000
00000000
,
20020000
00000000
00000000
00000000
30030000
00000000
00010000
00000000
02020000
00000000
03030000
00001000
00020000
00000000
00030010
00000000
,
00002020
00000000
00000000
00000000
00003030
00000000
00000001
00000000
00000202
00000000
00000303
00000001
00000010
00000100
00002000
00000000
,
00003002
00000203
00002300
00023000
,
02030000
00000000
23000000
00000000
30100000
01000000
00100000
00000000
,
01100000
00000000
00000000
00000000
01000000
00010000
01000000
00000000
00010000
00000000
10000000
00000000
02000000
00000000
03200000
00000000
,
02300000
03020000
00032000
00003000
00010000
00001000
00100000
00010000
,
20000000
32000000
03020000
00032000
,
00003200
00000000
00000302
00000000
00000013
00000100
00000010
00000000
,
00000110
00000000
00000000
00000000
00000100
00001000
00000100
00000000
00001000
00000000
00000001
00000000
00000200
00000000
00002300
00000000
,
00023000
00030000
00020020
00030030
00202000
00303000
00100000
00010000
,
20000000
30200000
00320000
00032000
,
00003020
00000000
00000032
00000000
00000103
00000010
00000100
00000000
,
00000110
00000000
00000000
00000000
00000010
00001000
00000010
00000000
00000100
00000000
00000001
00000000
00000020
00000000
00002030
00000000
,
00023000
00030200
00020300
00030000
00000100
00001000
00000100
00000010
,
00000002
00000023
00002030
00023000
,
00230000
00000000
20300000
00000000
31000000
00100000
01000000
00000000
,
01100000
00000000
00000000
00000000
00100000
00010000
00100000
00000000
02000000
00000000
23000000
00000000
32000000
00000000
03020000
00000000
,
00031000
00000000
00010000
00002000
00000000
00000000
00103000
00000000
00001000
00020000
00000000
00000000
,
00030010
00000000
00000010
00001000
00000000
00001000
00000100
00000000
00000100
00000010
00000000
00000000
,
00001001
00000000
00000001
00000200
00000000
00000000
00000310
00000000
00010000
00002000
00000000
00000000
,
00103000
00000000
00100000
00010000
00000000
00010000
01000000
00000000
00100000
10000000
00000000
00000000
,
20020000
00000000
00000000
30030000
02002000
00000000
00000000
03003000
,
00020020
00000000
00000000
00030030
00002002
00000000
00000000
00000000
,
00000000
00000000
00003003
00000000
;

//--------------- dance-double - forcednature ----------------
#NOTEDATA:;
#STEPSTYPE:dance-double;
#DESCRIPTION:forcednature;
#CREDIT:forcednature;
#DIFFICULTY:Hard;
#METER:16;
#RADARVALUES:0,0,0,0,0;
#NOTES:
00000000
00000000
00000000
00000000
,
00000000
00000000
00000000
00000000
,
00000000
00000000
00000000
00000000
,
00000000
00000000
00000000
00000000
,
00000000
00000000
00000000
00000000
,
00022000
00030000
00000020
00000000
,
00000000
00003030
00000020
00000031
,
00000202
00000003
00002000
00000000
,
00000000
00000000
00000000
00000000
00000000
00000000
00000000
00000000
00003300
00000000
00000000
00000000
00001000
00010000
00001000
00010000
,
00100000
00000000
01000000
00000000
00100000
00000000
00100000
00000000
10000000
00000000
00010000
00000000
10000000
01000000
00010000
00001000
,
00000010
00000000
00000100
00000000
00000010
00000000
00000010
00000000
00000001
00000000
00001000
00000000
00000001
00000100
00001000
00010000
,
00200000
00000000
00000000
00000000
00000000
00000000
00000000
00000000
00000000
00000000
00000000
00000000
01300000
00000000
00100000
01000000
00100000
00000000
10000000
00000000
00020000
00000000
00000000
00000000
00000000
00000000
00000000
00000000
00000000
00000000
00000000
00000000
,
00130000
01000000
10000000
01000000
00100000
00010000
00100000
00001000
00010000
00000100
00010000
00001000
,
00000010
00000100
00000010
00000001
00001000
00000010
00000100
00000001
00000100
00000001
00000000
00000001
,
00000010
00000100
00001000
00000100
00010000
00001000
00100000
00010000
00100000
01000000
10000000
00010000
,
01000000
00000000
00000000
00000000
00100000
00000000
00000000
00000000
10000000
00000000
00000000
00000000
01000000
00000000
00000000
00000000
00100000
00000000
00000000
00000000
00010000
00000000
00000000
00000000
01000000
00000000
00000000
00000000
00000000
00000000
00100000
00000000
00000000
00000000
00000000
00000000
10000000
00000000
00000000
00100000
00000000
00000000
00010000
00000000
00000000
00001000
00000000
00000000
,
00010000
00000000
00000000
00000000
00001000
00010000
00001000
00000100
00000010
00000000
00000100
00000000
00000002
00000000
00000000
00000000
,
00000023
00000000
00001030
00000010
00001000
00000000
00020000
00032000
,
00003100
00000010
00000100
00000000
00002000
00000000
00023000
00000000
01030000
00100000
01000000
00000000
00010000
00000000
00001000
00000000
,
00100000
00000000
01000000
00000000
00010000
00001000
01000000
00000000
00000000
00000000
00100000
00000000
00100000
00010000
00001000
00000000
,
00011000
00000000
00000000
00000000
00010000
00001000
00010000
01000000
00100000
00000000
01000000
00000000
20000000
00000000
00000000
00000000
,
30200000
00000000
00310000
00100000
00010000
00000000
00002000
00023000
,
01030000
00100000
01000000
00000000
00020000
00000000
00032000
00000000
00003100
00000010
00000100
00000000
00001000
00000000
00010000
00000000
,
00001000
00010000
00100000
00000000
00010000
00100000
01000000
00000000
00000000
00000000
01100000
00000000
01100000
00000000
00000000
00000000
,
00011000
00000000
00000000
00000000
00001000
00010000
00001000
00000010
00000100
00000000
00000010
00000000
00000002
00000000
00000000
00000000
,
00000203
00000000
00001300
00000100
00001000
00000000
00020000
00032000
,
00003010
00000001
00000010
00000000
00002000
00000000
00023000
00000000
00130000
10000000
00100000
00000000
00010000
00000000
00001000
00000000
,
00000100
00000000
00000001
00000000
00000010
00000100
00000010
00000000
00000000
00000000
00000110
00000000
00000010
00001000
00010000
00000000
,
00011000
00000000
00000000
00000000
00010000
00001000
00010000
00100000
01000000
00000000
00100000
00000000
20000000
00000000
00000000
00000000
,
32000000
00000000
03010000
01000000
00010000
00000000
00002000
00023000
,
00130000
10000000
00100000
00000000
00020000
00000000
00032000
00000000
00003010
00000001
00000010
00000000
00001000
00000000
00010000
00000000
,
01000000
00100000
01000000
00000000
10000000
00010000
00100000
00000000
00000000
00000000
00011000
00000000
00010000
00000000
00001000
00000000
,
00000020
00000000
00000000
00000001
00000000
00000000
00000130
00000000
00000100
00010000
00000000
00010000
,
00001000
00100000
00001000
00100000
00010000
00100000
00010000
01000000
00100000
10000000
01000000
00010000
,
00002000
00000000
00000000
01000000
00000000
00000000
00103000
00000000
00100000
00001000
00000000
00001000
,
00010000
00000010
00001000
00000010
00010000
00001000
01000000
00100000
00010000
00001000
00000100
00000010
,
00000200
00000000
00000000
00000301
00000001
00000100
00000001
00000000
00000010
00000001
00000010
00000100
,
00001000
00000001
00000100
00001000
00010000
00001000
00010000
00100000
10000000
01000000
00100000
00010000
,
02000000
00000000
00000000
03100000
00100000
10000000
00100000
00000000
10000000
01000000
10000000
00010000
,
10000000
00100000
00010000
00001000
00010000
00001000
00000100
00000001
00000010
00000100
00010000
00001000
,
00200000
00000000
00300000
01000000
22000000
33000000
00220000
00330000
,
00022000
00000000
00000000
00000000
00000000
00000000
00000000
00000000
00033000
00000000
00000000
00000000
00000010
00000000
00000000
00000000
00002020
00000000
00000000
00000000
00003030
00000000
00000001
00000010
00000100
00000000
00001000
00000000
00000001
00000000
00000100
00000000
,
00001000
00000000
00000000
00000000
00000000
00000000
00010000
00000000
00000000
00000000
00000000
00000000
00000000
00000000
00000000
00000000
00000000
00000000
00001000
00000000
00000000
00010000
00000000
00000000
00001000
00000000
00000000
00000000
00000000
00000000
00000000
00000000
00000000
00000000
00000000
00000000
00011000
00000000
00000000
00000000
00000000
00000000
00000000
00000000
00000000
00000000
00000000
00000000
01000000
00000000
00000000
00000000
00000000
00000000
00010000
00000000
00000000
00000000
00000000
00000000
00000000
00000000
00000000
00000000
00000000
00000000
01000000
00000000
00000000
00010000
00000000
00000000
01000000
00000000
00000000
00000000
00000000
00000000
00010000
00000000
00000000
00000000
00000000
00000000
00100000
00000000
00000000
00000000
00010000
00000000
00000000
00000000
00100000
00000000
00000000
00000000
,
01000000
00000000
10000000
00000000
00000000
00000000
01000000
00010000
01000000
00000000
00000000
00000000
01010000
00000000
00000000
00000000
00011000
00000000
00000000
00000000
00000000
00000000
00001000
00010000
00001000
00000000
00000100
00000000
00000001
00000010
00000100
00001000
,
00000020
00000000
00020030
00000000
,
00230000
00000000
20300000
00000000
,
31000000
00000000
00100000
00000000
01000000
00100000
00010000
00001000
00000100
00000000
00000010
00000000
00000110
00000000
00000100
00001000
,
00000001
00000000
00000000
00000100
00000000
00000000
00000001
00000000
00000000
00000000
00000000
00000000
00000100
00000000
00000010
00000000
00001000
00000000
00000010
00000000
00000000
00000000
00000000
00000000
00000100
00000000
00000000
00000000
00000000
00000000
00001000
00000000
00000000
00010000
00000000
00000000
00000010
00000000
00000000
00010000
00000000
00000000
00001000
00000000
00000000
00000000
00000000
00000000
,
02000000
00000000
03200000
00000000
,
00320000
00000000
00030200
00000000
,
00000310
00000000
00000001
00000000
00000100
00000010
00001000
00010000
01000000
00000000
00100000
00000000
01100000
00000000
01000000
00010000
,
00100000
00001000
00010000
00000000
00000010
00010000
00001000
00000000
00010000
00001000
00000010
00000000
00001000
00010000
00100000
01000000
,
00200000
00000000
00302000
00000000
,
00003020
00000000
00000230
00000000
,
00000301
00000000
00000010
00000000
00000001
00000100
00001000
00010000
00100000
00000000
01000000
00000000
01100000
00000000
00100000
10000000
,
01000000
00000000
00000000
10000000
00000000
00000000
00010000
00000000
00000000
00000000
00000000
00000000
00100000
00000000
00010000
00000000
00100000
00000000
00001000
00000000
00000000
00000000
00000000
00000000
00100000
00000000
00000000
00000000
00000000
00000000
00001000
00000000
00000000
00010000
00000000
00000000
00000100
00000000
00000000
00000010
00000000
00000000
00000100
00000000
00000000
00000000
00000000
00000000
,
00002000
00000000
00000000
00000000
00003002
00000000
00000203
00002300
,
00023000
02030000
03020000
00032000
00003020
00000000
00000000
00000000
,
00000130
00000000
00001000
00000000
00000010
00000100
00001000
00010000
00100000
00000000
01000000
00000000
01100000
00000000
00100000
10000000
,
00010000
00100000
00010000
00100000
01000000
00100000
01000000
00010000
00001000
00010000
00001000
00000010
,
00000100
00001000
00000001
00000100
00001000
00010000
00001000
00010000
00100000
10000000
00010000
01000000
,
10010000
00010000
00100000
00001000
00010000
00100000
00010000
00001000
00000010
00000100
00001000
00000001
,
00000100
00000000
00000000
00000000
00001000
00000000
00000000
00000000
00001000
00000000
00000000
00000000
00010000
00000000
00000000
00000000
00100000
00000000
00000000
00000000
00100000
00000000
00000000
00000000
01000000
00000000
00000000
00000000
00010000
00000000
00000000
00000000
00100000
00000000
00000000
00000000
01000000
00000000
00000000
00100000
00000000
00000000
00001000
00000000
00000000
00010000
00000000
00000000
,
00000200
00000000
00000000
00000300
00020000
00000000
00000000
00030000
,
00200000
00000000
00000000
00300000
20020000
00000000
00000000
00000000
,
00000000
00000000
30030000
00000000
;
