#VERSION:0.83;
#TITLE:Alia Dimensiva;
#SUBTITLE:;
#ARTIST:BEMANI Sound Team "Akhuta Works";
#TITLETRANSLIT:;
#SUBTITLETRANSLIT:;
#ARTISTTRANSLIT:Akhuta Works;
#GENRE:;
#CREDIT:;
#MUSIC:Alia Dimensiva.ogg;
#BANNER:Alia Dimensiva.png;
#BACKGROUND:Alia Dimensiva-bg.png;
#CDTITLE:./CDTitles/pnm Kaimei riddles.png;
#SAMPLESTART:49.016;
#SAMPLELENGTH:15.000;
#SELECTABLE:YES;
#OFFSET:-0.279;
#BPMS:0.000=282.000
,106.000=94.000
,109.500=282.000
,374.000=94.000
,406.000=188.000
,410.000=282.000
;
#STOPS:;
#TIMESIGNATURES:0.000=4=4,
4.000=13=4,
69.000=6=4,
99.000=7=4,
113.000=13=4,
165.000=7=4,
221.000=3=4,
224.000=13=4,
276.000=7=4,
374.000=5=4,
379.000=3=4,
406.000=5=4,
411.000=7=4,
467.000=10=4,
477.000=7=4,
484.000=6=4
;
#BGCHANGES:0.000=../BGAs/21he.mp4=1.000=0=0=0=StretchNoLoop====,
99999.000=-nosongbg-=1.000=0=0=0=StretchNoLoop====
;
#FGCHANGES:;

//--------------- dance-single - forcednature ----------------
#NOTEDATA:;
#STEPSTYPE:dance-single;
#DESCRIPTION:forcednature;
#DIFFICULTY:Beginner;
#METER:7;
#RADARVALUES:0,0,0,0,0;
#CREDIT:forcednature;
#NOTES:
0000
0000
0000
0000
,
0000
0000
0000
0000
,
0000
0000
0000
0000
,
0000
0000
0000
0000
,
0000
0000
0000
0000
,
0000
0000
0000
0000
,
0000
0000
0000
0000
,
0000
0000
1000
0000
,
0000
0000
1000
0000
,
0100
0000
0010
0000
,
0010
0000
0000
0001
,
0000
0000
0000
0100
,
0000
0010
0000
0000
,
1000
0000
0001
0000
,
0010
0000
0000
0110
,
0000
0000
0000
0000
1000
0000
0000
1000
,
0000
0000
0001
0000
0000
0100
0000
0000
,
0000
0010
0000
1000
,
0000
0010
0000
1000
,
0000
0001
0000
0000
,
0000
0100
0000
0010
,
0000
0100
0000
0010
,
0000
1000
0000
0000
,
0000
0001
0000
0010
,
0000
0100
0000
0010
,
0000
0010
0000
0000
0000
0000
0010
0000
,
0000
0000
2002
0000
,
0000
0000
0000
3003
0000
0000
0000
0000
,
0000
0000
1000
0000
0000
1000
0000
0000
,
0000
1000
0000
0000
0000
0000
0010
0000
,
0000
0100
0000
0001
,
0000
0000
0000
0000
0010
0000
0000
0010
,
0000
0000
0000
0010
0000
0000
0000
0000
,
0100
0000
1000
0000
,
0001
0000
0100
0010
,
0000
0010
0000
0000
0000
0010
0000
0000
,
0000
1000
0000
0001
,
0000
0100
0000
0000
,
0001
0000
0000
0001
0000
0000
0000
0001
,
0000
0000
1000
0000
,
0100
0000
0010
0000
,
0001
1000
0000
0020
,
0000
0000
0000
0000
,
0000
0000
0000
0030
,
0000
0000
0000
0100
,
0000
0001
0000
0010
,
0000
0010
0000
0001
,
0000
1000
0000
0100
,
0000
0220
0000
0000
,
0000
0000
0000
0000
,
0000
0330
0000
0000
,
1000
0000
0000
0001
0000
0000
0100
0000
,
0000
0010
0000
1000
,
0000
0010
0000
0100
,
0000
0100
0000
0000
0001
0000
0000
0000
,
0010
0000
0100
0000
,
1001
0000
1000
0000
,
0010
0000
0000
0000
,
1000
0000
0000
0000
0100
0000
0000
1000
,
0000
0001
0000
0010
,
0000
0000
0001
0000
0000
0000
0000
0100
,
0000
0100
0000
0010
,
0000
0000
1000
0000
,
0100
0000
1000
0000
,
0010
0000
0100
0000
,
0001
0000
0000
0010
,
0000
0100
0000
0010
,
0000
0001
0000
1000
,
0000
0010
0000
0000
,
1000
0000
0000
0000
0000
1000
0000
0000
,
0000
0000
1000
0000
0000
0000
0000
1000
,
0000
0000
1000
0000
0000
0000
0000
1000
,
0000
0000
1000
0000
0000
0001
0000
0000
,
0000
0000
0001
0000
0000
0000
0000
0001
,
0000
0000
0000
0100
0000
0000
0000
0010
,
0000
0000
0000
1000
0000
0000
0000
0000
,
0001
0000
1000
0000
0000
0001
0000
1000
,
0000
0000
0001
0000
1000
0000
0000
0001
,
0000
0000
1000
0000
0001
0000
0000
1000
,
0000
0000
0001
0000
0000
0100
0000
0010
,
0000
0000
0100
0000
0010
0000
0000
0100
,
0000
2002
0000
0000
,
0000
0000
3003
0000
,
1000
0000
0100
0000
0000
1000
0000
0100
,
0000
0000
1000
0000
0100
0000
0000
1000
,
0000
0000
0100
0000
1000
0000
0000
0100
,
0000
0000
1000
0000
0000
0001
0000
0100
,
0000
0000
0001
0000
0100
0000
0000
0001
,
0000
0100
0000
0010
,
0000
1000
0000
0001
,
0010
0000
0100
0000
,
1000
0000
0001
0200
,
0000
0000
0000
0000
,
0300
0000
2002
0000
,
0000
3003
0000
1000
,
0000
1000
0100
0000
,
0100
0010
0000
0010
,
0001
0100
0010
1000
,
0000
0001
0010
0001
,
1000
0010
1000
0001
,
0100
0001
1000
0100
,
1000
0010
2002
0000
,
0000
3003
0000
0110
,
0000
0001
0000
0001
,
0000
0010
0000
0100
,
0000
1000
0000
0001
,
0000
0100
0000
0010
,
0000
1000
0000
0100
,
0000
1000
0000
0001
,
0000
0000
0000
0010
,
0000
0010
0000
0010
,
0000
0000
0100
0000
,
0100
0000
0100
0000
,
0000
1000
0000
0001
,
0000
0100
0000
0000
,
2002
0000
0000
0000
3003
0000
0000
0220
,
0000
0000
0000
0330
0000
0000
1001
0000
,
0000
1000
0000
0100
,
0000
0020
0000
0000
,
0030
1001
0000
0001
,
0000
0001
0000
0100
,
0010
0000
0010
0000
,
0010
0000
1000
0000
,
1000
0100
0000
0100
,
0010
0000
0001
0100
,
0010
0000
1001
0000
;

//--------------- dance-single - forcednature ----------------
#NOTEDATA:;
#STEPSTYPE:dance-single;
#DESCRIPTION:forcednature;
#DIFFICULTY:Easy;
#METER:10;
#RADARVALUES:0,0,0,0,0;
#CREDIT:forcednature;
#NOTES:
0000
0000
0000
0000
,
0000
0000
0000
0000
,
0000
0000
0000
0000
,
0000
0000
0000
0000
,
0000
0000
0000
0000
,
0000
0000
0000
0000
,
0000
0000
0000
0000
,
0000
0000
1000
0000
,
1000
0000
0010
0100
,
0010
0100
0000
0001
,
0000
0010
0100
0010
,
0000
0100
1000
1000
,
0010
0200
0000
0001
,
0000
0310
1000
0001
,
0010
0000
0000
0110
,
0000
0000
0000
0000
1000
0000
0000
0001
,
0000
0000
0100
0000
0000
0010
0000
0000
,
1000
0001
0010
0100
,
0010
0001
1000
0100
,
1000
0001
0010
0100
,
0000
1000
0010
0100
,
0010
1000
0001
0100
,
0001
1000
0010
0100
,
0000
0001
1000
0100
,
1000
0001
0000
0100
,
0010
0000
0000
0100
0000
0010
0000
0000
,
1000
0001
0020
0000
,
0000
0000
0000
0030
0000
0000
0000
0000
,
0000
0000
1000
0000
0100
0000
0000
1000
,
0000
0001
0000
0000
0000
0000
0010
0000
,
0000
0001
0000
0100
,
0010
0000
1000
0001
,
0000
0100
0000
0001
0000
0000
1000
0000
,
0010
0000
1000
0000
,
0001
0010
0001
0010
,
0100
0000
0000
1000
0000
0100
0000
0000
,
1000
0001
0000
0010
,
0001
1000
0001
0000
,
0010
0000
1000
0000
0000
0010
0000
0100
,
0000
0001
1000
0100
,
1000
0001
0010
0100
,
0010
0001
0000
0100
,
0000
0010
0000
1000
,
0000
0100
0000
1000
,
0001
1000
0001
1000
,
0000
0010
0000
0100
,
0001
0100
0000
0010
,
1000
0001
0010
0100
,
0010
0001
0000
0100
,
0000
0010
1000
0010
,
0000
0100
0001
1000
,
0100
1000
0001
0100
,
0000
0010
0000
1000
,
0010
1000
0000
0001
,
0010
0100
1000
0100
,
0010
0000
0001
0000
0000
0200
0000
0000
,
0310
0000
1000
0000
0000
0001
0000
1000
,
0000
0010
0100
0001
,
0010
0000
0100
0000
,
1000
0000
0001
0000
0010
0000
0000
0100
,
0000
0010
0000
0000
0001
0000
1000
0000
,
0100
1000
0001
1000
,
0010
0100
0001
0010
,
0000
0001
0000
1000
0000
0000
0100
0000
,
1000
0001
1000
0100
,
0010
0000
0001
1000
,
0010
0000
0000
0100
0000
0001
0000
0000
,
1000
0010
1000
0001
,
0000
0010
0100
1000
,
0001
0000
0100
0000
0000
0001
0000
0010
,
0000
0000
0001
0000
0100
0000
0000
0001
,
0000
0000
0100
0000
0001
0000
0000
0010
,
0000
0000
0100
0000
0000
1000
0000
0100
,
0000
0000
1000
0000
0010
0000
0000
1000
,
0000
0001
0000
0100
0000
0000
0000
0010
,
0000
0000
0000
1000
0000
0000
0000
0000
,
0001
0000
0010
0000
0000
0100
0000
1000
,
0000
0000
0001
0000
0010
0000
0000
0100
,
0000
0000
1000
0000
0001
0000
0000
1000
,
0000
0000
0100
0000
0000
0010
0000
0001
,
0000
0000
0100
0000
0010
0000
0000
1000
,
0000
2002
0000
0000
,
0000
0000
3003
0000
,
1000
0000
0100
0000
0000
0001
0000
0100
,
0000
0000
1000
0000
0010
0000
0000
0001
,
0000
0000
0010
0000
1000
0000
0000
0001
,
0000
0000
0100
0000
0000
0001
0000
0010
,
0000
0000
1000
0000
0010
0000
0000
0001
,
0000
1000
0100
0010
,
0000
0100
1000
0001
,
0100
0000
0000
0010
0000
1000
0000
0001
,
0000
0100
0000
0010
0000
0000
2002
0000
,
0000
0000
0000
3003
,
0000
0000
0220
0000
,
0000
0330
0000
1000
,
0100
0000
0010
0010
0001
0000
0100
0000
,
0010
1000
0001
0000
0100
0000
0010
1000
,
1000
0000
0000
0000
1000
0000
0100
0000
0000
0000
0100
0000
0010
0000
0001
0000
0010
0000
0001
0000
0000
0100
0000
0000
,
0010
1000
0002
0023
0130
0000
1000
0000
,
0002
0000
0000
0203
0000
0000
0310
0000
0000
0000
1000
0000
0001
0000
0000
0000
0000
0000
2000
0000
0000
3200
0000
0000
,
0310
0000
0000
0000
0001
0000
1000
0000
0000
0000
0000
0000
0020
0000
0000
0230
0000
0000
0301
0000
0000
0000
0010
0000
,
0100
0000
1000
0002
0000
0000
0103
0000
0000
0010
0000
0000
,
1000
0001
0010
1001
,
0100
1000
0001
0100
,
0010
1000
0100
0000
,
0010
0001
1000
0001
,
0010
0110
0001
1000
,
0100
1000
0001
0100
,
0010
0000
1000
0100
,
1000
0001
0100
0010
,
1000
0000
0000
0100
0000
1000
0000
0000
,
0010
1000
0001
0010
,
0000
0001
0000
0100
0000
0000
0001
0000
,
0010
0100
1000
0001
,
0100
0010
1000
0000
,
2002
0000
0000
0000
3003
0000
0000
0220
,
0000
0000
0000
0330
0000
0000
1001
0000
,
0001
0010
0001
0100
,
0010
2000
0100
0100
,
3000
0000
1001
0000
0001
0000
0000
0100
,
0000
0001
0000
0000
1000
0000
0010
0000
,
1000
0000
0100
0000
1000
0000
0000
0010
,
0000
0100
0001
0010
,
0000
0001
0000
0100
0000
0000
0010
0000
,
2000
0001
0000
3100
,
1000
0010
2002
0000
,
0000
0000
0000
0000
,
3003
0000
0000
0000
;

//--------------- dance-single - forcednature ----------------
#NOTEDATA:;
#STEPSTYPE:dance-single;
#DESCRIPTION:forcednature;
#DIFFICULTY:Medium;
#METER:14;
#RADARVALUES:0,0,0,0,0;
#CREDIT:forcednature;
#NOTES:
0000
0000
0000
0000
,
0000
0000
0000
0000
,
0000
0000
0000
0000
,
0000
0000
0000
0000
,
0000
0000
0000
0000
,
0000
0000
0000
0000
,
0000
0000
0000
0000
,
0000
0000
0000
0000
1000
0000
0100
1000
,
0000
0010
0000
0010
0000
0000
0100
0000
,
0001
0010
0001
0100
,
0010
1000
0000
1000
0000
0000
0001
0000
,
0010
0100
0000
0100
0000
0010
0001
0000
,
1000
0020
0000
0100
,
0130
0000
0010
1000
0010
0000
0100
0000
,
0101
0000
1000
1010
,
0000
0000
0001
0000
0011
0000
0000
0110
,
0000
0000
1000
0000
0100
1000
0000
0010
,
0200
0000
0301
0000
0010
0001
0000
0010
,
0000
0200
0000
0000
1300
0000
0001
0000
,
1000
0010
1000
0000
0001
0000
0100
0000
,
0010
0000
0100
0000
0001
0010
0000
0100
,
0000
0020
0000
0000
0031
0000
1000
0000
,
0100
1000
0100
0000
0010
0000
0001
0000
,
1000
0020
0100
2030
,
0100
0000
3001
0000
0010
0001
1000
0000
,
0100
0010
0000
0010
0000
0100
1000
0000
,
0001
0100
2002
0000
,
0000
0000
0000
3003
0000
0000
0000
0000
,
0000
0000
0001
0000
0100
0010
0000
0010
,
0000
2000
0000
0000
3100
0000
1000
0000
,
0001
0010
0100
0010
,
0001
0000
1000
0000
0010
0000
0100
0001
,
0000
0001
0000
0020
0000
0000
0130
0000
,
1000
0000
1000
0001
1000
0000
1000
0010
,
1000
0001
0100
0110
,
1000
0100
0000
0100
0000
0020
0000
0000
,
0031
1000
0010
1000
,
0001
0010
0100
1000
,
0001
0000
0100
0010
0000
1000
0000
0200
,
0000
0000
0310
0000
0001
0000
0001
0100
,
0001
0000
0001
1000
0001
0000
0010
0000
,
0100
1000
0000
0020
,
0000
0100
0100
1000
,
1000
0100
0100
1030
,
0001
0000
0010
0100
0010
0000
0110
0000
,
0100
0000
1000
0000
0001
0010
0001
0000
,
0100
0000
0001
0000
1000
0010
1000
0000
,
0001
0010
0000
0100
0010
0000
0100
1000
,
0100
1000
0002
0000
0000
0000
0203
0000
,
0000
0010
0010
0001
,
0001
0010
0010
0301
,
1000
0000
0010
0000
0100
0001
0100
0000
,
0010
1000
0000
1000
0000
0001
0010
0000
,
0100
0010
0100
0000
0110
0000
1000
0001
,
0000
0100
0000
0101
0000
0000
1000
0010
,
1000
0010
0100
0000
0002
0000
0000
0000
,
0013
0000
0100
0010
0000
0001
0000
2000
,
0000
0000
3010
0100
0010
0100
0010
0000
,
0100
0001
0010
0001
,
1000
0000
0100
0000
1000
0010
0000
0010
,
0000
0200
0000
0000
0301
0000
0010
0001
,
0010
0100
0010
0000
0001
0000
1000
0000
,
0100
1000
0100
1000
0001
0000
0100
0010
,
0000
1000
0000
0002
0000
0000
0013
0000
,
0100
0010
0100
0000
1000
0100
1000
0000
,
0001
0100
0010
1010
,
0001
0100
0000
0100
0000
0020
0000
0000
,
1030
0000
0001
0010
0001
0000
1000
0000
,
0100
0010
0100
0010
0100
0000
1000
0000
,
0001
0000
0101
0000
0000
1000
0000
1010
,
0000
0000
0001
0000
0101
0000
0000
1010
,
0000
0000
1000
0000
1100
0000
0000
0110
,
0000
0000
0011
0000
0000
0001
0000
0101
,
0000
0000
1000
0000
1100
0000
0000
0001
,
1000
0001
1000
0000
0010
0000
0100
0010
,
0100
0000
0001
0000
0010
0001
0010
0000
,
0100
0000
1000
0010
0000
0100
0000
0001
,
0010
0000
0100
0000
1000
0010
0000
0110
,
0000
0100
0001
0000
0010
0000
0000
0110
,
0000
0000
1100
0000
0000
0001
0000
0010
,
0100
0000
1000
0000
0010
0100
0000
0101
,
0000
2002
0000
0000
,
0000
0000
3003
0000
,
1000
0000
0100
0001
0000
1000
0000
0010
,
0001
0000
1000
0000
0100
0001
0000
1000
,
0000
0000
0010
0000
0001
1000
0000
0001
,
0100
0000
0010
1000
0000
0001
0000
0100
,
1000
0000
0001
0000
0010
1000
0000
1100
,
0000
0000
0001
0010
0001
0000
0100
0000
,
0010
0000
1000
0010
1000
0000
0001
0000
,
0101
0000
0000
1000
0010
0000
1000
0000
,
0001
0010
0001
0010
0200
0000
1000
0000
,
0010
0000
0000
1000
0000
0010
0000
0000
,
1000
0310
2002
0000
,
0000
0000
0000
3003
0000
0000
0001
0100
0010
1000
0000
0100
,
1000
0000
0001
0020
0000
0000
0031
0000
0100
0010
0000
1000
,
0200
0000
0000
0310
0000
0001
1000
0000
0010
0200
0000
0000
,
0301
0010
0100
1000
0100
0010
0001
1000
0010
1000
1000
0100
,
2000
0000
0000
0000
0000
0000
3001
0100
0001
0100
0001
0100
0002
0003
0000
0000
0000
0000
0020
0030
0000
0000
0000
0000
,
1000
0100
1000
0100
1000
0100
2000
3000
0000
0000
0010
0000
0200
0300
0000
0000
0010
0000
1000
0001
1000
0001
1000
0001
,
2000
3000
0000
0000
0100
0000
0020
0030
0000
0000
0001
0000
0100
0001
0100
0001
0100
0001
0200
0300
0020
0030
2000
3000
,
0200
0300
0020
0030
0002
0003
0200
0000
0000
0000
0000
0000
0310
0000
0000
0000
0010
0000
1000
0000
0000
0000
1000
0000
,
0100
0000
0000
0000
0100
0000
0010
0000
0000
0000
0000
0000
0001
0000
0000
0000
0000
0000
1000
0000
0000
0010
0000
0000
,
0100
0010
0100
0000
0001
0000
1000
0000
,
0100
0000
0010
0100
0010
0000
0001
0000
,
1000
0001
0100
0000
0010
0000
1000
0000
,
0001
0000
0010
0100
0010
0001
0010
0000
,
0100
1000
0001
0100
,
0010
1000
0010
1000
0010
0000
0100
0000
,
0001
1000
0100
0110
,
0010
0001
0000
0001
0000
0100
0010
0000
,
1000
0000
0001
0000
0101
0000
1000
0010
,
0000
0010
0000
0100
0001
0000
1000
0000
,
0100
0000
1000
0001
1000
0000
0010
0100
,
0000
0001
0100
0001
0100
0000
0010
1000
,
0002
0000
0010
0000
0013
0000
0000
0210
,
0000
1000
0000
1300
0000
0001
0100
0000
,
0010
0100
0000
0010
1000
0000
0001
0010
,
0001
0010
0100
2000
0000
0000
0000
0000
,
3000
0000
0010
0000
0100
0010
0000
0100
,
0000
0001
0010
0000
0100
0000
0010
0000
,
0100
0000
1000
0001
0000
0100
0000
0001
,
1000
0000
0010
0000
1000
0000
0001
0010
,
0000
0100
0000
0010
0001
0000
1000
0000
,
0100
0000
1000
0010
0000
0100
0001
0010
,
0100
1000
0100
0010
0002
0000
0000
0000
,
0000
0000
0000
0000
,
0003
0000
0000
0000
;

//--------------- dance-single - forcednature assist by extraordiberry ----------------
#NOTEDATA:;
#STEPSTYPE:dance-single;
#DESCRIPTION:forcednature assist by extraordiberry;
#DIFFICULTY:Hard;
#METER:17;
#RADARVALUES:0,0,0,0,0;
#CREDIT:forcednature assist by extraordiberry;
#NOTES:
0000
0000
0000
0000
,
0000
0000
0000
0000
,
0000
0000
0000
0000
,
0000
0000
0000
0000
,
0000
0000
0000
0000
,
0000
0000
0000
0000
,
0000
0000
0000
0000
,
0000
0000
0000
0000
0020
0000
1030
0100
,
0000
0100
0000
1000
0010
0000
0010
0000
,
0100
0001
0010
0000
0110
0000
0100
1000
,
0001
1000
0000
0001
1000
0100
0020
0000
,
0031
0100
0000
0100
0000
0001
0010
0000
,
0100
0010
0002
0000
0100
0000
1000
0000
,
0013
0000
0001
0100
0010
1000
0010
0100
,
0002
0000
0013
0100
1000
0000
0002
0000
,
0103
0010
1000
0000
1001
0000
0000
1001
,
0000
0000
1001
0000
1000
0100
0000
0010
,
0100
0010
0002
0000
1003
0010
0000
0100
,
0000
2000
0000
3100
0001
1000
0010
1000
,
0001
0010
0100
0001
0100
0010
0001
1000
,
0100
1000
0001
0000
1000
0100
0000
0010
,
0000
2000
0000
3010
0001
1000
0100
1000
,
0001
0100
0010
1000
0100
1000
0010
0100
,
0002
0000
0013
0100
1000
0000
1000
0010
,
0100
0000
0100
1000
0100
0001
0010
0000
,
0100
0010
0000
0110
0000
0001
1000
0000
,
1010
0101
0022
0000
,
0000
0000
0000
0033
0000
0000
0000
0000
,
0000
0000
1100
0000
1000
0010
0000
0110
,
0000
0102
0000
0000
0013
0100
1000
0100
,
0010
0000
1000
0010
0001
0000
0100
0000
,
0020
0000
1000
0000
0130
0000
0001
0010
,
0000
1100
0000
0201
0000
0000
0310
1000
,
0100
0000
0100
1000
0010
1000
0010
0000
,
0100
0000
0001
0010
0001
0000
0011
0000
,
0001
0100
0000
0110
0000
2010
0000
0000
,
3100
0010
0001
0010
0100
0000
0001
0100
,
1000
0010
0200
1000
,
0310
0000
0100
0001
0000
1100
0000
0012
,
0000
0000
0103
0010
1000
0000
1000
0100
,
0001
0000
0100
1000
0001
0010
0100
0010
,
0100
1000
0010
0000
0100
0000
0110
0000
,
0001
0010
0200
0000
1000
0000
1000
0000
,
0010
0010
0001
0001
,
0310
0100
1000
0100
0010
0001
0200
0000
,
1000
0000
0010
0000
0301
1000
0020
0000
,
0100
0000
2030
0000
3100
0010
0001
0000
,
0100
0010
0000
0110
0000
1010
0000
1000
,
0100
0001
0200
0000
1000
0000
1000
0000
,
0010
0000
0320
0000
0001
0000
0100
0100
,
0000
0000
1000
0000
1030
0010
0000
0001
,
0010
0001
0100
0000
0010
0000
0120
0000
,
1000
0000
0130
0001
1000
0010
2000
0000
,
0100
0000
3001
0000
0011
0000
0010
0100
,
1000
0010
0000
0110
0000
0100
0001
0010
,
0100
0010
0100
1000
0002
0000
0000
0000
,
0103
0010
1000
0100
0000
1010
0000
0102
,
0000
0000
0013
0100
0010
0001
0100
0010
,
1000
0100
0010
0000
0110
0000
0100
1000
,
0010
1000
0001
0000
0100
1000
0000
1100
,
0000
0102
0000
0000
0013
0001
1000
0010
,
1000
0010
0001
0000
0110
0000
1000
0001
,
0100
0001
1000
0010
1000
0000
0100
0010
,
0000
1100
0000
0012
0000
0000
0103
0010
,
1000
0100
1000
0001
0100
0000
0110
0000
,
1010
0000
0001
0010
0100
1000
0010
0000
,
1000
0100
0000
0011
0000
0201
0000
0000
,
0310
1000
0100
0000
1000
0010
0001
0000
,
1000
0100
0001
0000
0010
1000
0010
0001
,
0010
0000
1100
0000
0000
0011
0000
1100
,
0000
0000
0011
0000
1100
0000
0000
0011
,
0000
0000
1100
0000
1010
0000
0000
0101
,
0000
0000
0220
0000
0330
1010
0000
0101
,
0000
0000
1010
0000
0101
0000
0000
1000
,
0100
0010
0002
0000
0100
0000
1000
0000
,
0013
0100
0010
0100
1000
0010
0001
0000
,
0110
0000
1000
0100
0000
0110
0000
0001
,
0100
0000
0110
0000
1000
0100
0000
0110
,
0000
0000
0101
0000
0011
0000
1000
1010
,
0000
0000
2200
0000
3300
0110
0000
1000
,
0010
0000
0110
0000
0001
0010
0000
2002
,
0000
0000
0000
3003
0000
0000
1000
0000
0100
0000
1000
0000
0100
0000
1000
0000
0100
0000
0010
0000
0001
0000
0010
0000
,
0001
0010
0001
0010
0000
0000
0220
0000
0000
0330
0000
0000
,
1000
0010
0100
0101
0000
1000
0100
0010
,
0011
0000
1000
0010
0100
0101
0000
1000
,
0100
0010
0001
0010
0100
1000
0010
0001
,
0010
1000
0001
0100
0000
0001
0010
0100
,
1100
0000
0001
0100
0010
1010
0000
0220
,
0000
0330
1000
0100
1000
0001
0010
1000
,
0010
0001
0100
0010
1000
0100
0001
0000
,
0110
0000
1000
0010
0100
1000
0001
0010
,
1000
0100
1000
0010
0001
1000
0200
0000
,
0001
0000
0000
0001
0000
0001
0000
0000
,
0301
0110
2002
0000
,
0000
0000
0000
3003
0000
0000
1000
0001
1000
0010
0100
0001
,
0010
0000
0100
0000
1000
0000
0001
0100
0010
1000
0010
0100
0001
0000
1000
0000
0010
0000
1000
0000
0001
0000
0010
0000
,
0100
1000
0010
0100
0001
0010
0001
0000
0100
0000
1000
0000
0100
0000
0001
0000
1000
0000
0010
0100
0001
0010
0100
1000
,
0010
0000
1000
0000
0100
0000
0001
0000
1000
0000
0010
0000
0001
0000
0100
0000
1000
0000
0100
0001
0010
0100
1000
0010
,
0100
0001
0010
0100
0010
0001
0200
0320
2030
3200
2300
3002
0023
0030
0000
0000
0001
0000
0202
0303
0000
0000
1000
0000
,
0020
0230
2300
3200
0320
2030
3002
0003
0000
0000
0010
0000
2200
3300
0000
0000
0010
0000
0002
2003
3020
0230
0302
0203
,
0320
0030
0000
0000
1000
0000
0202
0303
0000
0000
0001
0000
0020
0230
2300
3020
0230
0302
0023
0030
2000
3000
0002
0003
,
0200
0300
2000
3000
0020
0030
0002
0003
2000
3000
0200
0300
0002
0003
0000
0000
0010
0000
0001
0000
0000
0000
0010
0000
,
0100
0000
1000
0000
0100
0000
0001
0000
0100
0000
1000
0000
0010
0000
0000
0000
0000
0000
0110
0000
0000
0001
0000
0000
,
0010
0100
1000
0010
1000
0100
0010
0001
,
0100
0000
0000
0010
0000
0000
1000
0000
0000
0100
0000
0000
2000
0000
0000
0000
0000
0000
3010
0000
0100
0000
0001
0000
,
0100
0010
1000
0001
0010
0010
0100
0010
,
0100
0000
1001
0100
0010
0001
0200
0000
,
0310
0000
1000
0000
0010
0000
0100
0000
0000
0001
0000
0000
0010
0000
0000
0001
0000
0000
1000
0000
0000
0010
0000
0000
,
0001
0010
1000
0001
0100
0100
0010
0100
,
0010
0000
0000
0000
1000
0000
0000
0000
0001
0000
0000
0000
0100
0000
0000
0000
0000
0000
0010
0000
0000
0000
0000
0000
2000
0000
0000
0000
0000
0000
0000
0000
0000
0000
0000
0000
3100
0000
0000
0000
0000
0000
0010
0000
0000
0100
0000
0000
,
0010
0000
0001
0000
0000
0000
0011
0000
0000
0000
0100
0001
1000
0000
0010
0000
,
0100
0000
0010
0000
1000
0000
0001
0000
0010
0100
0010
0000
0100
0000
1000
0000
,
0000
0000
1010
0000
0000
0000
0001
0100
0010
0000
1000
0000
0100
0000
0001
0000
,
0100
0000
1000
0000
0001
0010
0100
0000
0010
0000
0001
0000
1000
0000
0010
0000
,
0100
0000
0000
0000
0000
0000
1000
0000
0000
0000
0000
0000
0100
0000
0000
0001
0000
0000
0100
0000
0000
0000
0000
0000
0010
0000
0000
0000
0000
0000
1000
0000
0000
0000
0000
0000
0001
0000
0000
0000
0010
0000
0000
0000
0100
0000
0000
0000
,
2000
0000
0010
0010
0010
0000
3001
0102
,
0000
0010
0010
0010
0000
1003
1100
0000
,
0001
0000
0001
0000
0100
0000
0001
0000
0010
0100
0010
0000
0100
0000
1000
0000
,
0001
0100
0010
1000
0100
1000
0100
0010
0001
0010
0100
1000
,
0100
0000
1001
0000
0001
0010
1000
0010
,
0000
0001
1000
0100
1000
0001
0010
0100
,
0010
0000
0000
0001
0000
0000
0110
0000
0000
0000
0000
0000
1000
0000
0010
0000
0100
0000
0010
0000
0000
1000
0000
0000
,
0001
0000
0010
0000
0100
0000
0010
0000
0000
0001
0000
0000
0011
0000
0000
0000
0000
0000
1000
0000
0000
0010
0000
0000
,
0001
0010
0000
1000
0001
0100
0001
1000
,
0010
0000
0000
0100
0000
0000
0001
0000
0000
0010
0000
0000
0100
0000
0000
1000
0000
0000
0010
0000
0100
0000
0001
0000
,
0100
0010
1000
0010
0100
0001
0020
0000
0000
0000
0000
0000
,
0000
0000
0000
0000
,
0030
0000
0000
0000
;

//--------------- dance-double - forcednature ----------------
#NOTEDATA:;
#STEPSTYPE:dance-double;
#DESCRIPTION:forcednature;
#DIFFICULTY:Easy;
#METER:10;
#RADARVALUES:0,0,0,0,0;
#CREDIT:forcednature;
#NOTES:
00000000
00000000
00000000
00000000
,
00000000
00000000
00000000
00000000
,
00000000
00000000
00000000
00000000
,
00000000
00000000
00000000
00000000
,
00000000
00000000
00000000
00000000
,
00000000
00000000
00000000
00000000
,
00000000
00000000
00000000
00000000
,
00000000
00000000
00001000
00000000
,
00010000
00000000
00000100
00001000
,
00000000
00001000
00000000
00000010
,
00000000
00000100
00000001
00000100
,
00000000
00001000
00000000
00010000
,
00001000
00200000
00000000
00010000
,
00000000
01300000
10000000
01000000
,
00100000
00000000
00000000
01100000
,
00000000
00000000
00000000
00000000
00010000
00000000
00000000
01000000
,
00000000
00000000
00001000
00000000
00000000
00010000
00000000
00000000
,
00000010
00001000
00000100
00000010
,
00000100
00001000
00000000
00000001
,
00000100
00000010
00001000
00000100
,
00000000
00010000
00001000
00100000
,
00010000
00100000
00000000
01000000
,
10000000
00010000
01000000
00100000
,
00000000
10000000
01000000
10000000
,
00010000
00100000
00000000
00001000
,
00010000
00000000
00000000
00001000
00000000
00001000
00000000
00000000
,
00010000
00000100
00002000
00000000
,
00000000
00000000
00000000
00003000
00000000
00000000
00000000
00000000
,
00000000
00000000
00000001
00000000
00000100
00000000
00000000
00000010
,
00000000
00000010
00000000
00000000
00000000
00000000
00001000
00000000
,
00000000
00000100
00000000
00010000
,
00001000
00000000
00100000
00010000
,
00000000
01000000
00000000
01000000
00000000
00000000
00100000
00000000
,
10000000
00000000
00010000
00000000
,
00100000
00001000
00100000
00001000
,
00010000
00000000
00000000
00000100
00000000
00000100
00000000
00000000
,
00001000
00000010
00000000
00000100
,
00000001
00001000
00000001
00000000
,
00000010
00000000
00000100
00000000
00000000
00001000
00000000
00001000
,
00000000
00000100
00010000
00001000
,
00100000
00010000
00100000
00000000
,
01000000
10000000
00000000
00100000
,
00000000
01000000
00000000
00010000
,
00000000
00100000
00000000
00001000
,
00010000
00001000
00010000
00001000
,
00000000
00010000
00000000
00000100
,
00001000
00000100
00000000
00000010
,
00000001
00000100
00000001
00000100
,
00000010
00001000
00000000
00000100
,
00000000
00010000
00001000
00010000
,
00000000
00001000
00100000
00010000
,
00100000
01000000
10000000
00010000
,
00000000
01000000
00000000
00100000
,
10000000
00100000
00000000
10000000
,
01000000
10000000
00010000
00100000
,
00001000
00000000
00010000
00000000
00000000
00000200
00000000
00000000
,
00001300
00000000
00000010
00000000
00000000
00000100
00000000
00000100
,
00000000
00000001
00000010
00000001
,
00001000
00000000
00000100
00000000
,
00010000
00000000
00001000
00000000
00100000
00000000
00000000
00010000
,
00000000
00010000
00000000
00000000
01000000
00000000
00100000
00000000
,
10000000
01000000
10000000
00010000
,
01000000
00010000
00100000
00001000
,
00000000
00010000
00000000
00010000
00000000
00000000
00000100
00000000
,
00001000
00000010
00000100
00000001
,
00001000
00000000
00000100
00010000
,
00001000
00000000
00000000
00100000
00000000
00100000
00000000
00000000
,
00010000
10000000
00100000
10000000
,
00000000
00010000
01000000
00001000
,
00010000
00000000
00001000
00000000
00000000
00100000
00000000
00100000
,
00000000
00000000
00001000
00000000
00010000
00000000
00000000
00000100
,
00000000
00000000
00001000
00000000
00001000
00000000
00000000
00000010
,
00000000
00000000
00000100
00000000
00000000
00000001
00000000
00000001
,
00000000
00000000
00000010
00000000
00000100
00000000
00000000
00001000
,
00000000
00001000
00000000
00000100
00000000
00000000
00000000
00010000
,
00000000
00000000
00000000
00001000
00000000
00000000
00000000
00000000
,
00100000
00000000
00010000
00000000
00000000
01000000
00000000
00100000
,
00000000
00000000
10000000
00000000
01000000
00000000
00000000
00100000
,
00000000
00000000
00001000
00000000
00010000
00000000
00000000
00000100
,
00000000
00000000
00001000
00000000
00000000
00000010
00000000
00000100
,
00000000
00000000
00000001
00000000
00001000
00000000
00000000
00000100
,
00000000
00000220
00000000
00000000
,
00000000
00000000
00000330
00000000
,
00001000
00000000
00000100
00000000
00000000
00010000
00000000
00001000
,
00000000
00000000
00100000
00000000
00010000
00000000
00000000
01000000
,
00000000
00000000
00100000
00000000
10000000
00000000
00000000
00010000
,
00000000
00000000
00100000
00000000
00000000
00001000
00000000
00010000
,
00000000
00000000
00000100
00000000
00001000
00000000
00000000
00000010
,
00000000
00000100
00000001
00001000
,
00000000
00000001
00000100
00000010
,
00001000
00000000
00000000
00000100
00000000
00010000
00000000
00001000
,
00000000
00100000
00000000
00000000
00000000
00000000
20020000
00000000
,
00000000
00000000
00000000
30030000
,
00000000
00000000
02200000
00000000
,
00000000
03300000
00000000
10000000
,
01000000
00000000
00010000
00010000
00001000
00000000
00100000
00000000
,
00010000
00010000
01000000
00000000
00001000
00000000
00010000
00010000
,
00000010
00000000
00000000
00001000
00000000
00001000
00000100
00000000
00000100
00000010
00000000
00000000
,
00000001
00000000
00000200
00000320
00001030
00000000
00000100
00000000
,
00020000
00032000
00103000
00000000
00010000
00000000
02000000
03200000
,
10300000
00000000
00010000
00000000
00200000
00302000
00013000
00000000
,
00000100
00002000
00003010
00000100
,
00000001
00000010
00000100
00001001
,
00001000
00000100
00010000
00001000
,
00100000
00010000
01000000
00000000
,
00100000
10000000
00010000
10000000
,
01000000
00100000
00001000
00010000
,
00000100
00000010
00000001
00001000
,
00000010
00000000
00000100
00000001
,
00001000
00000001
00000100
00000010
,
00001000
00000000
00000000
00000100
00000000
00000100
00000000
00000000
,
00010000
00001000
00100000
00010000
,
00000000
01000000
00000000
01000000
00000000
00000000
00100000
00000000
,
10000000
00010000
00100000
00001000
,
00010000
00010000
00000100
00000000
,
00000220
00000000
00000000
00000000
00000330
00000000
00000000
00002002
,
00000000
00000000
00000000
00003003
00000000
00000000
00001000
00000000
,
00000100
00010000
00001000
00100000
,
00010000
02000000
00100000
00100000
,
03000000
00000000
10010000
00000000
00010000
00000000
00000000
01000000
,
00000000
01000000
00000000
00000000
00001000
00000000
00010000
00000000
,
00000100
00000000
00001000
00000000
00000100
00000000
00000000
00000010
,
00000000
00000001
00000100
00000010
,
00000000
00001000
00000000
00001000
00000000
00000000
00000100
00000000
,
00020000
00001000
00000000
00031000
,
00100000
00010000
02000000
00000000
,
00000000
00000000
00000000
00000000
,
03000000
00000000
00000000
00000000
;

//--------------- dance-double - forcednature ----------------
#NOTEDATA:;
#STEPSTYPE:dance-double;
#DESCRIPTION:forcednature;
#DIFFICULTY:Medium;
#METER:14;
#RADARVALUES:0,0,0,0,0;
#CREDIT:forcednature;
#NOTES:
00000000
00000000
00000000
00000000
,
00000000
00000000
00000000
00000000
,
00000000
00000000
00000000
00000000
,
00000000
00000000
00000000
00000000
,
00000000
00000000
00000000
00000000
,
00000000
00000000
00000000
00000000
,
00000000
00000000
00000000
00000000
,
00000000
00000000
00001000
00010000
,
00100000
00010000
00001000
01000000
,
00010000
10000000
00010000
00000000
00100000
00000000
00001000
00000000
,
00010000
00000100
00001000
00000010
,
00000100
00000010
00001000
00000001
,
00000010
00000100
00000010
00000000
00000100
00000000
00010000
00000000
,
00001000
00100000
00010000
01000000
,
01100000
00000000
10000000
10100000
,
00000000
00000000
00010000
00000000
00110000
00000000
00000000
00101000
,
00000000
00000000
00001000
00000000
00010000
00001000
00000000
00010000
,
00000200
00000000
00001300
00000000
00000010
00000100
00000000
00000100
,
00000000
00000002
00000000
00000000
00000013
00000000
00001000
00000000
,
00010000
00100000
00010000
00001000
,
01000000
00000000
00010000
00000000
00100000
01000000
00000000
01000000
,
00000000
20000000
00000000
00000000
30100000
00000000
01000000
00000000
,
00010000
00100000
00001000
00010000
,
00000010
00002000
00000100
00003200
,
00000010
00000000
00000310
00000000
00000001
00000010
00000001
00000000
,
00000100
00000001
00000000
00000001
00000000
00001000
00000010
00000000
,
00000100
00001000
00022000
00000000
,
00000000
00000000
00000000
00033000
00000000
00000000
00000000
00000000
,
00000000
00000000
00100000
00000000
00010000
01000000
00000000
01000000
,
00000000
00200000
00000000
00000000
00300000
00000000
10000000
00000000
,
01000000
10000000
00010000
00100000
,
00001000
00000000
00010000
00000000
00000100
00000000
00001000
00000010
,
00000000
00000010
00000000
00000200
00000000
00000000
00000300
00000000
,
00000001
00000000
00001000
00000001
00001000
00000000
00000001
00001000
,
00000001
00000100
00001000
00011000
,
00100000
00010000
00000000
00010000
00000000
02000000
00000000
00000000
,
03000000
00100000
10000000
01000000
,
10000000
00010000
00100000
00001000
,
00010000
00000000
00000100
00001000
00000000
00001000
00000000
00000020
,
00000000
00000000
00000030
00000000
00000100
00000000
00000010
00000100
,
00000010
00000000
00000100
00000010
00000100
00000000
00000001
00000000
,
00000010
00001000
00000000
00020000
,
00000000
00000100
00000100
00000100
,
00000000
00001000
00001000
00031000
,
00000000
00000010
00001000
00001001
,
00000000
00000001
00000010
00000100
,
00010000
00001000
00100000
00010000
,
01000000
00100000
00000000
01000000
00100000
00000000
10000000
01000000
,
10000000
00010000
00100000
00010000
,
01000000
00002000
00000000
00100000
,
00100000
00100000
00000000
00013000
,
00001000
00010000
00001000
00000000
00100000
00000000
00110000
00000000
,
00010000
00000000
10000000
00000000
01000000
10000000
01000000
00000000
,
00010000
00000000
00001000
00000000
00011000
00000000
00000100
00001000
,
00000000
00001000
00000000
00000010
00000000
00000000
00000100
00000001
,
00000100
00000001
00001000
00000000
00000020
00000000
00000000
00000000
,
00000130
00000000
00001000
00010000
00000000
00010000
00000000
00200000
,
00000000
00000000
01300000
00000000
00100000
01000000
00100000
00000000
,
10000000
00010000
00100000
00001000
,
00010000
00000000
00000100
00000000
00001000
00000010
00000000
00000010
,
00000000
00000200
00000000
00000000
00000301
00000000
00000010
00000000
,
00000100
00000010
00000100
00000000
00010000
00000000
00001000
00000000
,
00100000
00010000
00100000
00000000
01000000
00000000
10000000
00100000
,
00000000
00100000
00000000
02000000
00000000
00000000
03010000
00000000
,
00100000
00000000
00001000
00010000
00001000
00000000
00010000
00000000
,
00000100
00001000
00000010
00000100
,
00001000
00000100
00000000
00000001
00000000
00000002
00000000
00000000
,
00000013
00000000
00000100
00000010
00000100
00000000
00010000
00000000
,
00001000
00010000
00001000
00000000
00100000
00000000
00010000
00000000
,
01000000
00000000
01100000
00000000
00000000
10000000
00000000
11000000
,
00000000
00000000
00010000
00000000
00110000
00000000
00000000
00001000
,
00000000
00000000
00010000
00000000
00011000
00000000
00000000
00000100
,
00000000
00000000
00001100
00000000
00000000
00000001
00000000
00000011
,
00000000
00000000
00001000
00000000
00001100
00000000
00000000
00010000
,
00001000
00000000
00100000
00000000
00010000
00000000
01000000
00010000
,
01000000
00000000
00100000
00000000
10000000
00100000
10000000
00000000
,
01000000
00000000
01000000
00010000
00000000
00001000
00000000
00001000
,
00010000
00000000
00001000
00000000
00001000
00000010
00000000
00000100
,
00000000
00000000
00001000
00000000
00000001
00000000
00000000
00000100
,
00000000
00000000
00000110
00000000
00000000
00001000
00000000
00001000
,
00000100
00000000
00010000
00000000
00010000
00001000
00000000
00100000
,
00000000
20020000
00000000
00000000
,
00000000
00000000
30030000
00000000
,
10000000
00000000
01000000
00100000
00000000
00010000
00000000
01000000
,
00100000
00000000
10000000
00000000
01000000
00010000
00000000
00001000
,
00000000
00000000
00000010
00000000
00000100
00000000
00000000
00001000
,
00000001
00000000
00000100
00000001
00000000
00001000
00000000
00000100
,
00001000
00000000
00000010
00000000
00010000
00001000
00000000
00011000
,
00000000
00000000
00100000
00010000
00100000
00000000
01000000
00000000
,
00100000
00000000
01000000
10000000
01000000
00000000
10000000
00000000
,
10010000
00000000
00010000
00100000
,
00001000
00010000
00001000
00000000
00000010
00000000
00000100
00000000
,
00010000
00000000
00000000
00001000
00000000
00100000
00000000
00000000
,
00000100
00010000
00022000
00000000
,
00000000
00000000
00000000
00033000
00000000
00000000
00010000
00001000
00100000
00010000
00000000
01000000
,
00100000
00000000
10000000
02000000
00000000
00000000
03100000
00000000
00001000
00010000
00000000
00000100
,
00000020
00000000
00000000
00000031
00000000
00000100
00000010
00000000
00001000
00000200
00000000
00000000
,
00010300
00001000
00100000
00010000
01000000
00100000
10000000
01000000
00100000
00010000
00100000
00001000
,
00010000
00000000
00000000
00000000
00010000
00000000
00000100
00000000
00000010
00000000
00000100
00000000
00002000
00003000
00000000
00000000
00000000
00000000
00000002
00000003
00000000
00000000
00000000
00000000
,
00000100
00000000
00000010
00000000
00001000
00000000
00000200
00000300
00000000
00000000
00010000
00000000
00002000
00003000
00000000
00000000
00100000
00000000
00010000
00000000
01000000
00000000
00100000
00000000
,
20000000
30000000
00000000
00000000
01000000
00000000
00020000
00030000
00000000
00000000
00001000
00000000
00000010
00000000
00000100
00000000
00010000
00000000
00002000
00003000
00000020
00000030
00000002
00000003
,
00000200
00000300
00002000
00003000
00020000
00030000
00200000
00000000
00000000
00000000
00000000
00000000
01300000
00000000
00000000
00000000
01000000
00000000
00010000
00000000
00000000
00000000
00010000
00000000
,
10000000
00000000
10000000
00100000
00000000
00000000
01100000
00000000
00000000
00010000
00000000
00000000
,
00100000
01000000
10000000
00000000
01000000
00000000
00010000
00000000
,
00001000
00000010
00000100
00001000
,
00000100
00000010
00000100
00000000
00010000
00000000
00001000
00000000
,
00000010
00000000
00000001
00000100
00000001
00000100
00000010
00000000
,
00001000
00000100
00010000
00001000
,
00100000
00010000
00100000
01000000
00100000
00000000
00001000
00000000
,
00010000
01000000
10000000
10100000
,
00100000
01000000
00000000
01000000
00000000
00010000
00100000
00000000
,
00001000
00000000
00010000
00000000
00011000
00000000
00000100
00001000
,
00000000
00001000
00000000
00000010
00000100
00000000
00000001
00000000
,
00000010
00000000
00000100
00001000
00000100
00000000
00010000
00000000
,
00001000
00100000
00010000
00000000
01000000
00100000
01000000
00000000
,
20100000
00000000
00000000
00000000
31000000
00000000
00000000
01200000
,
00000000
00000000
00000000
00301000
00000000
00000000
00011000
00000000
,
00010000
00001000
00000000
00001000
00000000
00010000
00000100
00010000
,
00000100
00000000
00001000
00000020
00000000
00000000
00000000
00000000
,
00000030
00000000
00000100
00000000
00000001
00001000
00000000
00001000
,
00000000
00000100
00010000
00000000
00001000
00000000
00100000
00000000
,
00010000
00000000
01000000
00100000
01000000
00100000
01000000
00000000
,
00100000
00000000
10000000
00000000
10010000
00000000
00010000
00100000
,
00000000
00100000
00000000
00001000
00010000
00000000
00000100
00000000
,
00001000
00000000
00000010
00000100
00000000
00000001
00000010
00000001
,
00000010
00001000
00022000
00000000
,
00000000
00000000
00000000
00000000
,
00033000
00000000
00000000
00000000
;

//--------------- dance-double - forcednature assist by extraordiberry ----------------
#NOTEDATA:;
#STEPSTYPE:dance-double;
#DESCRIPTION:forcednature assist by extraordiberry;
#DIFFICULTY:Hard;
#METER:16;
#RADARVALUES:0,0,0,0,0;
#CREDIT:forcednature assist by extraordiberry;
#NOTES:
00000000
00000000
00000000
00000000
,
00000000
00000000
00000000
00000000
,
00000000
00000000
00000000
00000000
,
00000000
00000000
00000000
00000000
,
00000000
00000000
00000000
00000000
,
00000000
00000000
00000000
00000000
,
00000000
00000000
00000000
00000000
,
00000000
00000000
00001000
00010000
,
00100000
00000000
10000000
00000000
01000000
10000000
01000000
00000000
,
00010000
00000000
00001000
00010000
00001000
00000000
00000010
00000000
,
00000001
00000000
00000100
00000001
00000100
00000000
00001000
00000000
,
00010000
00001000
00010000
00000000
00100000
00000000
10000000
00000000
,
01000000
00020000
00001000
00030100
,
00010000
00000000
00000010
00001000
00000010
00000000
00000100
00000000
,
00000210
00000000
00000300
00000001
00000010
00000000
00000210
00000000
,
00000300
00001000
00000010
00000000
00001010
00000000
00000000
00011000
,
00000000
00000000
01000000
00000000
01000000
00010000
00000000
00010000
,
00200000
00000000
01300000
00000000
10000000
00100000
00000000
01000000
,
00000000
20000000
00000000
31000000
00010000
01000000
00010000
00000000
,
00100000
00000000
00001000
00010000
00000100
00001000
00000100
00000010
,
00000100
00000000
00000010
00000000
00000001
00000100
00000000
00000010
,
00000000
00000002
00000000
00000013
00001000
00000010
00001000
00000000
,
00000001
00000000
00000010
00000100
00001000
00000100
00010000
00001000
,
00020000
00000000
00130000
01000000
00010000
00000000
00010000
10000000
,
00100000
00000000
01000000
00010000
00100000
00001000
00010000
00000000
,
00000100
00010000
00000000
00001100
00000000
00000010
00000100
00000000
,
00000110
00000101
00000022
00000000
,
00000000
00000000
00000000
00000033
00000000
00000000
00000000
00000000
,
00000000
00000000
00011000
00000000
00001000
00100000
00000000
00110000
,
00000000
02010000
00000000
00000000
03100000
10000000
00010000
01000000
,
00100000
10000000
01000000
00010000
,
00001000
00010000
00001000
00000000
00011000
00000000
00010000
00000010
,
00000000
00001010
00000000
00001200
00000000
00000000
00000310
00000001
,
00001000
00000100
00000010
00000000
00000001
00000000
00000100
00000000
,
00001000
00000000
00010000
00001000
00010000
00000000
00011000
00000000
,
00001000
01000000
00000000
01010000
00000000
00210000
00000000
00000000
,
01300000
10000000
00010000
00100000
01000000
00000000
10000000
00000000
,
00100000
00000000
00010000
00000000
00001000
00010000
00001000
00000000
,
00011000
00000000
00010000
00000100
00000000
00001100
00000000
00001020
,
00000000
00000000
00000130
00000001
00001000
00000010
00000100
00000000
,
00000001
00000000
00000010
00000000
00001000
00000000
00010000
00001000
,
00010000
00001000
00100000
00000000
00010000
00000000
01000000
00000000
,
00100000
10000000
01000000
00000000
00010000
00000000
00001000
00000000
,
00000100
00000000
00001000
00000000
00010000
00001000
00010000
00000000
,
00100000
01000000
00010000
01000000
00100000
10000000
00020000
00000000
,
00100000
00000000
00130000
00000000
00001000
00010000
00000200
00000000
,
00000000
00000320
00000000
00000000
00000031
00001000
00000010
00000000
,
00000100
00000001
00000000
00000011
00000000
00000110
00000000
00000100
,
00010000
00001000
00200000
00000000
00010000
00000000
00010000
00000000
,
01300000
20000000
00010000
00010000
,
30100000
00000000
10000000
00000000
10000000
01000000
00000000
00010000
,
00000000
00001000
00010000
00000000
00000010
00001000
00000200
00000000
,
00001000
00000000
00001300
00000001
00000010
00000001
00000010
00000000
,
00000100
00001000
00000001
00000000
00000101
00000000
00001000
00000010
,
00010000
00001000
00000000
00011000
00000000
00100000
00010000
00100000
,
00010000
01000000
00100000
10000000
00020000
00000000
00000000
00000000
,
00130000
00000000
00001000
00010000
00000000
00011000
00000000
00010200
,
00000000
00000000
00001300
00000010
00000100
00000010
00001000
00000000
,
00000001
00000100
00000010
00000000
00001000
00000000
00001000
00000100
,
00010000
00000000
00000010
00000000
00010000
00001000
00000000
00011000
,
00000000
02001000
00000000
00000000
03010000
00100000
01000000
00100000
,
00010000
10000000
01000000
10000000
00010000
00000000
00100000
00000000
,
00001000
00100000
00001000
00010000
00000100
00000000
00010000
00001000
,
00000000
00011000
00000000
00201000
00000000
00000000
00310000
01000000
,
00100000
01000000
00010000
00000000
00100000
00001000
00010000
00000000
,
00011000
00000000
00000100
00001000
00000010
00000000
00000110
00000000
,
00000100
00000001
00000000
00000011
00000000
00000210
00000000
00000000
,
00010300
00001000
00100000
00000000
00010000
01000000
10000000
00000000
,
01000000
00010000
01000000
00000000
00100000
10000000
00010000
10000000
,
01000000
00000000
01100000
00000000
00000000
00010000
00000000
00011000
,
00000000
00000000
00000010
00000000
00000110
00000000
00000000
00001001
,
00000000
00000000
00001100
00000000
00000011
00000000
00000000
00000110
,
00000000
00000000
00002200
00000000
00003300
00000001
00000000
00001001
,
00000000
00000000
00000010
00000000
00000110
00000000
00000000
00001000
,
00000100
00010000
00001000
00000000
00100000
00000000
00010000
01000000
,
00010000
00000000
00100000
01000000
10000000
01000000
00100000
00000000
,
11000000
00000000
10000000
00100000
00000000
01100000
00000000
01000000
,
00010000
00000000
00110000
00000000
00100000
00001000
00000000
00011000
,
00000000
00000000
00010100
00000000
00001010
00000000
00000010
00000100
,
00000000
00000000
00000202
00000000
00000303
00000011
00000000
00000010
,
00000100
00000000
00001100
00000000
00001000
00000010
00000000
00022000
,
00000000
00000000
00000000
00033000
00000000
00000000
00100000
00000000
00010000
00000000
00100000
00000000
00010000
00000000
00100000
00000000
00010000
00000000
00100000
00000000
01000000
00000000
00100000
00000000
,
01000000
00100000
01000000
10000000
00000000
00000000
00200000
00000000
00000000
00300000
00000000
00000000
,
10000000
01000000
10000000
01000000
00000000
00100000
00010000
00100000
,
00010000
00000000
00001000
00000100
00001000
00000100
00000000
00000010
,
00000001
00000010
00000001
00000000
00000100
00000010
00000000
00001000
,
00000100
00000000
00000010
00000001
00000000
00000100
00001000
00000100
,
00001000
00000000
00010000
00100000
00010000
00100000
00000000
02200000
,
00000000
03300000
01000000
00010000
10000000
00000000
00010000
00100000
,
01000000
00000000
00100000
00001000
00010000
00000000
00000100
00000000
,
00001100
00000000
00001000
00000010
00000100
00000010
00000100
00000001
,
00000010
00000000
00001000
00010000
00001000
00100000
00020000
00000000
,
01000000
00000000
00000000
10000000
00000000
01000000
00000000
00000000
,
10030000
01100000
20020000
00000000
,
00000000
00000000
00000000
30030000
00000000
00000000
10000000
01000000
00010000
00001000
00000000
00100000
,
00010000
00000000
00000000
00000000
00001000
00000000
00000010
00000100
00000010
00000100
00000010
00000100
00000001
00000000
00000000
00000000
00000010
00000000
00001000
00000000
00000000
00000000
00010000
00000000
,
01000000
10000000
01000000
10000000
00100000
01000000
00100000
00000000
00000000
00000000
01000000
00000000
00010000
00000000
00000000
00000000
00100000
00000000
00001000
00010000
00001000
00010000
00000100
00010000
,
00000100
00000000
00001000
00000000
00000010
00000000
00000100
00000000
00000001
00000000
00000010
00000000
00000100
00000000
00010000
00000000
00001000
00000000
00100000
00010000
00100000
00000000
01000000
00100000
,
01000000
00000000
10000000
01000000
10000000
00000000
00020000
02030000
03002000
00023000
00032000
00203000
00320000
00030000
00000000
00000000
00000000
00000000
00022000
00033000
00000000
00000000
00000000
00000000
,
00000200
00002300
00003020
00000230
00000302
00000023
00000230
00000300
00000000
00000000
00010000
00000000
00022000
00033000
00000000
00000000
00100000
00000000
00020000
20030000
30200000
02300000
03020000
00230000
,
02300000
03000000
00000000
00000000
00100000
00000000
00022000
00033000
00000000
00000000
00000100
00000000
00002000
00003020
00000230
00000302
00002003
00003200
00000320
00000030
00002000
00003000
00020000
00030000
,
02000000
03000000
20000000
30000000
00200000
00300000
00020000
00030000
00002000
00003000
00000200
00000300
00000002
00000000
00000003
00000000
00000000
00000000
00000020
00000000
00000030
00000000
00000000
00000000
,
00002000
00000000
00003000
00000000
00000000
00000000
00020000
00000000
00030000
00000000
00000000
00000000
00011000
00000000
00000000
00000000
00000000
00000000
00100000
00000000
00000000
00010000
00000000
00000000
,
00100000
00010000
10000000
01000000
10000000
01000000
00100000
00010000
,
00100000
00001000
00010000
00001000
00020000
00000000
00030010
00001000
,
00000010
00000100
00000001
00000100
00000010
00001000
00000001
00000000
,
00000010
00000000
00000100
00001000
00000100
00010000
00002000
00000000
,
00103000
00010000
00100000
01000000
10000000
01000000
10000000
00100000
,
01000000
00010000
00100000
00000000
00001000
00010000
00000100
00001000
,
00000000
00001000
00000010
00000100
00000020
00000000
00000130
00000001
,
00000010
00000100
00000000
00001100
00000000
00010000
00001000
00100000
,
00010000
00100000
00001000
00000000
00010000
00100000
01000000
00100000
,
00000000
10100000
00000000
10000000
00010000
01000000
00010000
10000000
,
00100000
00000000
10000000
01000000
10000000
01000000
00010000
00001000
,
00010000
00000000
00000000
00001000
00000000
00000000
00000010
00000000
00000000
00000100
00000000
00000000
00001000
00000000
00000000
00000001
00000000
00000000
00000010
00000000
00000100
00000000
00000010
00000000
,
00000200
00000000
00001000
00000000
00001300
00000000
00010000
00002000
,
00000000
00100000
00000000
00100000
00003000
00010000
01000000
00000000
,
00100000
01000000
00100000
10000000
00000000
01000000
00100000
00010000
,
00100000
01000000
00010000
00001000
00000010
00000001
00000100
00001000
,
00000000
00000000
00011000
00000000
00010000
00100000
00010000
00100000
,
00000000
01000000
00100000
00000000
10000000
00000000
01000000
00000000
,
00010000
00000000
00011000
00000000
00001000
00000010
00001000
00000010
,
00000000
00000001
00000010
00000100
00001000
00000000
00000010
00010000
,
00001000
00010000
00000000
00001000
00100000
00010000
00100000
00000000
,
01100000
00000000
01000000
10000000
00100000
00000000
10000000
01000000
,
00010000
00001000
00000100
00000001
00000020
00000000
00000000
00000000
,
00000000
00000000
00000000
00000000
,
00000030
00000000
00000000
00000000
;
