#VERSION:0.83;
#TITLE:アキネイション;
#SUBTITLE:;
#ARTIST:ビートまりお(COOL&CREATE);
#TITLETRANSLIT:Aki nation;
#SUBTITLETRANSLIT:;
#ARTISTTRANSLIT:beatMARIO(COOL&CREATE);
#GENRE:;
#CREDIT:;
#MUSIC:Aki nation.ogg;
#BANNER:Aki nation.png;
#BACKGROUND:Aki nation-bg.png;
#CDTITLE:./CDTitles/BST AnimTribe.png
#SAMPLESTART:62.978;
#SAMPLELENGTH:15.000;
#SELECTABLE:YES;
#OFFSET:0.575;
#BPMS:0.000=185.000;
#STOPS:;
#TIMESIGNATURES:0.000=4=4;
#BGCHANGES:0.000=Aki nation.mp4=1.000=0=0=0=StretchNoLoop====,
99999.000=-nosongbg-=1.000=0=0=0=StretchNoLoop====
;
#FGCHANGES:;

//--------------- dance-single - forcednature ----------------
#NOTEDATA:;
#STEPSTYPE:dance-single;
#DESCRIPTION:forcednature;
#CREDIT:forcednature;
#DIFFICULTY:Beginner;
#METER:4;
#RADARVALUES:0,0,0,0,0;
#NOTES:
0000
0000
0000
0000
,
0000
0000
0000
0000
,
0000
0000
0000
0000
,
0000
0000
0000
0000
,
0000
0000
0000
0000
,
0001
0000
0000
0000
,
0000
0000
0000
0000
,
1000
0000
1000
0000
,
1000
0000
0000
0000
,
0010
0000
0000
0000
,
0100
0000
0000
0000
,
0001
0000
0000
0000
,
0100
0000
0100
0000
,
0010
0000
0000
0000
,
1000
0000
0000
0000
,
0001
0000
0001
0000
,
0010
0000
0000
0000
,
0110
0000
0000
0000
,
1000
0000
0000
0000
,
0001
0000
0001
0000
,
0100
0000
0000
0000
,
0010
0000
0000
0000
,
1000
0000
0000
0000
,
0100
0000
0100
0000
,
1000
0000
0000
0000
,
1001
0000
0000
0000
,
0001
0000
0000
0000
,
0010
0000
0010
0000
,
0001
0000
0000
0000
,
0110
0000
0000
0000
,
1000
0000
1000
0000
,
0100
0000
1000
0000
,
0001
0000
0000
0000
,
1000
0000
1000
0000
,
1000
1000
1000
0000
,
0100
0000
0000
0000
,
0010
0000
0000
0000
,
0001
0000
0001
0000
,
0001
0001
0001
0000
,
0100
0000
0000
0000
,
0010
0000
0000
0000
,
1000
0000
0100
0000
,
1000
0000
1000
0000
,
0010
0000
0100
0000
,
0001
0000
0000
0000
,
1001
0000
0000
0000
,
0110
0000
0000
0000
,
0001
0000
1000
0000
,
2002
0000
3003
0000
,
0001
0000
0000
0010
,
0001
0000
0000
0100
,
0001
0000
1000
0000
,
0001
0000
0000
0000
,
1001
0000
0000
0000
,
1000
0000
0100
0000
,
1000
0000
0001
0000
,
0010
0000
0000
0000
,
1000
0000
0000
0100
,
1000
0000
0000
0001
,
1000
0000
0010
0000
,
0100
0000
0001
0000
,
1001
0000
0000
0000
,
0001
0000
0010
0000
,
0100
0000
1000
0000
,
0010
0010
0010
0000
,
1000
0000
0000
0000
,
0001
0000
0100
0000
,
0010
0000
1000
0000
,
0001
0000
0000
0000
,
0010
0000
0000
0000
,
0100
0000
0010
0000
,
0001
0000
1000
0000
,
0100
0100
0100
0000
,
1000
0000
0000
0000
,
0001
0000
0100
0000
,
0010
0000
1000
0000
,
0001
0001
0001
0000
,
1000
0000
0000
0000
,
0100
0000
0010
0000
,
0001
0000
1000
0000
,
0010
0000
0100
0000
,
0220
0000
0330
0000
,
0001
1000
0002
0000
,
0000
0000
0000
0000
,
0003
0000
0000
0000
;

//--------------- dance-single - forcednature ----------------
#NOTEDATA:;
#STEPSTYPE:dance-single;
#DESCRIPTION:forcednature;
#CREDIT:forcednature;
#DIFFICULTY:Easy;
#METER:7;
#RADARVALUES:0,0,0,0,0;
#NOTES:
0000
0000
0000
0000
,
0000
0000
0000
0000
,
0000
0000
0000
0000
,
0000
0000
0000
0000
,
0000
0000
0000
0000
,
1000
0000
0000
0000
,
0001
0000
0001
0000
,
0100
0000
0010
0000
,
1000
0001
1000
0000
,
1001
0000
0001
0010
,
0100
0010
0001
0000
,
0100
0000
0010
1000
,
0001
1000
0010
0000
,
1001
0000
1000
0100
,
0010
0100
1000
0000
,
0001
0001
0010
0000
,
0001
0100
0010
0000
,
1001
0000
1000
0000
,
0010
0000
1000
0000
,
0001
0000
1000
0000
,
0100
0100
1000
0000
,
0001
0000
0010
0000
,
0001
0000
1000
0000
,
0001
0000
0100
0000
,
0010
0010
1000
0000
,
1001
0000
0001
0000
,
0010
0000
0001
0000
,
0100
0000
0001
0000
,
1000
1000
0100
0000
,
1001
0000
0001
0000
,
0010
0000
0001
0000
,
0100
0010
0100
0000
,
0010
1000
0010
0000
,
1000
0000
0001
0000
,
1000
0001
1001
0000
,
0001
0000
0010
0000
,
0100
0000
1000
0000
,
0001
0000
1000
0000
,
0001
1000
1001
0000
,
1000
0000
0010
0000
,
0100
0000
0001
0000
,
0010
0000
0001
0000
,
0100
0001
0100
0000
,
0010
0000
1000
0000
,
0100
1000
0100
0000
,
0110
0000
0001
0000
,
1001
0000
0100
0000
,
0110
0000
1000
0000
,
2002
0000
0000
3003
,
1000
0100
1000
0000
,
0001
0100
0001
0000
,
0010
0100
1000
0100
,
0010
0001
1000
0000
,
1001
0000
0001
0100
,
0001
1000
0100
0000
,
0010
0001
1000
0000
,
0010
0010
0100
0000
,
0001
1000
0100
0000
,
1000
0001
0100
0000
,
0010
1000
0100
1000
,
0001
0010
0100
0000
,
0110
0000
1000
0001
,
0100
0010
1000
0000
,
0001
0001
0010
0001
,
0100
0010
0110
0000
,
0001
1000
0100
1000
,
0010
1000
0001
0000
,
1000
0001
0100
0001
,
0010
0100
0010
0000
,
0001
1000
0010
1000
,
0100
1000
0001
0000
,
0010
0100
1000
0100
,
0010
0010
0010
0000
,
0001
1000
0010
1000
,
0100
1000
0001
0000
,
0010
0100
1000
0100
,
0010
0010
0010
0000
,
0001
0100
0001
0010
,
0001
1000
0001
0000
,
0110
0000
1001
0000
,
1000
0100
0010
0001
,
0200
0000
0000
0000
,
0301
1000
2002
0000
,
0000
0000
0000
0000
,
3003
0000
0000
0000
;

//--------------- dance-single - forcednature ----------------
#NOTEDATA:;
#STEPSTYPE:dance-single;
#DESCRIPTION:forcednature;
#CREDIT:forcednature;
#DIFFICULTY:Medium;
#METER:11;
#RADARVALUES:0,0,0,0,0;
#NOTES:
0000
0000
0000
0000
,
0000
0000
0000
0000
,
0000
0000
0000
0000
,
0000
0000
0000
0000
,
0000
0000
0000
0000
,
0001
0100
0001
0010
,
0100
0000
0000
0000
1000
0000
0000
0000
0010
0000
0000
0100
0000
0000
0001
0000
,
1000
0000
1000
0100
0010
0000
0010
0001
,
1000
0000
1001
0000
0001
0100
0010
0000
,
1000
0000
0100
0000
1000
0010
1000
0000
,
0001
0010
0001
0000
0100
0000
0010
0000
,
1000
0000
0001
0000
0010
0001
0010
0000
,
0100
0000
0000
0100
0000
0000
1000
0000
0001
0000
0000
0000
0100
0000
0000
0000
,
0010
1000
0010
0000
1000
0100
1000
0000
,
0001
0100
0001
0000
0010
0000
0110
0000
,
1000
0001
1000
0000
0001
0100
0001
0000
,
0010
0110
0001
1001
,
2000
0000
0000
0000
3100
0000
0010
0001
,
0000
0100
0001
0000
2000
0000
3000
0010
,
0100
0000
0001
0000
0010
0001
0010
0000
,
0100
0000
1000
0000
0002
0000
0000
0003
,
0200
0000
0000
0310
1000
0000
0001
0010
,
0000
0001
1000
0000
0200
0000
0320
0000
,
0031
0000
1000
0010
1000
0000
0001
0000
,
0200
0000
0310
0110
,
0002
0000
0000
0000
0103
0000
0010
1000
,
0000
0100
1000
0000
0002
0000
0003
0010
,
0100
0000
1000
0000
0010
1000
0010
0000
,
0100
0000
0001
0000
2000
0000
0000
3000
,
0200
0000
0000
0310
0001
0000
1000
0000
,
0010
1000
0010
0000
0100
0001
0100
0000
,
0110
1000
1001
0001
,
0011
0110
2200
3300
,
1001
0000
0110
0000
,
1001
0110
1001
0000
,
0001
0010
1000
0010
,
0001
1000
0001
0000
0100
0000
0000
0000
,
1001
0000
0110
0000
,
1001
0110
1001
0000
,
1000
0010
0001
0010
,
1000
0001
1000
0000
0100
0000
0000
0000
,
0110
1000
0010
0100
,
0001
0100
0000
0100
0001
0000
0010
0000
,
0110
0001
1000
0100
,
1000
0010
0000
0010
0100
0000
0001
0000
,
1001
0000
1000
0000
0100
0010
0100
0000
,
1001
0000
0001
0000
0100
0010
0100
0000
,
0002
0023
0230
2300
,
3020
0000
0000
0000
0030
1000
0001
0000
,
1000
0100
0020
0000
0130
1000
0001
0000
,
0010
0001
2000
0000
3001
0100
0010
0000
,
1000
0100
0020
0000
0031
0100
0020
0000
,
1030
0000
0000
1000
0000
0000
0001
0000
0020
0000
0000
0000
0030
0000
0000
0000
,
0200
0000
0000
0000
0000
0000
1300
0000
0001
0000
0000
0001
0000
0000
0100
0000
,
0010
0000
0000
1000
0000
0000
0001
0000
0200
0000
0000
0000
0300
0000
0010
0000
,
1000
1100
0001
0101
,
0010
0000
0000
0100
0000
0000
0100
0000
0010
0000
0000
0000
1001
0000
0000
0000
,
0001
0100
0020
0000
0130
0001
1000
0000
,
0010
1000
0002
0000
1003
0100
0010
0000
,
0001
0100
0020
0000
1030
0100
0020
0000
,
0031
0000
0000
0001
0000
0000
1000
0000
0020
0000
0000
0000
0130
0000
0000
0000
,
0210
0000
0000
0301
1000
0010
1000
0000
,
0001
0000
0000
0010
0000
0000
0100
0000
2000
0000
0000
0000
3000
0000
0010
0000
,
0200
0301
1020
0130
,
0001
0000
0000
1000
0000
0000
1000
0000
0001
0000
0000
0000
1001
0000
0000
0000
,
1000
0010
1000
0000
0001
0010
0001
0000
,
0100
0010
0100
0000
0001
0000
1000
0000
,
0100
0010
0100
0000
0010
0001
0010
0000
,
0100
0000
0000
0100
0000
0000
1000
0000
0002
0000
0000
0000
0003
0000
0000
0000
,
0100
0001
0100
0000
0010
0100
0010
0000
,
1000
0000
0010
0000
1000
0000
0000
0000
0001
0000
0000
0010
0000
0000
0001
0000
,
1000
0100
1000
0000
0001
0100
0001
0000
,
0011
0000
1100
0000
0011
0000
1000
0001
,
1000
0010
1000
0000
0001
0010
0001
0000
,
0100
0000
0010
0000
0100
0000
0000
0000
0001
0000
0000
1000
0000
0000
0100
0000
,
1000
0010
1000
0000
0001
0010
0001
0000
,
0100
0000
0000
0100
0000
0000
0010
0000
2000
0000
0000
0000
3000
0000
0000
0000
,
0001
0010
0001
0000
1000
0100
1000
0000
,
0001
0000
0100
0000
0001
0000
0000
0000
0010
0000
0000
0010
0000
0000
0100
0000
,
1000
0001
1000
0000
0001
0100
0001
0000
,
1000
1100
0001
0101
,
0220
0000
0000
0330
,
1000
0000
0000
1001
0000
0000
0001
0000
0200
0000
0000
0000
0000
0000
0000
0000
,
0000
0000
0000
0000
,
0300
0000
0000
0000
;

//--------------- dance-single - forcednature ----------------
#NOTEDATA:;
#STEPSTYPE:dance-single;
#DESCRIPTION:forcednature;
#CREDIT:forcednature;
#DIFFICULTY:Hard;
#METER:14;
#RADARVALUES:0,0,0,0,0;
#NOTES:
0000
0000
0000
0000
,
0000
0000
0000
0000
,
0000
0000
0000
0000
,
0000
0000
0000
0000
,
0000
0000
0000
0000
,
1000
0010
0000
0010
0100
0001
0000
0001
,
0010
0000
0100
0000
0000
0000
0100
0000
1000
0000
0000
0001
0100
0000
0010
0000
,
1000
0100
0100
1000
0001
0100
0100
0001
,
0010
0000
0100
0000
0010
0000
0000
0000
1001
0000
0000
1000
0100
0000
1000
0000
,
0010
0100
0100
0001
0010
0001
0001
1000
,
0100
0000
0010
0000
0010
0000
0001
0000
1000
0000
0000
1000
0001
0000
0000
0000
,
0010
0001
0001
0100
0010
1000
1000
0100
,
0010
0000
0000
0100
1000
0000
0001
0000
0020
0000
0000
0000
0230
0000
0000
0000
,
0310
0001
0001
1000
0010
0100
0100
0001
,
1000
0000
0100
0000
0100
0000
0010
0000
0001
0000
0000
1000
0010
0000
0100
0000
,
0001
0001
0001
0000
1000
1000
1000
0000
,
0010
0000
0100
0010
0100
0000
0001
0000
0020
0000
0000
0000
0030
0000
0000
0000
,
0002
0000
0000
0103
0010
1000
0100
0002
,
0000
0000
0103
0000
1000
0000
0001
0000
0020
0000
0000
0000
0030
0000
0001
1000
,
0001
0000
0000
0100
0000
0000
0010
0000
1000
0000
0001
0000
0100
0000
0010
0000
,
1000
0000
0000
0001
0010
0000
0001
0000
2000
0000
0000
0000
3000
0000
0000
0000
,
2001
0000
0000
0000
0000
0000
3010
0100
0010
0000
0100
0000
0001
0000
0020
0000
,
0000
0031
1000
0100
0002
0000
0203
0000
,
2300
0000
3010
0100
0001
0010
0100
1000
,
0020
0000
0000
0000
0130
0000
0000
0000
1001
0000
0000
1000
0100
0000
0000
0000
,
0012
0000
0000
0103
0010
1000
0001
0200
,
0000
0000
1300
0000
0100
0000
0001
0000
2000
0000
0000
0000
0000
0000
3010
0100
,
0010
0000
0000
1000
0000
0000
0001
0000
0010
0000
0100
0000
1000
0000
0100
0000
,
0010
0000
0000
0001
1000
0000
0010
0000
0200
0000
0000
0000
0301
0000
0000
0000
,
1020
0000
0000
0000
0000
0000
0130
0001
0100
0000
0010
0000
1000
0000
0001
0000
,
0020
0000
0230
0000
1300
0001
0100
0010
,
1000
1000
1000
0000
0001
0001
0001
0000
,
0010
0000
0001
0000
0100
0000
0010
0000
1000
0000
0000
0100
1000
0000
0000
0000
,
0110
0000
1001
0000
,
0101
1100
1001
0000
,
0001
0010
0001
0010
1000
0010
1000
0010
,
0001
0000
1000
0001
1000
0000
0100
0000
0020
0000
0000
0000
0030
0000
0000
0000
,
0110
0000
1001
0000
,
1100
0101
1001
0000
,
1000
0010
1000
0010
0001
0010
0001
0010
,
1000
0000
0001
1000
0001
0000
0010
0000
0200
0000
0000
0000
1300
0000
0000
0000
,
1010
0000
0000
0000
0010
0000
0000
0010
0100
0000
0001
0000
0001
0000
0010
0000
,
0001
1000
0000
0100
2000
0000
3010
0100
,
0001
0000
0000
0000
0011
0000
0000
1000
0010
0000
0100
0000
0001
0000
0010
0000
,
0100
0000
1000
0100
1000
0000
0001
0000
0020
0000
0000
0000
0031
0000
0000
0000
,
0101
0000
0011
0000
1000
0100
0001
0000
,
1100
0000
1010
0000
0001
0100
1000
0000
,
0200
0302
0023
1030
,
0220
0000
0000
0330
0000
0100
1000
0001
,
0010
0000
0001
0000
0100
0001
0100
0001
0100
0000
0010
0000
2000
0000
0000
0000
,
3001
0000
0010
0000
0100
0010
0100
0010
0100
0000
1000
0000
0001
0000
0000
0000
,
0100
0000
0010
0000
1000
0010
1000
0000
0001
0000
0010
0000
0100
0010
0100
0000
,
1000
0000
0000
0001
0100
0000
0010
0000
1000
0000
0000
1000
0100
0000
0010
0000
,
0002
0000
0000
0000
0000
0003
0100
0001
0100
0000
0001
0000
1000
0000
0010
0000
,
0100
0000
0001
0100
0001
0000
1000
0000
0100
0000
0100
0000
0100
0000
0000
0000
,
0011
0000
1010
0000
1001
0000
1000
0001
,
0200
0000
0000
0001
0000
0000
0301
0000
1000
0000
1000
0000
0100
0000
0000
0000
,
1000
0000
0010
0000
0100
0010
0100
0010
0100
0000
0001
0000
2000
0000
0000
0000
,
3100
0000
1000
0000
0001
0010
0001
0010
0001
0000
1000
0000
0020
0000
0000
0000
,
0130
0000
0001
0000
0010
0001
0010
0000
0100
0000
0010
0000
0100
1000
0100
0000
,
1000
0000
0000
1000
0000
0000
0010
0000
0100
0000
0010
0100
0001
0000
1000
0000
,
0200
0000
0000
0000
0300
0000
0010
0001
0010
0000
0001
0000
0100
0000
1000
0000
,
0100
0000
0000
0100
0001
0000
1000
0000
0010
0000
0010
0000
0010
0000
0000
0000
,
1001
0000
0000
1000
0000
0000
0001
0000
0010
0000
0100
0000
1000
0000
0100
0000
,
0010
0000
0000
0110
0000
0000
1000
0000
0001
0000
0000
0000
1001
0000
0000
0000
,
1000
0100
1000
0100
0001
0100
0001
0100
,
1000
0000
0001
0000
0100
0000
0010
0000
1000
0000
0000
0001
0010
0000
0000
0000
,
0001
0100
0100
0010
1000
0100
0100
0010
,
0001
0000
0000
0001
0100
0000
0010
0000
2000
0000
0000
0000
3000
0000
0000
0000
,
0001
0010
0010
0100
1000
0010
0010
0100
,
0001
0000
1000
0000
1000
0000
0100
0000
0010
0000
0000
0001
0100
0000
0000
0000
,
0001
1000
1000
0010
1000
0100
0100
0010
,
0001
0000
1000
0000
0001
0000
0100
0000
0010
0000
0000
0010
1000
0000
0001
0000
,
0010
0000
0100
0010
0100
0000
1000
0000
0001
0000
0100
0001
0100
0000
0010
0000
,
1000
0000
0001
1000
0001
0000
0010
0000
0100
0000
0000
0100
1000
0000
0000
0000
,
0010
0000
1000
0010
1000
0000
0100
0000
1000
0000
0001
1000
0001
0000
0010
0000
,
0100
0000
0000
0100
1000
0000
0001
0000
0200
0000
0000
0000
0300
0000
0000
0000
,
0010
0000
1000
0010
1000
0000
0001
0000
0010
0000
0100
0010
0100
0000
1000
0000
,
0001
0000
0100
0001
0100
0000
0010
0000
1000
0000
0000
1000
0001
0000
0010
0000
,
0100
0100
0100
0000
1000
1000
1000
0000
,
0011
0000
0000
0000
1010
0000
0000
0000
0001
0000
1000
0001
1000
0000
0010
0000
,
0100
1000
0100
0001
0100
1000
0100
0001
,
0010
0000
0000
0100
0000
0000
0010
0000
2002
0000
0000
0000
0000
0000
0000
0000
,
0000
0000
0000
0000
,
3003
0000
0000
0000
;

//--------------- dance-single - forcednature ----------------
#NOTEDATA:;
#STEPSTYPE:dance-single;
#DESCRIPTION:forcednature;
#CREDIT:forcednature;
#DIFFICULTY:Challenge;
#METER:16;
#RADARVALUES:0,0,0,0,0;
#NOTES:
0000
0000
0000
0000
,
0000
0000
0000
0000
,
0000
0000
0000
0000
,
0000
0000
0000
0000
,
0000
0000
0000
0000
,
1000
0100
0010
0100
1000
0001
0010
0001
,
1000
0000
0010
0000
0100
0000
0001
0000
0010
0000
0000
0001
1000
0000
0010
0000
,
0100
0000
0001
0100
0001
0000
0010
0000
0100
0000
1000
0100
1000
0000
0010
0000
,
0100
0000
0010
0000
1001
0000
0000
0000
0110
0000
0000
0001
1000
0000
0100
0000
,
1000
0000
0001
0010
0100
0000
0010
0000
0001
0000
1000
0010
0100
0000
0010
0000
,
1000
0000
0001
1000
0100
0000
0010
0000
0001
0000
0000
1000
0100
0000
1000
0000
,
0010
0000
1000
0001
0010
0000
0100
0000
0010
0000
0001
1000
0010
0000
0100
0000
,
0001
0000
0000
0010
0100
0000
1000
0000
1001
0000
0000
0001
0100
0000
0001
0000
,
1000
0000
0010
0100
0001
0000
0010
0000
0001
0000
0010
0100
1000
0000
0010
0000
,
0100
0000
0001
1000
0100
0000
0010
0000
0001
0000
0000
0100
0010
0000
1000
0000
,
0001
0010
0011
0000
1000
0100
1100
0000
,
0101
0000
0100
0000
0110
0000
0010
0000
1010
0000
0000
1000
0100
0000
0000
0000
,
0020
0000
0000
0000
0031
0000
0100
0001
0100
0000
0010
0000
1000
0000
0002
0000
,
0000
0000
0013
0000
0100
0000
1000
0000
0200
0000
0000
0000
0300
0000
1000
0001
,
0010
0000
0000
0100
0010
0000
0001
0000
0100
0000
1000
0000
0100
0000
0001
0000
,
1000
0000
0001
0100
0010
0000
1000
0000
2010
0000
0000
0000
3100
0000
0100
0000
,
1002
0000
0000
0000
0013
0000
0001
1000
0100
0000
1000
0000
0001
0000
0020
0000
,
0000
0130
0001
0100
2000
0000
3020
0000
,
0130
0001
0100
0010
1000
0100
0001
0100
,
0020
0000
0000
0000
0031
0000
0100
0000
0101
0000
0000
1000
0010
0000
0010
0000
,
0210
0000
0000
0000
0301
0000
0100
0010
1000
0000
0100
0000
1000
0000
0002
0000
,
0000
0000
0013
0000
1000
0000
0010
0000
0002
0000
0000
0000
1003
0000
0100
1000
,
0100
0000
0000
1000
0001
0000
0010
0000
0100
0000
1000
0000
0001
0000
0100
0000
,
0010
0000
1000
0010
0100
0000
0001
0000
2001
0000
0000
0000
3100
0000
0100
0000
,
1002
0000
0000
0000
0013
0000
0100
0010
0001
0000
1000
0000
0010
0000
0100
0000
,
0102
0000
0023
0000
0130
1000
0010
0100
,
0110
0001
0010
0000
0110
1000
0010
0000
,
1000
0000
0100
1000
0100
0000
0010
0100
0010
0000
0001
0010
0001
0000
0100
0000
,
0101
0000
1010
0000
,
0101
0000
1010
0000
1001
0000
1000
0100
,
1000
0000
0001
0010
0100
0000
0010
0001
1000
0000
0010
0000
0100
0000
0001
0000
,
0010
0000
0100
0010
0100
0000
1000
0000
0001
0000
0000
0100
0010
0000
1000
0000
,
1100
0000
0011
0000
,
1100
0000
0011
0000
1001
0000
0001
0100
,
0001
0000
1000
0010
0100
0000
0010
1000
0001
0000
0010
0000
0100
0000
1000
0000
,
0010
0000
0100
0010
0100
0000
0001
0000
1000
0000
0100
1000
0001
0000
0010
0001
,
0010
0000
0000
0100
0010
0000
0000
0100
1000
0000
1000
0000
0010
0000
0100
0000
,
0001
0000
0020
0000
0030
0000
1000
0000
0020
0000
0000
0031
1000
0000
0100
0000
,
1100
0000
0000
0001
0010
0000
0000
0100
0010
0000
0010
0000
0001
0000
1000
0000
,
0010
0000
0100
0010
0100
0000
0001
0000
1000
0000
0000
1000
0100
0000
0010
0000
,
0110
1000
0001
0010
0001
0100
0010
1000
,
0110
0000
0001
0000
1000
0000
0010
0000
0100
0000
0001
0100
0001
0000
0010
0000
,
0110
0000
0000
0100
1000
0000
0000
0010
0100
0000
0000
0001
0010
0000
0000
0000
,
2002
0000
0000
0000
0000
0000
0000
0000
3003
0000
1000
0100
1000
0000
0010
0000
,
0110
0000
0001
0000
0010
0100
1000
0100
0010
0000
0001
0000
0200
0000
0000
0000
,
0310
0000
1000
0000
0001
0010
0100
0010
0001
0000
1000
0000
1010
0000
0000
0000
,
0001
0000
0010
0000
0100
1000
0001
1000
0100
0000
0010
0000
0001
1000
0010
1000
,
0001
0000
0000
0001
0100
0000
0010
0000
1010
0000
0000
0001
0100
0000
0010
0000
,
0120
0000
0000
0000
1030
0000
0100
1000
0100
0000
0010
0100
1000
0000
0001
0000
,
0100
0000
0010
0100
0010
0000
1000
0000
0001
0000
0010
0001
0100
0000
0010
0000
,
0110
0000
0000
1000
0100
0000
0000
0010
0001
0000
0000
1000
0010
0000
0100
0001
,
1000
0000
0000
1100
0000
0000
0001
0000
0010
0000
0100
0010
0100
0000
1000
0001
,
0100
0000
0010
0000
1000
0100
0010
0100
1000
0000
0001
0000
0020
0000
0000
0000
,
0130
0000
1000
0000
0001
0100
0010
0100
0001
0000
1000
0000
1010
0000
0000
0000
,
0001
0000
0010
0000
0100
1000
0001
1000
0100
0000
0010
0000
0001
1000
0010
1000
,
0001
0000
0000
0100
0010
0000
1000
0000
0100
0000
0001
0100
1000
0000
0001
0000
,
0021
0000
0000
0000
0000
0000
0130
1000
0100
1000
0001
0010
0001
0000
0100
0000
,
0110
0000
0000
0010
1000
0000
0001
0000
0010
0000
0000
0100
0010
0000
0001
0000
,
0202
0303
2020
3030
,
1100
0000
0000
1100
0000
0000
0010
0000
2002
0000
0000
0000
3003
0000
0000
0000
,
0001
0000
0010
0100
1000
0000
0001
0000
1000
0000
0010
0100
0001
0000
0010
0000
,
0100
0000
0010
0001
1000
0000
0010
0000
0100
0000
0000
0001
0010
0000
0001
0000
,
0100
0000
0010
1000
0001
0000
0010
0000
0100
0000
0010
0001
1000
0000
0010
0000
,
0100
0000
0000
0100
0001
0000
0010
0000
0220
0000
0000
0000
0330
0000
0000
0000
,
1001
0000
1000
0100
0010
0000
0100
0000
1000
0000
0001
0100
0010
0000
0100
0000
,
0001
0000
0010
0100
1000
0000
0001
0000
0100
0000
0000
0010
1000
0000
0001
0000
,
0011
0000
0010
0001
0010
0000
0100
0000
1100
0000
1000
0001
1000
0000
0010
0000
,
0110
0000
0000
0000
0110
0000
0000
0000
1001
0000
0000
1000
0100
0000
0010
0000
,
0001
0000
0100
0001
0010
0000
0100
0000
1000
0000
0010
0100
0001
0000
0010
0000
,
1000
0000
0010
0001
1000
0000
0100
0000
1000
0000
0000
0010
0100
0000
0001
0000
,
0010
0000
0100
1000
0001
0000
0100
0000
0010
0000
1000
0100
0010
0000
0001
0000
,
0100
0000
1000
0100
0001
0000
0010
0000
0011
0000
0000
1000
0100
0000
0100
0000
,
1000
0000
0010
0100
0001
0000
0010
0000
0100
0000
0001
0100
1000
0000
0001
0000
,
0010
0000
0001
1000
0010
0000
0100
0000
0101
0000
0000
0001
0010
0000
0100
0000
,
1100
1000
1010
0000
0101
0001
0011
0000
,
1000
0100
0000
0000
0010
0001
0000
0000
1000
0000
0010
0100
0001
0000
0010
0100
,
1000
0001
1000
0001
1000
0001
1000
0001
1000
0001
1000
0001
1000
0001
1000
0001
,
0010
0000
0000
0110
0000
0000
0100
0000
2002
0000
0000
0000
0000
0000
0000
0000
,
0000
0000
0000
0000
,
3003
0000
0000
0000
;

//--------------- dance-double - forcednature ----------------
#NOTEDATA:;
#STEPSTYPE:dance-double;
#DESCRIPTION:forcednature;
#CREDIT:forcednature;
#DIFFICULTY:Easy;
#METER:7;
#RADARVALUES:0,0,0,0,0;
#NOTES:
00000000
00000000
00000000
00000000
,
00000000
00000000
00000000
00000000
,
00000000
00000000
00000000
00000000
,
00000000
00000000
00000000
00000000
,
00000000
00000000
00000000
00000000
,
00001000
00000000
00000000
00000000
,
00010000
00000000
00010000
00000000
,
00000100
00000000
00001000
00000000
,
00000010
00001000
00000010
00000000
,
00001001
00000000
00000001
00000100
,
00000010
00000100
00000001
00000000
,
00001000
00000000
00000100
00010000
,
00001000
00001000
00010000
00000000
,
00011000
00000000
00100000
00010000
,
01000000
00010000
01000000
00000000
,
00100000
00100000
10000000
00000000
,
01000000
10000000
00010000
00000000
,
10010000
00000000
00010000
00000000
,
00100000
00000000
00001000
00000000
,
00010000
00000000
00000010
00000000
,
00001000
00001000
00000001
00000000
,
00000010
00000000
00000001
00000000
,
00001000
00000000
00000100
00000000
,
00010000
00000000
00001000
00000000
,
01000000
01000000
00010000
00000000
,
10010000
00000000
10000000
00000000
,
00100000
00000000
10000000
00000000
,
00010000
00000000
00100000
00000000
,
00001000
00001000
00010000
00000000
,
00011000
00000000
00000100
00000000
,
00001000
00000000
00000010
00000000
,
00000100
00000001
00000100
00000000
,
00000001
00000010
00000001
00000000
,
00001000
00000000
00000100
00000000
,
00010000
00001000
00011000
00000000
,
00100000
00000000
00010000
00000000
,
01000000
00000000
00000000
00000000
,
00010000
00000000
00100000
00000000
,
00001000
00010000
00011000
00000000
,
00000010
00000000
00001000
00000000
,
00000100
00000000
00000000
00000000
,
00000010
00000000
00000001
00000000
,
00000010
00000001
00000010
00000000
,
00000100
00000000
00010000
00000000
,
00001000
00010000
00001000
00000000
,
00011000
00000000
00100000
00000000
,
10010000
00000000
01000000
00000000
,
01100000
00000000
10000000
00000000
,
20020000
00000000
00000000
30030000
,
00010000
00100000
00001000
00000000
,
00010000
00001000
00010000
00000000
,
00000100
00001000
00000001
00000010
,
00000001
00001000
00000010
00000000
,
00000110
00000000
00000001
00000100
,
00000001
00001000
00000100
00000000
,
00010000
00001000
00100000
00000000
,
00010000
00010000
01000000
00000000
,
00100000
10000000
01000000
00000000
,
00100000
00010000
01000000
00000000
,
00001000
00010000
00000010
00001000
,
00000100
00001000
00000001
00000000
,
00000110
00000000
00001000
00000100
,
00010000
00001000
00100000
00000000
,
00010000
00010000
01000000
00010000
,
10000000
00100000
01100000
00000000
,
00010000
10000000
01000000
10000000
,
00010000
00100000
00001000
00000000
,
00010000
00000010
00001000
00000010
,
00000100
00000001
00001000
00000000
,
00000100
00010000
00001000
00100000
,
00010000
01000000
00010000
00000000
,
10000000
00100000
01000000
00100000
,
10000000
10000000
00010000
00000000
,
00100000
00001000
00010000
00000100
,
00001000
00000010
00010000
00000000
,
00000100
00001000
00000001
00000100
,
00000010
00000010
00000010
00000000
,
00001000
00000100
00010000
00001000
,
01000000
00010000
00100000
00000000
,
01100000
00000000
10010000
00000000
,
00010000
00100000
00001000
00010000
,
00000200
00000000
00000000
00000300
,
00001000
00000001
00002002
00000000
,
00000000
00000000
00000000
00000000
,
00003003
00000000
00000000
00000000
;

//--------------- dance-double - forcednature ----------------
#NOTEDATA:;
#STEPSTYPE:dance-double;
#DESCRIPTION:forcednature;
#CREDIT:forcednature;
#DIFFICULTY:Medium;
#METER:11;
#RADARVALUES:0,0,0,0,0;
#NOTES:
00000000
00000000
00000000
00000000
,
00000000
00000000
00000000
00000000
,
00000000
00000000
00000000
00000000
,
00000000
00000000
00000000
00000000
,
00000000
00000000
00000000
00000000
,
00010000
00001000
00100000
00010000
,
01000000
00000000
00000000
00000000
00100000
00000000
00000000
00000000
10000000
00000000
00000000
10000000
00000000
00000000
01000000
00000000
,
00010000
00000000
00001000
00010000
00000100
00000000
00000100
00001000
,
00000010
00000000
00000110
00000000
00000100
00000001
00000100
00000000
,
00000010
00000000
00001000
00000000
00000100
00001000
00000100
00000000
,
00010000
00001000
00010000
00000000
00001000
00000000
00100000
00000000
,
00010000
00000000
01000000
00000000
00100000
01000000
00100000
00000000
,
10000000
00000000
00000000
10000000
00000000
00000000
01000000
00000000
10000000
00000000
00000000
00000000
00010000
00000000
00000000
00000000
,
00100000
00010000
00100000
00000000
00001000
00010000
00001000
00000000
,
00010000
00000100
00001000
00000000
00000010
00000000
00001010
00000000
,
00000001
00000100
00000001
00000000
00000010
00000001
00000010
00000000
,
00000100
00000110
00001000
00000010
,
00020000
00000000
00000000
00000000
00031000
00000000
00100000
00010000
,
00000000
01000000
00010000
00000000
20000000
00000000
30000000
00100000
,
01000000
00000000
00010000
00000000
00100000
00010000
00100000
00000000
,
00001000
00000000
00010000
00000000
00000020
00000000
00000000
00000030
,
00002000
00000000
00000000
00003100
00000010
00000000
00000100
00001000
,
00000000
00000001
00000010
00000000
00000200
00000000
00002300
00000000
,
00003010
00000000
00010000
00001000
00010000
00000000
00001000
00000000
,
00200000
00000000
00310000
01100000
,
20000000
00000000
00000000
00000000
31000000
00000000
10000000
00100000
,
00000000
10000000
00010000
00000000
02000000
00000000
03000000
00001000
,
00010000
00000000
00000100
00000000
00001000
00000010
00001000
00000000
,
00000001
00000000
00000010
00000000
00000200
00000000
00000000
00000300
,
00020000
00000000
00000000
00031000
00100000
00000000
00010000
00000000
,
10010000
00000000
10000000
00000000
01000000
00100000
01000000
00000000
,
01100000
00010000
10010000
01000000
,
01010000
01001000
00022000
00033000
,
00011000
00000000
01001000
00000000
,
01010000
01010000
01010000
00000000
,
00010000
00100000
00001000
00010000
,
00001000
00010000
00001000
00000000
00010000
00000000
00000000
00000000
,
00011000
00000000
00010100
00000000
,
00001100
00001100
00001100
00000000
,
00001000
00000010
00000100
00000001
,
00001000
00000001
00001000
00000000
00000100
00000000
00000000
00000000
,
00011000
00100000
00010000
01000000
,
00100000
10000000
00000000
10000000
00100000
00000000
01000000
00000000
,
01100000
00010000
00100000
00001000
,
00010000
00000100
00000000
00000100
00010000
00000000
00001000
00000000
,
00011000
00000000
00000010
00000000
00001000
00000001
00001000
00000000
,
00001001
00000000
00000001
00000000
00000010
00000100
00000010
00000000
,
00000200
00020300
00032000
00203000
,
00320000
00000000
00000000
00000000
00030000
01000000
00100000
00000000
,
10000000
01000000
00200000
00000000
01300000
10000000
00010000
00000000
,
00100000
00001000
00020000
00000000
00030100
00001000
00000010
00000000
,
00000100
00000001
00002000
00000000
00003100
00001000
00000002
00000000
,
00000103
00000000
00000000
00000010
00000000
00000000
00001000
00000000
00000200
00000000
00000000
00000000
00000300
00000000
00000000
00000000
,
00020000
00000000
00000000
00000000
00000000
00000000
00031000
00000000
00100000
00000000
00000000
00100000
00000000
00000000
00010000
00000000
,
01000000
00000000
00000000
00100000
00000000
00000000
10000000
00000000
00020000
00000000
00000000
00000000
00030000
00000000
00100000
00000000
,
00001000
00011000
00000100
00001100
,
00000001
00000000
00000000
00000001
00000000
00000000
00000010
00000000
00000001
00000000
00000000
00000000
00000100
00000000
00000000
00000000
,
00000010
00000000
00002000
00000000
00003100
00010000
00001000
00000000
,
00100000
00010000
02000000
00000000
03100000
10000000
00010000
00000000
,
00100000
00001000
00020000
00000000
00030010
00010000
00002000
00000000
,
01003000
00000000
00000000
01000000
00000000
00000000
00010000
00000000
20000000
00000000
00000000
00000000
30100000
00000000
00000000
00000000
,
02100000
00000000
00000000
03010000
00100000
00010000
00100000
00000000
,
00001000
00000000
00000000
00001000
00000000
00000000
00010000
00000000
00000200
00000000
00000000
00000000
00000300
00000000
00001000
00000000
,
00000020
00000130
00001002
00000013
,
00000001
00000000
00000000
00000001
00000000
00000000
00001000
00000000
00000001
00000000
00000000
00000000
00000110
00000000
00000000
00000000
,
00001000
00000100
00001000
00000000
00000100
00010000
00001000
00000000
,
00010000
00001000
00010000
00000000
00001000
00000000
00100000
00000000
,
00010000
01000000
00010000
00000000
01000000
00100000
10000000
00000000
,
01000000
00000000
00000000
01000000
00000000
00000000
10000000
00000000
00020000
00000000
00000000
00000000
00030000
00000000
00000000
00000000
,
00100000
00010000
00100000
00000000
00010000
00100000
00001000
00000000
,
00010000
00000000
00001000
00000000
00010000
00000000
00000000
00000000
00000100
00000000
00000000
00001000
00000000
00000000
00000010
00000000
,
00000100
00000010
00000100
00000000
00000001
00001000
00000001
00000000
,
00001100
00000000
00001100
00000000
00010100
00000000
00010000
00001000
,
00100000
00010000
00100000
00000000
01000000
10000000
01000000
00000000
,
10000000
00000000
00100000
00000000
10000000
00000000
00000000
00000000
00010000
00000000
00000000
00010000
00000000
00000000
00100000
00000000
,
00001000
00010000
00001000
00000000
00010000
00000100
00010000
00000000
,
00000100
00000000
00000000
00000100
00000000
00000000
00001000
00000000
00000020
00000000
00000000
00000000
00000030
00000000
00000000
00000000
,
00000100
00000001
00000100
00000000
00000001
00000010
00000001
00000000
,
00001000
00000000
00000010
00000000
00001000
00000000
00000000
00000000
00000100
00000000
00000000
00000100
00000000
00000000
00010000
00000000
,
00001000
00000000
00100000
00010000
00100000
00010000
00100000
00000000
,
01000000
11000000
00010000
01000000
,
02200000
00000000
00000000
03300000
,
00010000
00000000
00000000
00010000
00000000
00000000
01000000
00000000
00002000
00000000
00000000
00000000
00000000
00000000
00000000
00000000
,
00000000
00000000
00000000
00000000
,
00003000
00000000
00000000
00000000
;

//--------------- dance-double - forcednature ----------------
#NOTEDATA:;
#STEPSTYPE:dance-double;
#DESCRIPTION:forcednature;
#CREDIT:forcednature;
#DIFFICULTY:Hard;
#METER:15;
#RADARVALUES:0,0,0,0,0;
#NOTES:
00000000
00000000
00000000
00000000
,
00000000
00000000
00000000
00000000
,
00000000
00000000
00000000
00000000
,
00000000
00000000
00000000
00000000
,
00000000
00000000
00000000
00000000
,
00001000
00010000
00001000
00000000
00100000
00010000
00100000
00000000
,
01000000
00000000
10000000
00000000
01000000
00000000
00000000
00000000
00100000
00000000
00000000
00001000
00010000
00000000
00000000
00000000
,
00000010
00001000
00000010
00001000
00000100
00000010
00000100
00000010
,
00000001
00000000
00000100
00000000
00001000
00000000
00000000
00000000
00011000
00000000
00000000
00100000
00010000
00000000
00100000
00000000
,
01000000
10000000
10000000
00010000
01000000
00100000
00100000
10000000
,
01000000
00000000
00010000
00000000
00010000
00000000
00001000
00000000
00100000
00000000
00000000
00100000
00010000
00000000
00000000
00000000
,
01000000
00001000
00001000
00010000
00000010
00000100
00000100
00000001
,
00000010
00000000
00000000
00000100
00001000
00000000
00000010
00000000
00020000
00000000
00000000
00000000
00032000
00000000
00000000
00000000
,
00103000
00010000
00010000
10000000
00100000
01000000
01000000
00010000
,
10000000
00000000
01000000
00000000
01000000
00000000
00100000
00000000
00001000
00000000
00000000
00010000
00000100
00000000
00001000
00000000
,
00000010
00000100
00001000
00000000
00010000
00100000
01000000
00000000
,
00010000
00000000
10000000
00010000
10000000
00000000
01000000
00000000
00020000
00000000
00000000
00000000
00030000
00000000
00000000
00000000
,
00002000
00000000
00000000
00003010
00000100
00000010
00000001
00000200
,
00000000
00000000
00001300
00000000
00010000
00000000
00010000
00000000
00002000
00000000
00000000
00000000
00003000
00000000
00100000
00010000
,
00100000
00000000
00000000
00010000
00000000
00000000
10000000
00000000
01000000
00000000
10000000
00000000
00100000
00000000
01000000
00000000
,
00010000
00000000
00000000
00010000
00100000
00000000
00001000
00000000
00020000
00000000
00000000
00000000
00030000
00000000
00000000
00000000
,
00012000
00000000
00000000
00000000
00000000
00003000
00010000
00001000
00010000
00000000
00000100
00000000
00001000
00000000
00000020
00000000
,
00000000
00000130
00000001
00001000
00000200
00000000
00020300
00000000
,
00032000
00000000
00103000
00010000
01000000
00100000
10000000
01000000
,
00020000
00000000
00000000
00000000
00001000
00000000
00000000
00000000
00030010
00000000
00000000
00000010
00001000
00000000
00000001
00000000
,
00000200
00000000
00000000
00001300
00010000
00100000
00010000
00002000
,
00000000
00000000
01003000
00000000
00010000
00000000
10000000
00000000
00200000
00000000
00000000
00000000
00000000
00300000
01000000
00100000
,
01000000
00000000
00000000
00010000
00000000
00000000
10000000
00000000
01000000
00000000
00100000
00000000
01000000
00000000
00100000
00000000
,
00001000
00000000
00000000
00001000
00010000
00000000
00000100
00000000
00002000
00000000
00000000
00000000
00003010
00000000
00000000
00000000
,
00000102
00000000
00000000
00000013
00000100
00010000
00001000
00100000
,
02000000
00000000
23000000
00000000
30100000
01000000
00010000
00100000
,
00001000
00001000
00001000
00000000
00010000
00010000
00010000
00000000
,
00000010
00000000
00001000
00000000
00000100
00000000
00000010
00000000
00000001
00000000
00000000
00000100
00001000
00000000
00000000
00000000
,
00011000
00000000
01100000
00000000
,
01001000
00110000
01001000
00000000
,
10000000
00100000
10000000
00100000
00010000
00100000
00010000
00100000
,
00010000
00001000
00000100
00000001
00002000
00000000
00003000
00000000
,
00011000
00000000
00000110
00000000
,
00010100
00001010
00010100
00000000
,
00000001
00000010
00000001
00000010
00001000
00000010
00001000
00000010
,
00001000
00010000
01000000
10000000
00020000
00000000
01030000
00000000
,
10100000
00000000
00000000
00000000
00100000
00000000
00000000
00100000
10000000
00000000
10000000
00000000
00010000
00000000
00100000
00000000
,
00001000
00010000
00000000
00010000
00002000
00000000
00003010
00000100
,
00000110
00000000
00000000
00000000
00000110
00000000
00000000
00001000
00000001
00000000
00000001
00000000
00000100
00000000
00000001
00000000
,
00000010
00000000
00000100
00000010
00000100
00000000
00001000
00000000
00000020
00000000
00000000
00000000
00010030
00000000
00000000
00000000
,
00001000
00100000
00010000
00000000
01000000
00001000
00010000
00000000
,
00000010
00001000
00000100
00000000
00000010
00001000
00010000
00000000
,
02000000
23000000
30200000
00310000
,
00022000
00000000
00000000
00033000
00000000
00001000
00010000
00001000
,
00000010
00000000
00000100
00000000
00001000
00000100
00001000
00000100
00001000
00000000
00000001
00000000
00000020
00000000
00000000
00000000
,
00000130
00000000
00010000
00000000
00001000
00010000
00001000
00010000
00001000
00000000
01000000
00000000
00020000
00000000
00000000
00000000
,
00130000
00000000
01000000
00000000
10000000
01000000
10000000
00000000
00010000
00000000
00100000
00000000
00001000
00010000
00001000
00000000
,
00010000
00000000
00000000
00000100
00001000
00000000
00000010
00000000
00000100
00000000
00000000
00000100
00000001
00000000
00000001
00000000
,
00002000
00000000
00000000
00000000
00000000
00003000
00000100
00001000
00000100
00000000
00010000
00000000
00001000
00000000
00100000
00000000
,
00010000
00000000
01000000
00010000
01000000
00000000
00100000
00000000
10000000
00000000
00000000
00000000
01000000
00000000
00100000
00000000
,
01100000
00000000
00101000
00000000
00011000
00000000
00000010
00001000
,
00000001
00000000
00000000
00000101
00000000
00000000
00001000
00000000
00000010
00000000
00000100
00000010
00000100
00000000
00000000
00000000
,
00001000
00000000
00010000
00000000
00001000
00100000
00001000
00100000
00001000
00000000
01000000
00000000
00020000
00000000
00000000
00000000
,
00130000
00000000
00001000
00000000
00010000
00001000
00010000
00001000
00010000
00000000
00000100
00000000
00002000
00000000
00000000
00000000
,
00003010
00000000
00000100
00000000
00000001
00000100
00000001
00000000
00001000
00000000
00000010
00000000
00010000
00001000
00010000
00000000
,
00001000
00000000
00000000
01000000
00010000
00000000
00100000
00000000
01000000
00000000
00000000
10000000
00100000
00000000
01000000
00000000
,
00020000
00000000
00000000
00000000
00000000
00030000
00100000
00010000
00100000
00000000
00001000
00000000
00010000
00000000
00000100
00000000
,
00001000
00000000
00000000
00001000
00000010
00000000
00000001
00000000
00000020
00000000
00000000
00000000
00000130
00000000
00000001
00000000
,
00000101
00000000
00000000
00001000
00000010
00000000
00001000
00000000
00000100
00000000
00010000
00000000
00001000
00000000
00100000
00000000
,
00010000
00000000
00000000
00110000
00000000
00000000
10000000
00000000
11000000
00000000
00000000
00000000
00010000
00000000
00100000
00000000
,
00001000
00010000
00100000
01000000
00100000
00010000
00001000
00010000
,
00001000
00000000
00000100
00000000
00000010
00000000
00000100
00000000
00000001
00000000
00000000
00000001
00000010
00000000
00000000
00000000
,
00000100
00000010
00000100
00010000
00001000
00100000
01000000
00100000
,
00010000
00000000
00000000
00010000
01000000
00000000
00100000
00000000
20000000
00000000
00000000
00000000
30000000
00000000
00000000
00000000
,
00100000
01000000
00100000
00010000
00001000
00010000
00100000
01000000
,
00100000
00000000
00010000
00000000
00001000
00000000
00000100
00000000
00000010
00000000
00000000
00001000
00000001
00000000
00000000
00000000
,
00000010
00000100
00000010
00001000
00010000
01000000
00100000
01000000
,
10000000
00000000
00010000
00000000
01000000
00000000
00010000
00000000
00100000
00000000
00000000
00100000
01000000
00000000
10000000
00000000
,
00100000
00000000
01000000
00100000
01000000
00000000
00010000
00000000
00100000
00000000
00010000
00100000
00001000
00000000
00010000
00000000
,
00000100
00000000
00001000
00000100
00001000
00000000
00000001
00000000
00000100
00000000
00000000
00000100
00000010
00000000
00001000
00000000
,
00000001
00000000
00000010
00000001
00000010
00000000
00000100
00000000
00010000
00000000
00001000
00010000
00001000
00000000
00100000
00000000
,
01000000
00000000
00000000
01000000
10000000
00000000
00010000
00000000
02000000
00000000
00000000
00000000
03000000
00000000
00000000
00000000
,
00100000
00000000
10000000
00100000
10000000
00000000
00010000
00000000
00100000
00000000
00010000
00100000
00001000
00000000
00010000
00000000
,
00000010
00000000
00001000
00000010
00001000
00000000
00000001
00000000
00000100
00000000
00000000
00000100
00000010
00000000
00001000
00000000
,
00000001
00000100
00001000
00000000
00010000
01000000
10000000
00000000
,
10100000
00000000
00000000
00000000
00110000
00000000
00000000
00000000
00001000
00000000
00010000
00001000
00010000
00000000
00000100
00000000
,
00001000
00000010
00000100
00001000
00010000
00100000
01000000
00010000
,
10000000
00000000
00000000
01000000
00000000
00000000
00010000
00000000
00002000
00000000
00000000
00000000
00000000
00000000
00000000
00000000
,
00000000
00000000
00000000
00000000
,
00003000
00000000
00000000
00000000
;

//--------------- dance-double - forcednature ----------------
#NOTEDATA:;
#STEPSTYPE:dance-double;
#DESCRIPTION:forcednature;
#CREDIT:forcednature;
#DIFFICULTY:Challenge;
#METER:16;
#RADARVALUES:0,0,0,0,0;
#NOTES:
00000000
00000000
00000000
00000000
,
00000000
00000000
00000000
00000000
,
00000000
00000000
00000000
00000000
,
00000000
00000000
00000000
00000000
,
00000000
00000000
00000000
00000000
,
00001000
00010000
00000100
00010000
00001000
00100000
00010000
00100000
,
01000000
00000000
10000000
00000000
00100000
00000000
01000000
00000000
00010000
00000000
00000000
00100000
00001000
00000000
00010000
00000000
,
00000010
00000000
00001000
00000010
00001000
00000000
00000001
00000000
00000010
00000000
00000100
00000010
00000100
00000000
00001000
00000000
,
00000010
00000000
00010000
00000000
00001000
00000000
01000000
00000000
00010000
00000000
00000000
00010000
00100000
00000000
01000000
00000000
,
10000000
00000000
00100000
10000000
00100000
00000000
01000000
00000000
00010000
00000000
00100000
00010000
00100000
00000000
00001000
00000000
,
00010000
00000000
00000100
00001000
00000100
00000000
00000010
00000000
00000001
00000000
00000000
00000001
00000100
00000000
00000010
00000000
,
00001000
00000000
00000100
00001000
00000100
00000000
00010000
00000000
00001000
00000000
01000000
00010000
01000000
00000000
00100000
00000000
,
10000000
00000000
00000000
01000000
10000000
00000000
00010000
00000000
00110000
00000000
00000000
00100000
00001000
00000000
00000000
00000000
,
00010000
00000000
00000010
00001000
00000010
00000000
00001000
00000000
00000100
00000000
00000010
00000001
00000010
00000000
00000001
00000000
,
00001000
00000000
00000100
00010000
00001000
00000000
00100000
00000000
00010000
00000000
00000000
00010000
01000000
00000000
00100000
00000000
,
10000000
01000000
00010000
00000000
00001000
00000100
00000001
00000000
,
00000011
00000000
00001000
00000100
00001000
00000000
00000100
00000000
00010000
00000000
00000000
00001000
00010000
00000000
00000000
00000000
,
00200000
00000000
00000000
00000000
01300000
00000000
00100000
10000000
00100000
00000000
10000000
00000000
00010000
00000000
02000000
00000000
,
00000000
00000000
03100000
00000000
10000000
00000000
00010000
00000000
00200000
00000000
00000000
00000000
00300000
00000000
00001000
00010000
,
00001000
00000000
00000000
00010000
00000100
00000000
00001000
00000000
00000010
00000000
00000100
00000000
00001000
00000000
00000100
00000000
,
00000001
00000000
00000100
00000001
00000100
00000000
00000010
00000000
00002000
00000000
00000000
00000000
00003100
00000000
00010000
00000000
,
00021000
00000000
00000000
00000000
00130000
00000000
01000000
00100000
01000000
00000000
00010000
00000000
10000000
00000000
02000000
00000000
,
00000000
03010000
00001000
00100000
00020000
00000000
02030000
00000000
,
03002000
00000000
00013000
00000010
00000100
00000001
00000010
00000100
,
00020000
00000000
00000000
00000000
00000010
00000000
00030000
00000000
00011000
00000000
00000000
00100000
00010000
00000000
00010000
00000000
,
02000000
00000000
00000000
00000000
03100000
00000000
10000000
00100000
01000000
00000000
00010000
00000000
00100000
00000000
02000000
00000000
,
00000000
00000000
03010000
00000000
00001000
00000000
00100000
00000000
00020000
00000000
00000000
00000000
01030000
00000000
00100000
10000000
,
00100000
00000000
00000000
00100000
01000000
00000000
00010000
00000000
00100000
00000000
01000000
00000000
10000000
00000000
01000000
00000000
,
00010000
00000000
00001000
00010000
00001000
00000000
00010000
00000000
00010200
00000000
00000000
00000000
00000310
00000000
00000010
00000000
,
00001002
00000000
00000000
00000000
00000103
00000000
00000010
00001000
00000010
00000000
00010000
00000000
00001000
00000000
00100000
00000000
,
00120000
00000000
02030000
00000000
03100000
10000000
01000000
00010000
,
00001000
00000010
00001000
00000000
00010000
00100000
00010000
00000000
,
00001000
00000000
00000100
00000000
00000001
00000000
00000010
00000000
00001000
00000000
00010000
00001000
00010000
00000000
00000000
00000000
,
00101000
00000000
00010010
00000000
,
00000110
00000000
00011000
00000000
01100000
00000000
10000000
00010000
,
10000000
00000000
01000000
10000000
01000000
00000000
00100000
01000000
00100000
00000000
00001000
00000000
00010000
00000000
00000100
00000000
,
00001000
00000000
00000010
00001000
00000010
00000000
00010000
00000000
00001000
00000000
00000000
00100000
00010000
00000000
01000000
00000000
,
01001000
00000000
00010100
00000000
,
00000110
00000000
00011000
00000000
01100000
00000000
00010000
01000000
,
00010000
00000000
00100000
00010000
00100000
00000000
01000000
00100000
00010000
00000000
10000000
00000000
01000000
00000000
00010000
00000000
,
00001000
00000000
00100000
00010000
00100000
00000000
00001000
00000000
00010000
00000000
00000100
00000000
00000010
00000000
00000001
00000010
,
00000001
00000000
00000000
00000001
00000100
00000000
00000000
00000100
00001000
00000000
00001000
00000000
00010000
00000000
00100000
00000000
,
10000000
02000000
03000000
00010000
02000000
00000000
13000000
00100000
,
01100000
00000000
00000000
00010000
00100000
00000000
00000000
00001000
00010000
00000000
00010000
00000000
00000100
00000000
00001000
00000000
,
00000010
00000000
00000100
00000010
00000100
00000000
00000001
00000000
00000010
00000000
00000000
00000010
00001000
00000000
00010000
00000000
,
00011000
00100000
00010000
01000000
00100000
10000000
01000000
00010000
,
00011000
00000010
00001000
00000100
00000010
00000001
00000100
00001000
,
00011000
00000000
00000000
00100000
01000000
00000000
00000000
00010000
00001000
00000000
00000000
00000010
00000100
00000000
00000000
00000000
,
00002002
00000000
00000000
00000000
00000000
00000000
00000000
00000000
00003003
00000000
00000001
00000100
00000001
00000000
00000010
00000000
,
00000110
00000000
00001000
00000000
00000100
00010000
00000100
00010000
00001000
00000000
00100000
00000000
00020000
00000000
00000000
00000000
,
01030000
00000000
00100000
00000000
10000000
01000000
10000000
01000000
00100000
00000000
00001000
00000000
00020000
00000000
00000000
00000000
,
00030010
00000000
00001000
00000000
00000001
00000100
00000001
00000100
00000010
00000000
00010000
00000000
00001000
01000000
00001000
01000000
,
00010000
00000000
00000000
00010000
00100000
00000000
01000000
00000000
11000000
00000000
00000000
00010000
01000000
00000000
00100000
00000000
,
20000000
00000000
00000000
00000000
30000000
00000000
01000000
10000000
01000000
00000000
00100000
00010000
10000000
00000000
01000000
00000000
,
00010000
00000000
00001000
00010000
00001000
00000000
00000010
00000000
00000100
00000000
00001000
00000100
00001000
00000000
00000001
00000000
,
00000011
00000000
00000000
00001000
00000010
00000000
00000000
00010000
00001000
00000000
00000000
01000000
00010000
00000000
00100000
00000000
,
01000000
00000000
00000000
01100000
00000000
00000000
10000000
00000000
00100000
00000000
01000000
00100000
01000000
00000000
00010000
00000000
,
00100000
00000000
00001000
00000000
00010000
00000100
00010000
00000100
00001000
00000000
00000010
00000000
00000200
00000000
00000000
00000000
,
00000301
00000000
00000010
00000000
00000001
00001000
00000001
00001000
00000100
00000000
00010000
00000000
00002000
00000000
00000000
00000000
,
00103000
00000000
00010000
00000000
01000000
00100000
01000000
00100000
10000000
00000000
01000000
00000000
10000000
00010000
10000000
00010000
,
00100000
00000000
00000000
01000000
00000000
00000000
00010000
00000000
00001000
00000000
00000010
00000100
00000010
00000000
00000001
00000000
,
00002000
00000000
00000000
00000000
00000000
00000000
00003010
00000100
00000001
00000100
00000010
00001000
00000001
00000000
00000010
00000000
,
00001000
00000000
00000000
00001000
00010000
00000000
01000000
00000000
00200000
00000000
00000000
00000000
00310000
00000000
01000000
00000000
,
02020000
03030000
20200000
30300000
,
11000000
00000000
00000000
11000000
00000000
00000000
00010000
00000000
00210000
00000000
00000000
00000000
00301000
00000000
00010000
00000000
,
00000010
00000000
00001000
00000010
00001000
00000000
00000001
00000000
00000010
00000000
00000100
00000010
00000100
00000000
00010000
00000000
,
00001000
00000000
00100000
00010000
00100000
00000000
01000000
00000000
10000000
00000000
00000000
00100000
01000000
00000000
00010000
00000000
,
00100000
00000000
00001000
00100000
00001000
00000000
00010000
00000000
00000010
00000000
00001000
00000001
00000100
00000000
00000010
00000000
,
00001000
00000000
00000000
00001000
00000100
00000000
00010000
00000000
00022000
00000000
00000000
00000000
00033000
00000000
00000000
00000000
,
00100000
00000000
00010000
00100000
00010000
00000000
01000000
00000000
00100000
00000000
10000000
00010000
10000000
00000000
01000000
00000000
,
00010000
00000000
00001000
00010000
00001000
00000000
00100000
00000000
00010000
00000000
00000000
00010000
01000000
00000000
00001000
00000000
,
00010000
00000000
00001000
00010000
00000100
00000000
00001000
00000000
00000010
00000000
00000100
00000001
00000010
00000000
00000100
00000000
,
00001100
00000000
00000000
00000000
00001100
00000000
00000000
00000000
00010000
00000000
00001000
00010000
00001000
00000000
00100000
00000000
,
00010000
00000000
01000000
00010000
00100000
00000000
01000000
00000000
10000000
00000000
00100000
01000000
00010000
00000000
00100000
00000000
,
00001000
00000000
00010000
00000010
00001000
00000000
00000100
00000000
00000010
00000000
00000000
00000001
00000100
00000000
00000010
00000000
,
00001000
00000000
00000001
00000010
00000100
00000000
00001000
00000000
00000010
00000000
00010000
00001000
00100000
00000000
00010000
00000000
,
01000000
00000000
00100000
10000000
00010000
00000000
00100000
00000000
00110000
00000000
00000000
00001000
00010000
00000000
00010000
00000000
,
00000010
00000000
00001000
00000100
00000010
00000000
00000001
00000000
00000100
00000000
00000010
00001000
00000001
00000000
00000010
00000000
,
00001000
00000000
00010000
00001000
00100000
00000000
00010000
00000000
01000000
00000000
00000000
00100000
10000000
00000000
01000000
00000000
,
01100000
00000000
00100000
00001000
00011000
00010000
00000100
00001000
,
00000010
00000100
00000000
00000000
00001000
00010000
00000000
00000000
00100000
00000000
01000000
00010000
00100000
00000000
00001000
00000000
,
00010000
00001000
00010000
00001000
00010000
00001000
00010000
00001000
00010000
00001000
00010000
00001000
00010000
00001000
00010000
00001000
,
00010000
00000000
00000000
00001100
00000000
00000000
00000010
00000000
00000202
00000000
00000000
00000000
00000000
00000000
00000000
00000000
,
00000000
00000000
00000000
00000000
,
00000303
00000000
00000000
00000000
;
