#VERSION:0.83;
#TITLE:アガット;
#SUBTITLE:;
#ARTIST:Bazole;
#TITLETRANSLIT:Agate;
#SUBTITLETRANSLIT:;
#ARTISTTRANSLIT:;
#GENRE:;
#CREDIT:;
#MUSIC:Agate.ogg;
#BANNER:Agate.png;
#BACKGROUND:Agate-bg.png;
#CDTITLE:./CDTitles/jubeat prop.png;
#SAMPLESTART:69.537;
#SAMPLELENGTH:15.000;
#SELECTABLE:YES;
#OFFSET:-0.403;
#BPMS:0.000=200.000;
#STOPS:99.500=0.900;
#TIMESIGNATURES:0.000=4=4,
96.000=5=4,
101.000=4=4
;
#BGCHANGES:0.000=../BGAs/10tr.mp4=1.000=0=0=0=StretchNoLoop====,
99999.000=-nosongbg-=1.000=0=0=0=StretchNoLoop====
;
#FGCHANGES:;

//--------------- dance-single - forcednature ----------------
#NOTEDATA:;
#STEPSTYPE:dance-single;
#DESCRIPTION:forcednature;
#DIFFICULTY:Beginner;
#METER:4;
#RADARVALUES:0,0,0,0,0;
#CREDIT:forcednature;
#NOTES:
0000
0000
0000
0000
,
0000
0000
0000
0000
,
0000
0000
0000
0000
,
0000
0000
0000
0000
,
0000
0000
0000
0000
,
1000
0000
0000
0000
,
0001
0000
0000
0000
,
0100
0000
0000
0000
,
0220
0000
0000
0000
,
0000
0000
0330
0000
,
0001
0000
0000
0000
,
0000
0000
0001
0000
,
0100
0000
0000
0000
,
0000
0000
0100
0000
,
0010
0000
0000
0000
,
0000
0000
0010
0000
,
1000
0000
0000
0000
,
0000
0000
1000
0000
,
0001
0000
0000
0001
,
0000
0000
0001
0000
,
0010
0000
0000
0010
,
0000
0000
0010
0000
,
0100
0000
0000
0100
,
0000
0000
0100
0000
,
1000
0000
0000
1000
,
0000
1001
0000
0000
,
0000
0001
0000
0000
,
0000
0100
0000
0000
,
0000
0001
0000
0001
,
0000
0010
0000
0000
,
0000
0100
0000
0000
,
0000
1000
0000
0000
,
0000
0100
0000
0100
,
0000
0010
0000
0000
,
0000
0001
0000
0000
,
0000
1000
0000
0000
,
0000
0010
0000
0010
,
0000
0100
0000
0000
,
0000
0001
0000
0001
,
0000
1000
0000
1000
,
0000
0001
0000
0100
,
0000
0010
0000
0000
,
0000
1000
0000
0000
,
0000
0001
0000
0000
,
0000
0010
0000
0000
,
0000
0001
0000
0000
,
0000
1000
0000
0000
,
0000
0100
0000
0000
,
0000
0010
0000
0000
,
0000
1001
0000
0000
,
0000
1000
0000
0000
,
0000
0010
0000
0010
,
0000
0010
0000
0000
,
0000
0110
0000
0000
,
0000
0001
0000
0000
,
0000
0010
0000
0010
,
0000
0100
0000
0000
,
0000
1001
0000
1000
,
0000
0100
0000
1000
,
0000
0001
0000
0100
,
0000
0001
0000
0010
,
0000
0100
0000
0010
,
0000
0100
0000
1000
,
0000
0001
0000
0100
,
0000
0010
0010
0000
,
0000
1001
0000
1000
,
0000
0100
0000
1000
,
0000
0010
0000
0100
,
0000
0001
0000
0010
,
0000
0100
0000
0000
0000
0010
0000
0000
,
0000
0100
0000
0000
0000
1000
0000
0001
,
0000
0100
0000
0000
0000
0010
0000
0000
,
0000
0100
0000
0000
0000
0000
0001
0000
,
1000
0002
0000
0000
,
0000
0000
0000
0000
,
0003
0010
0000
0001
,
0000
0100
0000
0001
,
1000
0001
0000
0010
,
0000
0100
0000
1000
,
0001
1000
0000
0010
,
0000
0100
0000
0001
,
1000
0000
0001
0000
0001
0000
0000
1000
,
0000
1000
0000
0000
0000
0000
0000
0000
;

//--------------- dance-single - forcednature ----------------
#NOTEDATA:;
#STEPSTYPE:dance-single;
#DESCRIPTION:forcednature;
#DIFFICULTY:Easy;
#METER:7;
#RADARVALUES:0,0,0,0,0;
#CREDIT:forcednature;
#NOTES:
0000
0000
0000
0000
,
0000
0000
0000
0000
,
0000
0000
0000
0000
,
0000
0000
0000
0000
,
0000
0000
0000
0000
0000
0000
0000
1000
,
0000
0000
1000
0000
1000
0000
0000
0001
,
0000
0000
0001
0000
0001
0000
0000
0100
,
0000
0000
0100
0000
0100
0000
0000
0220
,
0000
0000
0000
0000
,
0000
0000
0000
0330
,
1000
0000
1000
0000
0000
1000
0000
1000
,
0000
1000
0000
0000
1000
0000
0000
0000
,
0100
0000
0100
0000
0000
0100
0000
0100
,
0000
0100
0000
0000
0100
0000
0000
0000
,
0010
0000
0010
0000
0000
0010
0000
0010
,
0000
0010
0000
0000
0010
0000
0000
0000
,
0001
0000
0001
0000
0000
0001
0000
0001
,
0000
0001
0000
0000
0001
0000
0000
0000
,
0100
0000
0010
0000
0000
0100
0000
0010
,
0000
0100
0000
0000
0010
0000
0000
0000
,
1000
0000
0001
0000
0000
1000
0000
0001
,
0000
1000
0000
0000
0001
0000
0000
0000
,
0010
0000
0100
0000
0000
0010
0000
0100
,
0000
0010
0000
0000
0100
0000
0000
0000
,
1000
0000
0001
0000
0000
1000
0000
0010
,
0000
0100
0001
0100
,
0000
0001
0010
0100
,
0010
0001
0010
0001
,
0000
1000
0100
0010
,
0100
1000
0010
1000
,
0000
0001
0010
0001
,
0100
0010
1000
0010
,
0000
0100
0001
1000
,
0100
0010
0001
0000
,
0001
0000
0001
0100
,
0010
1000
0100
0000
,
0100
0000
0100
1000
,
0001
0100
0010
0000
,
0010
1000
0100
0000
,
0100
0010
0001
0010
,
0001
0100
0010
1000
,
0001
0200
0000
0000
,
0300
0010
0000
1000
,
0001
0010
0010
0001
,
1000
0100
0010
0001
,
1000
0010
0000
0100
,
0001
0010
0000
0100
,
1000
0001
0100
0001
,
0100
0010
0000
1000
,
0000
1001
0000
1000
,
0100
1000
0001
0100
,
0000
0000
0110
0000
0000
1001
0000
0000
,
0000
0110
0000
0000
0001
0000
0001
0000
,
1000
0200
0000
2300
,
0000
3002
0000
0013
,
0100
0000
0010
0000
0000
0010
0000
0000
,
0001
0000
0200
0000
0000
0300
0000
0000
,
0000
1001
0000
0000
1000
0000
0010
0000
,
0100
0010
1000
0001
,
0000
0110
0000
0000
0001
0000
1000
0000
,
0100
0000
1000
0000
0001
0000
0010
0100
,
0000
0100
0000
0000
0010
0000
0001
0000
,
0100
0001
1000
0010
,
0100
0001
0000
0000
1000
0000
0100
0000
,
1000
0001
0000
0001
1000
0000
0000
0000
,
0000
0110
0000
0000
0001
0000
0010
0000
,
0100
0110
1000
0001
,
0100
0001
0000
0000
1000
0000
0010
0000
,
1000
0001
0000
0000
0010
0000
0001
0000
,
0100
0010
0000
0000
0000
0110
0000
0000
,
0000
1001
0000
0000
0000
1000
0000
0001
,
0000
1001
0000
0000
0000
0110
0000
0000
,
0000
1001
0000
0000
0001
0000
0010
0000
,
0010
0200
0000
0000
,
0000
0000
0000
0000
,
0300
1000
0001
0100
,
0001
1000
0010
0100
,
0100
0001
1000
0100
,
1000
0001
0010
0100
,
0100
1000
0001
0100
,
0010
1000
0001
0010
,
0100
0000
1000
0000
0001
0000
0000
0100
,
0000
0010
0000
0000
0000
0000
0000
0000
;

//--------------- dance-single - forcednature ----------------
#NOTEDATA:;
#STEPSTYPE:dance-single;
#DESCRIPTION:forcednature;
#DIFFICULTY:Medium;
#METER:11;
#RADARVALUES:0,0,0,0,0;
#CREDIT:forcednature;
#NOTES:
0000
0000
0000
0000
,
0000
0000
0000
0000
,
0000
0000
0000
0000
,
0000
0000
0000
0000
,
0000
0000
0000
0000
0000
0000
0000
1000
,
0000
1000
0100
0000
1000
0000
0001
0010
,
0000
0010
0001
0000
0100
0000
0001
1000
,
0000
1000
0001
0000
0010
0000
0001
0200
,
0000
0000
0000
0000
,
0000
0000
0000
0000
,
0310
0000
1000
0000
0000
0010
0000
1000
,
0000
0010
0000
1000
0001
0000
0100
0000
,
0001
0000
0010
0000
0000
0001
0000
0010
,
0000
0001
0000
0010
0001
0000
1000
0000
,
0100
0000
0010
0000
0000
0100
0000
0010
,
0000
0100
0000
0010
0001
0000
1000
0000
,
0010
0000
0100
0000
0000
0010
0000
0100
,
0000
0010
0000
0100
0001
0000
1000
0000
,
1100
0000
0001
0000
0000
1000
0001
1000
,
0000
0001
0000
1000
0001
1000
0001
0000
,
0010
0000
0001
0000
0000
0010
0001
0010
,
0000
0001
0000
0010
0001
0010
0001
0000
,
0100
0000
0001
0000
0000
0100
0001
0100
,
0000
0001
0000
0100
0001
0100
0001
0000
,
0100
0000
0010
0000
0000
0100
0010
0100
,
0000
1001
1000
0100
,
1000
0000
0010
0000
1000
0000
0001
0100
,
0001
0010
0001
0010
,
0100
0000
0010
0000
0001
0000
1000
0100
,
1000
0001
0100
0010
,
0100
0000
0001
0000
0100
0000
0010
1000
,
0010
0100
0001
1000
,
0100
0000
1000
0000
0001
0000
0010
0100
,
0010
0001
1000
0010
,
1000
0000
0001
0000
0100
0000
0010
1000
,
0001
0010
0100
0010
,
0001
0000
1000
0000
0100
0000
0010
0001
,
1000
1010
0001
0100
,
0010
0000
1000
0000
0001
0000
0010
0100
,
0010
0000
0001
1000
0000
1000
0100
1000
,
0000
1000
0010
0000
0100
0000
0001
1000
,
0001
1000
0020
0000
0000
0000
0000
0000
,
0030
0000
0100
0000
0000
0001
0010
0000
,
0001
0000
1000
0100
1000
0000
0001
0100
,
0001
0000
1000
0000
0010
0100
0000
0001
,
0100
0010
1000
0001
,
0010
0000
0002
0000
0000
0103
0010
0000
,
1000
0001
0011
1000
,
1100
0001
0100
0001
,
1000
0000
0010
0000
0010
0100
0000
0010
,
0000
1000
0001
0000
0010
0000
0001
0000
,
1000
0000
0100
0000
0000
0110
0000
0000
,
0000
1001
0000
0000
0001
0000
0010
0000
,
0100
0000
2000
0000
0000
3001
0100
0000
,
0010
0000
0000
0000
2000
0000
0000
0000
0000
0000
3001
0000
0010
0000
0000
0010
,
0000
0000
0001
1000
0000
1000
0001
0000
,
0100
0000
0000
0000
0010
0000
0000
0010
0000
0000
0010
0000
0000
0000
0000
0000
,
0000
1001
0000
1000
0100
0000
1000
0000
,
0001
0010
0001
0100
,
0100
0010
0000
1000
0010
0000
1000
0001
,
1000
0001
0000
0010
0000
0001
0000
0100
,
0001
0100
0000
0000
0010
0000
1000
0100
,
1000
0100
0000
0010
0100
0000
0010
0000
,
0001
1000
0000
0010
1000
0000
0001
0100
,
0001
0100
0000
0100
0010
0000
0000
1000
,
0001
1000
0000
0001
0010
0000
0100
0010
,
0100
0000
1000
0100
1000
0000
0001
0000
,
0001
0010
0000
0001
1000
0000
0001
0100
,
0001
0100
0000
0010
0100
0000
0000
0010
,
1000
0010
0000
1000
0100
1000
0000
0001
,
0100
0001
0000
0010
0001
0010
0000
0100
,
0000
0110
0000
0010
0001
0010
0000
0001
,
0100
0000
0001
0000
0000
0000
1000
0000
0100
0000
1000
0000
0100
0000
0000
0100
,
0000
2002
0000
0000
,
0000
0000
0000
0000
,
3003
1000
0010
0100
,
0010
0000
1000
0000
0000
0000
1000
0000
0001
0000
0000
0000
0010
0000
0000
0010
,
0000
0001
0100
0000
0010
0000
1000
0001
,
1000
0000
0000
0000
0100
0000
0000
0000
0010
0000
0000
0000
0001
0000
0000
0001
,
0000
1000
0010
0100
0010
0000
0100
0001
,
0100
0000
0010
1000
0010
1000
0002
0000
,
0203
0000
0310
0000
0110
0000
0000
0001
,
1000
0001
0000
0000
0000
0000
0000
0000
;

//--------------- dance-single - forcednature ----------------
#NOTEDATA:;
#STEPSTYPE:dance-single;
#DESCRIPTION:forcednature;
#DIFFICULTY:Hard;
#METER:14;
#RADARVALUES:0,0,0,0,0;
#CREDIT:forcednature;
#NOTES:
0000
0000
0000
0000
,
0000
0000
0000
0000
,
0000
0000
0000
0000
,
0000
0000
0000
0000
,
0000
0000
0000
0000
0000
0000
0000
1001
,
0000
1000
0100
0000
0010
0001
0000
1001
,
0000
0001
0100
0000
0010
1000
0000
1001
,
0000
0001
0010
0001
0010
0100
1000
0020
,
0000
0000
0000
0000
,
0000
0000
0000
0030
,
1001
0000
1100
0000
0000
0001
0010
0001
,
0000
1000
0000
0100
0010
0001
0010
0000
,
0001
0000
0100
0000
0000
0010
1000
0010
,
0000
0100
0000
0001
1000
0010
1000
0000
,
0001
0000
0010
0000
0000
0100
0010
0001
,
0000
1000
0000
0001
0010
0100
0010
0000
,
0001
0000
1000
0000
0000
0010
0100
0010
,
0000
1000
0000
0010
0100
0010
1000
0000
,
1001
0000
1001
0000
0000
0001
0010
0100
,
0000
0110
0000
0010
0001
1000
0010
0000
,
1001
0000
1001
0000
0000
1000
0010
0100
,
0000
0110
0000
0010
1000
0001
0010
0000
,
0110
0000
1001
0000
0000
1000
0100
0010
,
0000
1001
0000
0001
0100
0010
1000
0000
,
0110
0000
1001
0000
0000
0001
0100
0010
,
0000
0000
1000
0001
0010
0001
0000
1000
,
0010
1000
0000
0001
0010
0100
1000
0010
,
0100
0001
1000
0100
1000
0001
0000
0100
,
0001
1000
0000
0010
0100
0001
0010
0010
,
0010
0000
0001
1000
0100
0001
0000
0100
,
1000
0001
0000
0010
0100
1000
0010
0100
,
0001
0000
1000
0001
0100
1000
0000
0100
,
0001
1000
0000
0010
0100
0001
0010
0010
,
0010
0000
0001
1000
0100
1000
0001
0010
,
0100
0010
0001
1000
0100
0001
0100
1000
,
0010
0000
1000
0001
0100
0001
1000
0010
,
0100
0010
1000
0001
0100
1000
0100
0001
,
0010
0000
0100
1000
0010
0100
0001
0010
,
0100
1000
0001
0100
0001
1000
0100
1000
,
0010
0000
0100
0101
0000
0001
0010
0011
,
0000
1000
0010
1010
0000
1000
0100
1000
,
0001
0000
0010
0000
0100
0000
0000
0100
1000
0000
0000
1000
0010
0000
0000
0010
,
0100
0000
0000
0100
0002
0000
0000
0000
0013
0000
0001
0000
1000
0000
0100
0000
,
0010
0000
0100
0000
1000
0000
0000
1000
0001
0000
0000
0001
0100
0000
0010
0000
,
1000
0000
0002
0000
0000
0000
0013
0000
0100
0000
1000
0000
0001
0000
0000
0100
,
0000
0010
1000
0100
1000
0002
0000
0013
,
0100
1000
0002
0000
0103
0010
1000
0002
,
0000
0000
0013
0000
0100
0000
0000
0100
1000
0000
0000
1000
0010
0000
0000
0010
,
0100
0000
0000
0100
0001
0000
0010
0000
0010
0000
0001
0000
1000
0000
0100
0000
,
1000
0000
0010
0100
0001
2000
0000
3100
,
0010
0001
2000
0000
3010
0100
0001
0100
,
0010
1000
1001
0000
0001
0011
0000
1000
,
0100
2100
0000
3001
0010
0100
0010
0100
,
1000
0000
0001
0000
0100
0000
0000
0000
0010
0000
0000
1000
0100
0000
0000
0000
,
0010
0000
0000
0001
1000
0000
0000
0000
0010
0000
0100
0000
0001
0000
0000
0001
,
0000
0010
0100
1100
0000
1000
1010
0000
,
0001
0000
0010
0000
0001
0000
0000
0100
0000
0000
0110
0000
0000
0000
1000
0000
,
0001
0021
0000
0130
1000
0100
0001
0100
,
1000
0001
0001
0010
0100
0000
1000
0001
,
0100
0102
0000
0013
0100
1000
0001
0100
,
0010
2000
0000
3100
0001
0200
0000
1300
,
0001
2001
0000
3100
0001
0100
1000
0001
,
0010
0020
0000
0031
0100
2000
0000
3100
,
0001
0201
0000
0310
1000
0010
0001
0010
,
1000
1010
0000
0001
0101
0000
1000
0010
,
0100
0102
0000
0013
0001
0010
1000
0010
,
0001
1000
1200
0000
0301
0000
0100
1000
,
0001
0102
0000
1003
0010
0001
0010
1000
,
0001
0200
0000
0310
1000
0000
0001
0010
,
0100
2100
0000
3001
0100
0120
0000
1030
,
0100
0120
0000
0031
1000
1010
0000
0101
,
0000
2001
0000
3100
0010
1002
0000
0103
,
0010
0000
2001
0000
0000
0000
3100
0000
0010
0000
0001
0000
0100
0000
0000
0100
,
0000
0010
1001
0000
1000
0000
0100
1000
,
0001
0000
0000
0000
0010
0000
0001
0000
0010
0000
0100
0000
0010
0000
0000
0010
,
0000
0001
1000
0000
0010
0100
0001
0100
,
0010
0000
0000
0000
1000
0000
0001
0000
0010
0000
0000
0000
0100
0000
0000
0100
,
0000
1000
0001
0100
0010
0100
0001
0010
,
0100
0000
0010
0000
0001
0000
1000
0000
0100
0000
0001
0000
0100
0000
0000
0100
,
1000
0100
0010
0001
1000
1000
0010
0100
,
0001
0001
1000
0100
0010
0010
0001
1000
,
0010
0100
0000
0000
0110
0000
0000
0001
,
1000
1001
0000
0000
0000
0000
0000
0000
;

//--------------- dance-double - forcednature ----------------
#NOTEDATA:;
#STEPSTYPE:dance-double;
#DESCRIPTION:forcednature;
#DIFFICULTY:Easy;
#METER:7;
#RADARVALUES:0,0,0,0,0;
#CREDIT:forcednature;
#NOTES:
00000000
00000000
00000000
00000000
,
00000000
00000000
00000000
00000000
,
00000000
00000000
00000000
00000000
,
00000000
00000000
00000000
00000000
,
00000000
00000000
00000000
00000000
00000000
00000000
00000000
00001000
,
00000000
00000000
00001000
00000000
00001000
00000000
00000000
00100000
,
00000000
00000000
00100000
00000000
00100000
00000000
00000000
00010000
,
00000000
00000000
00010000
00000000
01000000
00000000
00000000
02200000
,
00000000
00000000
00000000
00000000
,
00000000
00000000
00000000
03300000
,
10000000
00000000
10000000
00000000
00000000
10000000
00000000
10000000
,
00000000
00000000
01000000
00000000
,
00010000
00000000
00010000
00000000
00000000
00010000
00000000
00010000
,
00000000
00000000
00001000
00000000
,
00000010
00000000
00000010
00000000
00000000
00000010
00000000
00000010
,
00000000
00000000
00000001
00000000
,
00000100
00000000
00000100
00000000
00000000
00000100
00000000
00000100
,
00000000
00000000
00000010
00000000
,
00001000
00000000
00000100
00000000
00000000
00001000
00000000
00000100
,
00000000
00000100
00000000
00000000
00010000
00000000
00000000
00000000
,
00001000
00000000
00100000
00000000
00000000
00001000
00000000
00100000
,
00000000
00100000
00000000
00000000
00010000
00000000
00000000
00000000
,
01000000
00000000
00100000
00000000
00000000
01000000
00000000
00100000
,
00000000
00100000
00000000
00000000
10000000
00000000
00000000
00000000
,
00010000
00000000
00100000
00000000
00000000
00010000
00000000
00100000
,
00000000
00001000
00010000
00000100
,
00000000
00001000
00000010
00000100
,
00000001
00000100
00000010
00001000
,
00000000
00000100
00010000
00001000
,
00100000
00001000
00010000
00001000
,
00000000
01000000
00010000
01000000
,
00100000
10000000
00100000
01000000
,
00000000
00010000
00100000
00001000
,
00010000
00000100
00001000
00000000
,
00000010
00000000
00000010
00000100
,
00000001
00000100
00000010
00000000
,
00000010
00000000
00001000
00000100
,
00010000
00001000
00100000
00000000
,
00100000
00010000
01000000
00000000
,
01000000
00100000
10000000
01000000
,
10000000
00010000
01000000
00010000
,
00100000
00002000
00000000
00000000
,
00003000
00010000
00000000
00000100
,
00001000
00000010
00000010
00001000
,
00000001
00000100
00000010
00001000
,
00000100
00010000
00000000
00001000
,
00100000
00010000
00000000
01000000
,
00100000
10000000
01000000
10000000
,
01000000
00100000
00000000
00001000
,
00000000
00011000
00000000
00000100
,
00001000
00000100
00000010
00000001
,
00000000
00000000
00001001
00000000
00000000
00000110
00000000
00000000
,
00000000
00001001
00000000
00000000
00001000
00000000
00001000
00000000
,
00000100
00020000
00000000
00032000
,
00000000
00023000
00000000
00031000
,
00100000
00000000
00010000
00000000
00000000
00010000
00000000
00000000
,
00010000
00000000
02000000
00000000
00000000
03000000
00000000
00000000
,
00000000
10010000
00000000
00000000
10000000
00000000
00100000
00000000
,
01000000
00100000
10000000
00010000
,
00000000
10010000
00000000
00000000
00010000
00000000
00100000
00000000
,
00001000
00000000
00010000
00000000
00000100
00000000
00001000
00000010
,
00000000
00000010
00000000
00000000
00000100
00000000
00000001
00000000
,
00000010
00000001
00000010
00000100
,
00001000
00000100
00000000
00000000
00010000
00000000
00001000
00000000
,
00100000
00010000
00000000
00010000
00100000
00000000
00000000
00000000
,
00000000
01100000
00000000
00000000
10000000
00000000
00100000
00000000
,
01000000
01100000
00010000
00100000
,
00001000
00010000
00000000
00000000
00000010
00000000
00001000
00000000
,
00000001
00000100
00000000
00000000
00000001
00000000
00000010
00000000
,
00000100
00000010
00000000
00000000
00000000
00000110
00000000
00000000
,
00000000
00001001
00000000
00000000
00000000
00001000
00000000
00000100
,
00000000
00010000
00000000
00000000
00000000
00011000
00000000
00000000
,
00000000
00100000
00000000
00000000
00010000
00000000
01000000
00000000
,
01000000
00200000
00000000
00000000
,
00000000
00000000
00000000
00000000
,
00300000
10000000
00010000
01000000
,
00010000
00100000
00001000
00010000
,
00010000
00000100
00001000
00000010
,
00000100
00000001
00000010
00000100
,
00000100
00010000
00001000
00100000
,
00010000
01000000
00100000
10000000
,
01000000
00000000
10000000
00000000
00010000
00000000
00000000
00100000
,
00000000
00100000
00000000
00000000
00000000
00000000
00000000
00000000
;

//--------------- dance-double - forcednature ----------------
#NOTEDATA:;
#STEPSTYPE:dance-double;
#DESCRIPTION:forcednature;
#DIFFICULTY:Medium;
#METER:11;
#RADARVALUES:0,0,0,0,0;
#CREDIT:forcednature;
#NOTES:
00000000
00000000
00000000
00000000
,
00000000
00000000
00000000
00000000
,
00000000
00000000
00000000
00000000
,
00000000
00000000
00000000
00000000
,
00000000
00000000
00000000
00000000
00000000
00000000
00000000
00010000
,
00000000
00010000
00001000
00000000
00100000
00000000
00000000
00010000
,
00000000
00010000
01000000
00000000
00100000
00000000
00000000
10000000
,
00000000
10000000
00010000
00000000
00100000
00000000
00100000
00002000
,
00000000
00000000
00000000
00000000
,
00000000
00000000
00000000
00000000
,
00013000
00000000
00000100
00000000
00000000
00001000
00000000
00000100
,
00000000
00001000
00000000
00000100
00000010
00000000
00000001
00000000
,
00000100
00000000
00000001
00000000
00000000
00000100
00000000
00000001
,
00000000
00000100
00000000
00000001
00001000
00000000
00000010
00000000
,
00010000
00000000
00001000
00000000
00000000
00010000
00000000
00001000
,
00000000
00010000
00000000
00001000
00100000
00000000
00010000
00000000
,
01000000
00000000
00100000
00000000
00000000
01000000
00000000
00100000
,
00000000
01000000
00000000
00100000
10000000
00000000
00010000
00000000
,
00110000
00000000
00001000
00000000
00000000
00010000
00001000
00010000
,
00000000
00001000
00000000
00010000
00001000
00010000
00000100
00000000
,
00001000
00000000
00000010
00000000
00000000
00001000
00000010
00001000
,
00000000
00000010
00000000
00001000
00000010
00001000
00000001
00000000
,
00000010
00000000
00000001
00000000
00000000
00000010
00000001
00000010
,
00000000
00000001
00000000
00000010
00000001
00000010
00000100
00000000
,
00001000
00000000
00000100
00000000
00000000
00001000
00000100
00010000
,
00000000
00011000
00100000
00010000
,
01000000
00000000
00010000
00000000
10000000
00000000
00100000
01000000
,
00100000
10000000
01000000
00100000
,
01000000
00000000
10000000
00000000
01000000
00000000
00100000
00010000
,
00100000
00001000
00010000
00000010
,
00010000
00000000
00001000
00000000
00010000
00000000
00000010
00001000
,
00000010
00000100
00000001
00000010
,
00000001
00000000
00000100
00000000
00000001
00000000
00001000
00000010
,
00001000
00000100
00010000
00001000
,
00100000
00000000
00001000
00000000
00010000
00000000
00001000
01000000
,
00010000
10000000
00100000
01000000
,
00100000
00000000
10000000
00000000
01000000
00000000
00100000
00001000
,
00010000
00011000
00000100
00001000
,
00000010
00000000
00000100
00000000
00000001
00000000
00000010
00000100
,
00001000
00000000
00000100
00010000
00000000
00010000
00001000
00100000
,
00000000
00100000
00010000
00000000
01000000
00000000
00010000
10000000
,
00010000
10000000
00200000
00000000
00000000
00000000
00000000
00000000
,
00300000
00000000
01000000
00000000
00000000
00010000
00100000
00000000
,
00001000
00000000
00010000
00001000
00010000
00000000
00000100
00001000
,
00000100
00000000
00000010
00000000
00000001
00000100
00000000
00000010
,
00000100
00000010
00001000
00000100
,
00010000
00000000
00002000
00000000
00000000
00103000
00010000
00000000
,
01000000
00100000
10100000
00010000
,
01010000
00001000
00010000
00000010
,
00001000
00000000
00000001
00000000
00000001
00000010
00000000
00000100
,
00000000
00000010
00000100
00000000
00001000
00000000
00000100
00000000
,
00010000
00000000
00001000
00000000
00000000
00011000
00000000
00000000
,
00000000
00011000
00000000
00000000
00100000
00000000
00010000
00000000
,
01000000
00000000
00200000
00000000
00000000
10300000
00010000
00000000
,
01000000
00000000
00000000
00000000
00002000
00000000
00000000
00000000
00000000
00000000
00013000
00000000
00000100
00000000
00000000
00000100
,
00000000
00000000
00001000
00000001
00000000
00000001
00001000
00000000
,
00000100
00000000
00000000
00000000
00010000
00000000
00000000
00010000
00000000
00000000
00001000
00000000
00000000
00000000
00000000
00000000
,
00000000
00011000
00000000
00100000
00010000
00000000
01000000
00000000
,
00100000
10000000
01000000
00010000
,
00010000
00001000
00000000
00100000
00001000
00000000
00010000
00000100
,
00010000
00000100
00000000
00001000
00000000
00000010
00000000
00000100
,
00000010
00000100
00000000
00000000
00000001
00000000
00000010
00000100
,
00000010
00000100
00000000
00001000
00000100
00000000
00010000
00000000
,
00001000
00100000
00000000
00010000
00100000
00000000
01000000
10000000
,
01000000
10000000
00000000
10000000
00100000
00000000
00000000
10000000
,
00010000
10000000
00000000
00010000
00100000
00000000
00001000
00010000
,
00001000
00010000
00000100
00001000
,
00000010
00000100
00000000
00000100
00000001
00000000
00000010
00000001
,
00000010
00000001
00000000
00000001
00001000
00000000
00000000
00000100
,
00001000
00000100
00000000
00010000
00001000
00010000
00000000
00001000
,
00100000
00001000
00000000
00100000
00010000
00100000
00000000
01000000
,
00000000
01100000
00000000
10000000
00100000
10000000
00000000
00010000
,
00100000
00000000
00010000
00000000
00000000
00000000
00100000
00000000
00001000
00000000
00100000
00000000
00001000
00000000
00000000
00001000
,
00000000
00022000
00000000
00000000
,
00000000
00000000
00000000
00000000
,
00033000
00000100
00001000
00000010
,
00000100
00000000
00000001
00000000
00000000
00000000
00000001
00000000
00001000
00000000
00000000
00000000
00000100
00000000
00000000
00000100
,
00000000
00010000
00001000
00000000
00100000
00000000
00010000
10000000
,
00010000
00000000
00000000
00000000
01000000
00000000
00000000
00000000
00100000
00000000
00000000
00000000
10000000
00000000
00000000
10000000
,
00000000
01000000
00100000
00010000
00100000
00000000
00001000
00010000
,
00001000
00000000
00010000
00000100
00010000
00000100
00002000
00000000
,
00003002
00000000
00000013
00000000
00000110
00000000
00000000
00001000
,
00000001
00001000
00000000
00000000
00000000
00000000
00000000
00000000
;

//--------------- dance-double - forcednature ----------------
#NOTEDATA:;
#STEPSTYPE:dance-double;
#DESCRIPTION:forcednature;
#DIFFICULTY:Hard;
#METER:14;
#RADARVALUES:0,0,0,0,0;
#CREDIT:forcednature;
#NOTES:
00000000
00000000
00000000
00000000
,
00000000
00000000
00000000
00000000
,
00000000
00000000
00000000
00000000
,
00000000
00000000
00000000
00000000
,
00000000
00000000
00000000
00000000
00000000
00000000
00000000
00011000
,
00000000
00001000
00000010
00000000
00000001
00000010
00000000
00001001
,
00000000
00000001
00000100
00000000
00001000
00010000
00000000
00011000
,
00000000
00010000
00100000
00010000
00100000
10000000
00010000
00200000
,
00000000
00000000
00000000
00000000
,
00000000
00000000
00000000
00300000
,
01000000
00000000
00010000
00000000
00000000
01000000
10000000
01000000
,
00000000
00010000
00000000
00001000
00010000
00001000
00000010
00000000
,
00000001
00000000
00000100
00000000
00000000
00001000
00000100
00001000
,
00000000
00010000
00000000
00100000
00010000
00100000
10000000
00000000
,
01000000
00000000
10000000
00000000
00000000
01000000
00010000
01000000
,
00000000
00010000
00000000
00001000
00010000
00001000
00000010
00000000
,
00000001
00000000
00000100
00000000
00000000
00001000
00000100
00001000
,
00000000
00010000
00000000
00100000
00010000
00100000
10000000
00000000
,
10010000
00000000
10010000
00000000
00000000
00010000
00100000
00001000
,
00000000
00011000
00000000
00000100
00001000
00000010
00000100
00000000
,
00000101
00000000
00000101
00000000
00000000
00000001
00000010
00001000
,
00000000
00011000
00000000
00100000
00010000
01000000
00100000
00000000
,
01100000
00000000
10010000
00000000
00000000
10000000
01000000
00010000
,
00000000
00011000
00000000
00000100
00001000
00000010
00000100
00000000
,
00000110
00000000
00001001
00000000
00000000
00000001
00000010
00001000
,
00000000
00000000
00010000
01000000
10000000
01000000
00000000
10000000
,
00100000
10000000
00000000
00010000
00100000
00001000
00010000
00000100
,
00001000
00000010
00010000
00001000
00000010
00001000
00000000
00010000
,
00000100
00001000
00000000
00000001
00000100
00001000
00010000
00010000
,
00010000
00000000
00100000
10000000
00010000
01000000
00000000
10000000
,
01000000
00010000
00000000
00100000
00001000
00010000
00000100
00010000
,
00001000
00000000
00000010
00000001
00000100
00001000
00000000
00000100
,
00000001
00000010
00000000
00000100
00010000
00001000
00100000
00100000
,
00100000
00000000
00010000
01000000
10000000
01000000
00000000
01000000
,
00010000
01000000
00000000
01000000
00100000
10000000
01000000
00010000
,
00001000
00000000
00100000
00010000
00100000
00001000
00000000
00001000
,
00010000
00000100
00000000
00000100
00001000
00000010
00000100
00000001
,
00000010
00000000
00001000
00010000
00000010
00001000
00000010
00010000
,
00001000
00100000
00010000
01000000
00010000
10000000
01000000
10000000
,
00100000
00000000
00010000
00001000
00000000
00001000
00000100
00000001
,
00000000
00000001
00000010
00001000
00000000
00001000
00010000
01000000
,
10000000
00000000
00010000
00000000
00100000
00000000
00000000
00100000
00001000
00000000
00000000
00001000
00010000
00000000
00000000
00010000
,
00000100
00000000
00000000
00000100
00002000
00000000
00000000
00000000
00003010
00000000
00000100
00000000
00000001
00000000
00000010
00000000
,
00000100
00000000
00010000
00000000
00001000
00000000
00000000
00001000
00100000
00000000
00000000
00000000
00010000
00000000
01000000
00000000
,
00100000
00000000
20000000
00000000
00000000
00000000
31000000
00000000
00100000
00000000
01000000
00000000
00010000
00000000
00000000
00010000
,
00000000
00001000
00000010
00000100
00000010
00000002
00000000
00000103
,
00000010
00000100
00000002
00000000
00000013
00000100
00000010
00000002
,
00000000
00000000
00000103
00000000
00001000
00000000
00000000
00001000
00010000
00000000
00000000
00010000
00100000
00000000
00000000
00100000
,
10000000
00000000
01000000
10000000
10000000
00010000
00100000
00001000
,
00010000
00000000
00000100
00001000
00000010
00000200
00000000
00001300
,
00000100
00000001
00002000
00000000
00003010
00010000
00001000
01000000
,
00010000
00000000
10010000
00000000
00010000
00100000
00000000
10000000
,
00100000
00020000
00000000
10030000
00100000
01000000
00100000
01000000
,
00010000
00000000
00100000
00000000
00002000
00000000
00000000
00000000
00013000
00000000
00000000
00000100
00001000
00000000
00000000
00000000
,
00000010
00000000
00000000
00000100
00000001
00000000
00000000
00000000
00000010
00000000
00000100
00000000
00010000
00000000
00000000
00010000
,
00000000
00001000
00100000
00010000
00000000
00010000
01000000
00000000
,
00100000
00000000
10000000
00000000
01000000
00000000
00000000
00100000
00000000
00000000
01100000
00000000
00000000
00000000
10000000
00000000
,
01000000
00020000
00000000
00031000
00100000
00001000
00010000
00000010
,
00010000
00001000
00000010
00000001
00000010
00000000
00000100
00001000
,
00000001
00000200
00000000
00001300
00010000
00100000
00010000
00001000
,
01000000
00020000
00000000
00130000
01000000
20000000
00000000
30100000
,
00100000
00020000
00000000
00031000
00000100
00000001
00001000
00000010
,
00000100
00000002
00000000
00000013
00001000
00020000
00000000
01030000
,
10000000
00200000
00000000
10300000
00010000
01000000
10000000
01000000
,
00010000
00110000
00000000
00001000
00011000
00000000
00000100
00001000
,
00000010
00000002
00000000
00000013
00010000
00000100
00001000
00000001
,
00000010
00000100
00020100
00000000
00031000
00000000
00100000
00010000
,
01000000
01200000
00000000
10300000
01000000
00010000
00001000
00100000
,
00010000
02000000
00000000
03100000
10000000
00000000
01000000
00010000
,
00001000
00000020
00000000
00001030
00010000
00200000
00000000
00310000
,
00001000
00000200
00000000
00001300
00010000
00010010
00000000
00101000
,
00000000
00021000
00000000
00031000
00010000
02000000
00000000
03010000
,
00001000
00000000
00000200
00000000
00000000
00000000
00001300
00000000
00010000
00000000
00100000
00000000
10000000
00000000
00000000
10000000
,
00000000
01000000
10010000
00000000
00010000
00000000
00100000
00001000
,
00010000
00000000
00000000
00000000
00000100
00000000
00001000
00000000
00000100
00000000
00000010
00000000
00000001
00000000
00000000
00000001
,
00000000
00000100
00001000
00000000
00010000
00001000
00100000
00010000
,
00100000
00000000
00000000
00000000
01000000
00000000
10000000
00000000
00010000
00000000
00000000
00000000
01000000
00000000
00000000
01000000
,
00000000
00100000
10000000
01000000
10000000
01000000
00100000
00010000
,
00100000
00000000
00010000
00000000
00001000
00000000
00000100
00000000
00001000
00000000
00000100
00000000
00000010
00000000
00000000
00000010
,
00000000
00000001
00000100
00001000
00000100
00001000
00010000
00100000
,
00010000
00100000
10000000
01000000
10000000
01000000
00010000
00001000
,
00000100
00000001
00000010
00000000
00000011
00000000
00000000
00001000
,
00000100
00010000
00000000
00000000
00000000
00000000
00000000
00000000
;
